Tags
Language
Tags

Atesh & Venera - Balkan Fiesta (2007)

Posted By: Domestos
Atesh & Venera - Balkan Fiesta (2007)

Atesh & Venera - Balkan Fiesta (2007)
EAC Rip | FLAC (image+.cue, log) ~ 315.05 Mb + 20.11 Mb (Scans) | 50:22
Fusion, Ethno Jazz | Country: Bulgaria | Label: Atesh & Venera

Are you keen on experimental music which bears the mighty local spirit of the wedding but also an inventive curiosity toward exciting global sounds? If this is so, now is the moment to dash into the labyrinth of extraordinary and explosive fusion, spiced with an overdose of Balkan folk, jazz rock, Bulgarian, Romanian, Gypsy, and Turkish music!..

Ateshhan Yuseinov, the phenomenal guitarist, virtuoso and innovator in the world of the free music making, and Venera Marmozel, cradled with the folk singing of Danube area which is now approached by her in a modern and impressive manner, have chosen to take the challenge of the vital artistic provocation. Their music has not only abandoned well tried cliches; it also catches and penetrates into the human soul as only the masters-improvisers are able to do it. Either with a pinch of humour, sensual pleasure or a notion of mysterious expression, their unpredictable sound excursions leave you breathless while playing around a bunch of firing and imaginative novelties…

Venera and Ateshhan: together in life, why not also in music?.. Not alone their irresistible artistic journey, they enjoy a first-class company of superb musicians who are well inside the marvels of the Balkan music and seem to be eager, again, to retrieve and hunt up the hot passions of the Balkan soul, to twirl round the swing of the famed native grooves, vivid tunes and colourful tones, drawn out of the knotty regional clew that seals the music from the Balkans.

Ateshhan Yuseinov - acoustic guitar, fretles guitar, el.guitar
Venera Marmozel - singer, vocals

Special guest:
Ivo Papasov - clarinet
Theodosii Spassov - kaval
Stoyan Yankoulov - drums, percussion

Atesh & Venera - Balkan Fiesta (2007)

Track List:
1. Trans-danubian Jump
2. Balkan Fiesta
3. Whisper in 9/8
4. Atesh's Sign
5. Papasov's Dream
6. Fire Dance
7. Samodiva
8. Rodopean Song
9. Leftero
10. Broken Frets

Atesh & Venera - Balkan Fiesta (2007)

Exact Audio Copy V0.99 prebeta 3 from 28. July 2007

EAC extraction logfile from 3. February 2008, 16:39

Atesh and Venera / Balkan Fiesta

Used drive : MATSHITADVD-RAM UJ-842S Adapter: 0 ID: 0

Read mode : Secure
Utilize accurate stream : Yes
Defeat audio cache : Yes
Make use of C2 pointers : No

Read offset correction : 102
Overread into Lead-In and Lead-Out : No
Fill up missing offset samples with silence : Yes
Delete leading and trailing silent blocks : No
Null samples used in CRC calculations : Yes
Used interface : Installed external ASPI interface

Used output format : Internal WAV Routines
Sample format : 44.100 Hz; 16 Bit; Stereo

TOC of the extracted CD

Track | Start | Length | Start sector | End sector
––––––––––––––––––––––––––––-
1 | 0:00.00 | 4:08.37 | 0 | 18636
2 | 4:08.37 | 5:56.64 | 18637 | 45400
3 | 10:05.26 | 6:04.72 | 45401 | 72772
4 | 16:10.23 | 5:08.42 | 72773 | 95914
5 | 21:18.65 | 5:30.52 | 95915 | 120716
6 | 26:49.42 | 4:57.73 | 120717 | 143064
7 | 31:47.40 | 3:54.73 | 143065 | 160687
8 | 35:42.38 | 6:13.21 | 160688 | 188683
9 | 41:55.59 | 4:23.55 | 188684 | 208463
10 | 46:19.39 | 4:02.53 | 208464 | 226666

Range status and errors

Selected range

Filename h:\Temp\Rip\Atesh and Venera - Balkan Fiesta\Atesh and Venera - Balkan Fiesta.wav

Peak level 100.0 %
Range quality 100.0 %
Test CRC C0C49FDD
Copy CRC C0C49FDD
Copy OK

No errors occurred

End of status report

All thanks go to the Original ripper (unknown)

More Music in My Blog
Follow My RSS Channel