Subcategories

Ayub Ogada - En Mana Kuoyo (1993) {Real World Gold CDRW42 rel 2013}

Posted By: ruskaval
Ayub Ogada - En Mana Kuoyo (1993) {Real World Gold CDRW42 rel 2013}

Ayub Ogada - En Mana Kuoyo (1993) {Real World Gold CDRW42 rel 2013}
EAC rip (secure mode) | FLAC (tracks)+CUE+LOG -> 212 Mb | MP3 @320 -> 94 Mb
Full Artwork @ 300 dpi (jpg) -> 8 Mb | 5% repair rar
© 1993, 2013 Real World Records Gold | CDRW42
World Music / African Folk / African Traditions / East African

When listening to this album, one is struck immediately by the unique sound. The powerful, resonating nyatiti (a stringed instrument similar to the lyre) and Ogada's reflective, subdued vocals are unlike anything you've ever heard. They're also almost the only things you will hear on this disc, the only embellishment being the occasional light percussion or wind instrument. Ogada sings in his native Kenyan tongue, of the beliefs and traditions of his people. "Go far, see the world, but don't forget where you come from," he intones in the song "Chiro," a sentiment he has obviously taken to heart. There are no pounding rhythms on this record, nothing you can dance to, but it is memorable nonetheless, and makes a strong case for the beauty of restraint.

Real World INFO

Musicians
Flute, Nyatiti, Percussion, Vocals Ayub Ogada
Vocals Geoffrey Oryema
Djembe, Panlogo, Percussion David Oladunni
Bass, Organ, Piano Alex Gifford
Bass, Guitar Zak Sikobe

tracklist:
01 Obiero 05:40
02 Dala 03:18
03 Wa Winjigo Ero 03:34
04 Thum Nyatiti 02:43
05 Kronkronhinko 03:25
06 Chiro 03:38
07 10% 04:05
08 Ondiek 04:05
09 Kothbiro 05:37
10 En Mana Kuoyo 03:54

Exact Audio Copy V1.0 beta 3 from 29. August 2011

EAC extraction logfile from 30. November 2014, 18:32

Ayub Ogada / En Mana Kuoyo

Used drive : SONY DVD RW DRU-810A Adapter: 1 ID: 0

Read mode : Secure
Utilize accurate stream : Yes
Defeat audio cache : Yes
Make use of C2 pointers : No

Read offset correction : 618
Overread into Lead-In and Lead-Out : No
Fill up missing offset samples with silence : Yes
Delete leading and trailing silent blocks : No
Null samples used in CRC calculations : Yes
Used interface : Native Win32 interface for Win NT & 2000
Gap handling : Appended to previous track

Used output format : User Defined Encoder
Selected bitrate : 128 kBit/s
Quality : High
Add ID3 tag : No
Command line compressor : C:\Program Files (x86)\Exact Audio Copy\Flac\flac.exe
Additional command line options : -8 -V -T "ARTIST=%artist%" -T "TITLE=%title%" -T "ALBUM=%albumtitle%" -T "DATE=%year%" -T "TRACKNUMBER=%tracknr%" -T "TOTALTRACKS=%numtracks%" -T "GENRE=%genre%" -T "ALBUMARTIST=%albumartist%" -T "ALBUM ARTIST=%albumartist%" -T "COMMENT=EAC Secure Mode, Test & Copy, AccurateRip, FLAC -8" %source%


TOC of the extracted CD

Track | Start | Length | Start sector | End sector
––––––––––––––––––––––––––––-
1 | 0:00.00 | 5:40.15 | 0 | 25514
2 | 5:40.15 | 3:17.65 | 25515 | 40354
3 | 8:58.05 | 3:34.00 | 40355 | 56404
4 | 12:32.05 | 2:43.17 | 56405 | 68646
5 | 15:15.22 | 3:24.38 | 68647 | 83984
6 | 18:39.60 | 3:38.15 | 83985 | 100349
7 | 22:18.00 | 4:05.22 | 100350 | 118746
8 | 26:23.22 | 4:05.35 | 118747 | 137156
9 | 30:28.57 | 5:37.13 | 137157 | 162444
10 | 36:05.70 | 3:54.27 | 162445 | 180021


Track 1

Filename F:\New Rips\Ayub Ogada - En Mana Kuoyo (1993) [FLAC]\01 - Obiero.wav

Pre-gap length 0:00:02.00

Peak level 97.6 %
Extraction speed 2.1 X
Track quality 100.0 %
Test CRC 73711349
Copy CRC 73711349
Accurately ripped (confidence 2) [B6D6E1A2] (AR v2)
Copy OK

Track 2

Filename F:\New Rips\Ayub Ogada - En Mana Kuoyo (1993) [FLAC]\02 - Dala.wav

Peak level 83.3 %
Extraction speed 1.9 X
Track quality 99.9 %
Test CRC 2E4A9986
Copy CRC 2E4A9986
Accurately ripped (confidence 2) [E010E7EF] (AR v2)
Copy OK

Track 3

Filename F:\New Rips\Ayub Ogada - En Mana Kuoyo (1993) [FLAC]\03 - Wa Winjigo Ero.wav

Peak level 91.2 %
Extraction speed 2.3 X
Track quality 100.0 %
Test CRC 36D0E32F
Copy CRC 36D0E32F
Accurately ripped (confidence 2) [E7E73694] (AR v2)
Copy OK

Track 4

Filename F:\New Rips\Ayub Ogada - En Mana Kuoyo (1993) [FLAC]\04 - Thum Nyatiti.wav

Peak level 91.2 %
Extraction speed 2.3 X
Track quality 100.0 %
Test CRC 83DC5959
Copy CRC 83DC5959
Accurately ripped (confidence 2) [594E5A8D] (AR v2)
Copy OK

Track 5

Filename F:\New Rips\Ayub Ogada - En Mana Kuoyo (1993) [FLAC]\05 - Kronkrohinko.wav

Peak level 85.3 %
Extraction speed 2.2 X
Track quality 99.9 %
Test CRC FDB3C91A
Copy CRC FDB3C91A
Accurately ripped (confidence 2) [F85FEBF3] (AR v2)
Copy OK

Track 6

Filename F:\New Rips\Ayub Ogada - En Mana Kuoyo (1993) [FLAC]\06 - Chiro.wav

Peak level 87.9 %
Extraction speed 2.7 X
Track quality 100.0 %
Test CRC BAFC9F2B
Copy CRC BAFC9F2B
Accurately ripped (confidence 2) [EAFDC178] (AR v2)
Copy OK

Track 7

Filename F:\New Rips\Ayub Ogada - En Mana Kuoyo (1993) [FLAC]\07 - 10 Percent.wav

Peak level 94.1 %
Extraction speed 2.9 X
Track quality 100.0 %
Test CRC A689EC20
Copy CRC A689EC20
Accurately ripped (confidence 2) [38AC3832] (AR v2)
Copy OK

Track 8

Filename F:\New Rips\Ayub Ogada - En Mana Kuoyo (1993) [FLAC]\08 - Ondiek.wav

Peak level 84.5 %
Extraction speed 3.1 X
Track quality 100.0 %
Test CRC 760F40B8
Copy CRC 760F40B8
Accurately ripped (confidence 2) [2CA3900A] (AR v2)
Copy OK

Track 9

Filename F:\New Rips\Ayub Ogada - En Mana Kuoyo (1993) [FLAC]\09 - Kothbiro.wav

Peak level 97.6 %
Extraction speed 3.3 X
Track quality 100.0 %
Test CRC 44AE8AC1
Copy CRC 44AE8AC1
Accurately ripped (confidence 2) [E5F4C3CC] (AR v2)
Copy OK

Track 10

Filename F:\New Rips\Ayub Ogada - En Mana Kuoyo (1993) [FLAC]\10 - En Mana Kuoyo.wav

Peak level 90.1 %
Extraction speed 3.3 X
Track quality 100.0 %
Test CRC 32888BC3
Copy CRC 32888BC3
Accurately ripped (confidence 2) [F9A0D548] (AR v2)
Copy OK


All tracks accurately ripped

No errors occurred

End of status report

–– CUETools DB Plugin V2.1.3

[CTDB TOCID: yW7DWrGCCkbNcuKeB9ID35xpoYA-] found, Submit result: yW7DWrGCCkbNcuKeB9ID35xpoYA- has been confirmed
[ed7d1f71] (4/6) Differs in 4012 samples @21:58:45-22:02:07
[270015ba] (2/6) Accurately ripped
You can use CUETools to repair this rip.


==== Log checksum 96B4E521424A474A1E0EEA3C1779603C0B66FFA77439290EBC3608C6B2088CEA ====


Ayub Ogada - En Mana Kuoyo (1993) {Real World Gold CDRW42 rel 2013}

Ayub Ogada - En Mana Kuoyo (1993) {Real World Gold CDRW42 rel 2013}



===