Tags
Language
Tags

BadBadNotGood - Talk Memory (Japanese Edition) (2021)

Posted By: delpotro
BadBadNotGood - Talk Memory (Japanese Edition) (2021)

BadBadNotGood - Talk Memory (2021)
EAC Rip | FLAC (tracks+log+.cue) - 314 Mb | MP3 CBR 320 kbps - 151 Mb | Covers included | 00:51:10
Jazz Fusion | Label: XL Recordings, Beat Records

BasBadNotGood return with their highly anticipated new album, Talk Memory, a psychedelic jazz record that explores balance and harmony through musical improvisation. Collaborators include legendary composer Arthur Verocai and contemporary icons such as Terrace Martin, Karriem Riggins and Laraaji.
Tracklist:
1. Signal from the Noise (09:02)
2. Unfolding (Momentum 73) [feat. Laraaji] (04:30)
3. City of Mirrors (feat. Arthur Verocai) (03:50)
4. Beside April (feat. Arthur Verocai) (05:13)
5. Love Proceeding (feat. Arthur Verocai) (05:25)
6. Open Channels (04:22)
7. Timid, Intimidating (06:17)
8. Beside April (Reprise) [feat. Arthur Verocai] (01:40)
9. Talk Meaning (feat. Terrace Martin, Brandee Younger & Arthur Verocai) (06:14)
10. Stepping Through Stars (04:32)

Exact Audio Copy V1.3 from 2. September 2016

EAC extraction logfile from 18. October 2021, 20:52

BADBADNOTGOOD / Talk Memory

Used drive : ATAPI DVD A DH16AASH Adapter: 1 ID: 0

Read mode : Secure
Utilize accurate stream : Yes
Defeat audio cache : Yes
Make use of C2 pointers : No

Read offset correction : 6
Overread into Lead-In and Lead-Out : No
Fill up missing offset samples with silence : Yes
Delete leading and trailing silent blocks : No
Null samples used in CRC calculations : Yes
Used interface : Native Win32 interface for Win NT & 2000
Gap handling : Appended to previous track

Used output format : User Defined Encoder
Selected bitrate : 1024 kBit/s
Quality : High
Add ID3 tag : No
Command line compressor : C:\Program Files (x86)\Exact Audio Copy\Flac\flac.exe
Additional command line options : -8 -e -V -T "ARTIST=%artist%" -T "TITLE=%title%" -T "ALBUM=%albumtitle%" -T "DATE=%year%" -T "TRACKNUMBER=%tracknr%" -T "GENRE=%genre%" -T "PERFORMER=%albuminterpret%" -T "COMPOSER=%composer%" %haslyrics%–tag-from-file=LYRICS="%lyricsfile%"%haslyrics% -T "ALBUMARTIST=%albumartist%" -T "DISCNUMBER=%cdnumber%" -T "TOTALDISCS=%totalcds%" -T "TOTALTRACKS=%numtracks%" -T "COMMENT=%comment%" %source% -o %dest%


TOC of the extracted CD

Track | Start | Length | Start sector | End sector
––––––––––––––––––––––––––––-
1 | 0:00.00 | 9:02.56 | 0 | 40705
2 | 9:02.56 | 4:30.24 | 40706 | 60979
3 | 13:33.05 | 3:50.30 | 60980 | 78259
4 | 17:23.35 | 5:13.44 | 78260 | 101778
5 | 22:37.04 | 5:25.62 | 101779 | 126215
6 | 28:02.66 | 4:22.56 | 126216 | 145921
7 | 32:25.47 | 6:17.24 | 145922 | 174220
8 | 38:42.71 | 1:40.68 | 174221 | 181788
9 | 40:23.64 | 6:14.11 | 181789 | 209849
10 | 46:38.00 | 4:32.12 | 209850 | 230261


Track 1

Filename Q:\B\BADBADNOTGOOD\2021 Talk Memory {XL1176CDJP}\01 - Signal From The Noise.wav

Pre-gap length 0:00:02.00

Peak level 100.0 %
Extraction speed 4.0 X
Track quality 100.0 %
Test CRC 194E8560
Copy CRC 194E8560
Track not present in AccurateRip database
Copy OK

Track 2

Filename Q:\B\BADBADNOTGOOD\2021 Talk Memory {XL1176CDJP}\02 - Unfolding (Momentum 73).wav

Peak level 97.0 %
Extraction speed 4.4 X
Track quality 100.0 %
Test CRC 27A94FDE
Copy CRC 27A94FDE
Track not present in AccurateRip database
Copy OK

Track 3

Filename Q:\B\BADBADNOTGOOD\2021 Talk Memory {XL1176CDJP}\03 - City Of Mirrors.wav

Peak level 99.1 %
Extraction speed 3.7 X
Track quality 99.9 %
Test CRC 31DD358F
Copy CRC 31DD358F
Track not present in AccurateRip database
Copy OK

Track 4

Filename Q:\B\BADBADNOTGOOD\2021 Talk Memory {XL1176CDJP}\04 - Beside April.wav

Peak level 98.7 %
Extraction speed 5.1 X
Track quality 100.0 %
Test CRC 75BD4936
Copy CRC 75BD4936
Track not present in AccurateRip database
Copy OK

Track 5

Filename Q:\B\BADBADNOTGOOD\2021 Talk Memory {XL1176CDJP}\05 - Love Proceeding.wav

Peak level 97.3 %
Extraction speed 5.5 X
Track quality 100.0 %
Test CRC F277EE2D
Copy CRC F277EE2D
Track not present in AccurateRip database
Copy OK

Track 6

Filename Q:\B\BADBADNOTGOOD\2021 Talk Memory {XL1176CDJP}\06 - Open Channels.wav

Peak level 92.1 %
Extraction speed 5.7 X
Track quality 100.0 %
Test CRC C4322845
Copy CRC C4322845
Track not present in AccurateRip database
Copy OK

Track 7

Filename Q:\B\BADBADNOTGOOD\2021 Talk Memory {XL1176CDJP}\07 - Timid, Intimidating.wav

Peak level 97.5 %
Extraction speed 6.2 X
Track quality 100.0 %
Test CRC 2B2DF0A1
Copy CRC 2B2DF0A1
Track not present in AccurateRip database
Copy OK

Track 8

Filename Q:\B\BADBADNOTGOOD\2021 Talk Memory {XL1176CDJP}\08 - Beside April (Reprise).wav

Peak level 88.2 %
Extraction speed 3.3 X
Track quality 99.8 %
Test CRC F14894D2
Copy CRC F14894D2
Track not present in AccurateRip database
Copy OK

Track 9

Filename Q:\B\BADBADNOTGOOD\2021 Talk Memory {XL1176CDJP}\09 - Talk Meaning.wav

Peak level 97.0 %
Extraction speed 5.6 X
Track quality 99.9 %
Test CRC 1F49F232
Copy CRC 1F49F232
Track not present in AccurateRip database
Copy OK

Track 10

Filename Q:\B\BADBADNOTGOOD\2021 Talk Memory {XL1176CDJP}\10 - Stepping Through Stars.wav

Peak level 94.7 %
Extraction speed 6.7 X
Track quality 100.0 %
Test CRC 4DE05ACC
Copy CRC 4DE05ACC
Track not present in AccurateRip database
Copy OK


None of the tracks are present in the AccurateRip database

No errors occurred

End of status report

–– CUETools DB Plugin V2.1.6

[CTDB TOCID: 6FLtf5x_VWr6g7059gHbaZdntgQ-] disk not present in database
Submit result: 6FLtf5x_VWr6g7059gHbaZdntgQ- has been uploaded


==== Log checksum 06F5523ED2B2E51B93A2409BC44649C580F1B9899B2EC3979530E8D1236C60D3 ====

Thanks to the Original ripper !