Subcategories

Be Bop Deluxe - Live! In The Air Age (1977) {2008 Harvest Japan Mini LP TOCP-70362}

Posted By: ruskaval
Be Bop Deluxe - Live! In The Air Age (1977) {2008 Harvest Japan Mini LP TOCP-70362}

Be Bop Deluxe - Live! In The Air Age (1977) {2008 Harvest Japan Mini LP TOCP-70362}
EAC rip (secure mode) | FLAC (tracks)+CUE+LOG -> 318 Mb | MP3 @320 -> 125 Mb
Full Artwork @ 600 dpi (png) -> 109 Mb | 5% repair rar
© 1977, 2008 Harvest / EMI Music Japan / Toshiba | TOCP-70362 | Mini LP
Rock / Art Rock / Contemporary Pop / Prog Rock / Glam Rock

Originally released on white vinyl as a double set in which one disc was an LP while the other was a 12" EP, Live! In the Air Age is an impressive testament to one of prog rock's more interesting results. Bandleader Bill Nelson is better known for his solo work of the '80s and on, but prior to that he was a burgeoning guitar hero with a blazing style and a talented bunch of players backing him up.

Live! In the Air Age touches on a variety of concert highlights, including the sarcastic "Fair Exchange," the leisurely "Adventures in a Yorkshire Landscape," and the monolithic instrumental version of "Shine," which was originally a much shorter and far less monolithic B-side. The version of "Shine" included here, however (and originally one side of the vinyl 12"), allows Nelson to enjoy a guitar workout that leans toward something other than rock. Overall, an extremely enjoyable live album that never feels like a rehash of the studio material.
Be Bop Deluxe - Live! In The Air Age (1977) {2008 Harvest Japan Mini LP TOCP-70362}


tracklist:
01 - Life In The Air Age
02 - Ships In The Night
03 - Piece Of Mine
04 - Fair Exchange
05 - Mill Street Junction
06 - Adventures In A Yorkshire Landscape
07 - Blazing Apostles
08 - Shine
09 - Sister Seagull
10 - Maid In Heaven

Exact Audio Copy V1.1 from 23. June 2015

EAC extraction logfile from 9. March 2016, 17:06

Be Bop Deluxe / Live! In The Air Age

Used drive : TSSTcorpCDDVDW SE-208DB Adapter: 1 ID: 0

Read mode : Secure
Utilize accurate stream : Yes
Defeat audio cache : Yes
Make use of C2 pointers : No

Read offset correction : 6
Overread into Lead-In and Lead-Out : No
Fill up missing offset samples with silence : Yes
Delete leading and trailing silent blocks : No
Null samples used in CRC calculations : Yes
Used interface : Native Win32 interface for Win NT & 2000
Gap handling : Appended to previous track

Used output format : User Defined Encoder
Selected bitrate : 1024 kBit/s
Quality : High
Add ID3 tag : No
Command line compressor : C:\Program Files (x86)\FLAC Frontend\tools\flac.exe
Additional command line options : -8 -V -T "ARTIST=%artist%" -T "TITLE=%title%" -T "ALBUM=%albumtitle%" -T "DATE=%year%" -T "TRACKNUMBER=%tracknr%" -T "TOTALTRACKS=%numtracks%" -T "GENRE=%genre%" -T "ALBUMARTIST=%albumartist%" -T "ALBUM ARTIST=%albumartist%" -T "COMMENT=EAC Secure Mode, Test & Copy, AccurateRip, FLAC -8" %source%


TOC of the extracted CD

Track | Start | Length | Start sector | End sector
––––––––––––––––––––––––––––-
1 | 0:00.00 | 4:30.70 | 0 | 20319
2 | 4:30.70 | 3:37.15 | 20320 | 36609
3 | 8:08.10 | 5:06.04 | 36610 | 59563
4 | 13:14.14 | 4:55.31 | 59564 | 81719
5 | 18:09.45 | 4:43.30 | 81720 | 102974
6 | 22:53.00 | 8:00.27 | 102975 | 139001
7 | 30:53.27 | 6:31.63 | 139002 | 168389
8 | 37:25.15 | 9:23.48 | 168390 | 210662
9 | 46:48.63 | 3:42.03 | 210663 | 227315
10 | 50:30.66 | 2:27.01 | 227316 | 238341


Track 1

Filename D:\_EAC\Be Bop Deluxe - Live! In The Air Age (1977) [FLAC] {Japan Mini LP TOCP-70362}\01 - Life In The Air Age.wav

Pre-gap length 0:00:02.00

Peak level 94.2 %
Extraction speed 2.5 X
Track quality 99.9 %
Test CRC A1CBCFDE
Copy CRC A1CBCFDE
Accurately ripped (confidence 3) [C6E220BE] (AR v2)
Copy OK

Track 2

Filename D:\_EAC\Be Bop Deluxe - Live! In The Air Age (1977) [FLAC] {Japan Mini LP TOCP-70362}\02 - Ships In The Night.wav

Peak level 79.3 %
Extraction speed 3.2 X
Track quality 100.0 %
Test CRC 3A0580B5
Copy CRC 3A0580B5
Accurately ripped (confidence 3) [C06EAD8C] (AR v2)
Copy OK

Track 3

Filename D:\_EAC\Be Bop Deluxe - Live! In The Air Age (1977) [FLAC] {Japan Mini LP TOCP-70362}\03 - Piece Of Mine.wav

Peak level 86.1 %
Extraction speed 3.1 X
Track quality 99.9 %
Test CRC 9DAC7A3E
Copy CRC 9DAC7A3E
Accurately ripped (confidence 3) [4DDE03CC] (AR v2)
Copy OK

Track 4

Filename D:\_EAC\Be Bop Deluxe - Live! In The Air Age (1977) [FLAC] {Japan Mini LP TOCP-70362}\04 - Fair Exchange.wav

Peak level 73.1 %
Extraction speed 3.9 X
Track quality 100.0 %
Test CRC 18A5C24D
Copy CRC 18A5C24D
Accurately ripped (confidence 3) [11463948] (AR v2)
Copy OK

Track 5

Filename D:\_EAC\Be Bop Deluxe - Live! In The Air Age (1977) [FLAC] {Japan Mini LP TOCP-70362}\05 - Mill Street Junction.wav

Peak level 84.1 %
Extraction speed 4.1 X
Track quality 100.0 %
Test CRC 83FACF19
Copy CRC 83FACF19
Accurately ripped (confidence 3) [FD84DCCF] (AR v2)
Copy OK

Track 6

Filename D:\_EAC\Be Bop Deluxe - Live! In The Air Age (1977) [FLAC] {Japan Mini LP TOCP-70362}\06 - Adventures In A Yorkshire Landscape.wav

Peak level 74.5 %
Extraction speed 4.1 X
Track quality 99.9 %
Test CRC 4492844B
Copy CRC 4492844B
Accurately ripped (confidence 3) [6D2EFAA3] (AR v2)
Copy OK

Track 7

Filename D:\_EAC\Be Bop Deluxe - Live! In The Air Age (1977) [FLAC] {Japan Mini LP TOCP-70362}\07 - Blazing Apostles.wav

Peak level 86.6 %
Extraction speed 4.9 X
Track quality 100.0 %
Test CRC 7455BDBB
Copy CRC 7455BDBB
Accurately ripped (confidence 3) [BF57A8E6] (AR v2)
Copy OK

Track 8

Filename D:\_EAC\Be Bop Deluxe - Live! In The Air Age (1977) [FLAC] {Japan Mini LP TOCP-70362}\08 - Shine.wav

Peak level 96.1 %
Extraction speed 5.4 X
Track quality 100.0 %
Test CRC 896CCB70
Copy CRC 896CCB70
Accurately ripped (confidence 3) [F44323CB] (AR v2)
Copy OK

Track 9

Filename D:\_EAC\Be Bop Deluxe - Live! In The Air Age (1977) [FLAC] {Japan Mini LP TOCP-70362}\09 - Sister Seagull.wav

Peak level 100.0 %
Extraction speed 5.1 X
Track quality 100.0 %
Test CRC 3FBD56B3
Copy CRC 3FBD56B3
Accurately ripped (confidence 3) [D97A0A79] (AR v2)
Copy OK

Track 10

Filename D:\_EAC\Be Bop Deluxe - Live! In The Air Age (1977) [FLAC] {Japan Mini LP TOCP-70362}\10 - Maid In Heaven.wav

Peak level 100.0 %
Extraction speed 4.8 X
Track quality 100.0 %
Test CRC 51448C53
Copy CRC 51448C53
Accurately ripped (confidence 3) [FC50E15A] (AR v2)
Copy OK


All tracks accurately ripped

No errors occurred

End of status report

==== Log checksum 6B3FB66802161A3A9B2A85E03DD2111705E41E1B999FC555A32BF3F0A9032948 ====


Be Bop Deluxe - Live! In The Air Age (1977) {2008 Harvest Japan Mini LP TOCP-70362}

Be Bop Deluxe - Live! In The Air Age (1977) {2008 Harvest Japan Mini LP TOCP-70362}


More Bill Nelson…

NEXT - > Be Bop Deluxe - Drastic Plastice (1978) {Japan Mini LP TOCP-70363}