Subcategories

Big Star - I Got Kinda Lost - Fan Made Project (2013) {8CD set with bonus 9th disc, 2015 Upgrade rec 1965-1975}

Posted By: ruskaval
Big Star - I Got Kinda Lost - Fan Made Project (2013) {8CD set with bonus 9th disc, 2015 Upgrade rec 1965-1975}

Big Star - I Got Kinda Lost - Fan Made Project (2013) {8CD set with bonus 9th disc, 2015 Upgrade rec 1965-1975}
EAC rip (secure mode) | FLAC (tracks)+CUE+LOG -> 3.66 Gb | MP3 @320 -> 1.32 Gb
Full Artwork @ 300 dpi (png) -> 221 Mb | 5% repair rar
© 1965-75, 2015 Ardent Music | ST100/6 | unofficial | Fan Made Project
Rock / Contemporary Pop/Rock / Power Pop

This is the expanded 'I Got Kinda Lost' unofficial Big Star box set. Previously this set contained four discs and was jam packed with all kinds of Big Star related tracks.
Like the previous incarnations of 'I Got Kinda Lost', this expanded 2013 release attempts to tell the story chronologically of Big Star through their studio outtakes and alternate versions by keeping it more Big Star centric through the prism of Chris Bell and Alex Chilton - the architects of the band.

Big Star - I Got Kinda Lost - Fan Made Project (2013) {8CD set with bonus 9th disc, 2015 Upgrade rec 1965-1975}


The tracks are split up between the CD's to a timeline that carries the listener from 1965 to roughly 1975.

This massive compilation is what one would call a 'fantasy release'. It's designed to look 'official' but clearly it is not.
In fact, this box set carries a fake catalog number - ST100/6 which is a direct homage to Chris Bell and Andy Hummel who briefly had the idea (as a joke) that if Ardent/Stax didn't release their completed #1 Record they were going to do it themselves (à la bootleg it) and give it the mythical catalog number ST100/6. Their little idea has now come full circle back to that very same idea, like a bridge to the past.

Big Star - I Got Kinda Lost - Fan Made Project (2013) {8CD set with bonus 9th disc, 2015 Upgrade rec 1965-1975}


Some notes:

all sourced from CD or vinyl - no mp3 sourced material!
all artwork was created at 300 dpi - full size - saved as png
all needledrops that appeared on previous comps have been re-done (new transfers)
disc 5, tracks 7 & 8 are fan mixes - they were so good and too hard to pass on
there has been no audio leveling between tracks or 'normalizing'. Tracks are represented here as to how they were from their original origin.
Big Star - I Got Kinda Lost - Fan Made Project (2013) {8CD set with bonus 9th disc, 2015 Upgrade rec 1965-1975}


more INFO

INFO & TRACKLISTING

Disc 01


Disc one gets started in 1965 with The Jynx, consisting of Chris Bell (guitar), Bill Cunningham (bass), David Hoback (guitar), Dewitt Shy (drums) & Mike Harris (vocals). The first four tracks of disc one are the only recorded tracks from the short lived Jynx which were recorded @ Sonic Studios in December of 1965.
By early 1966 The Jynx called it a day.

We then fast forward a couple of years to 1969 where Chris Bell ended up at Ardent Studios recording with Terry Manning; playing lead guitar on a cover of a then an unreleased Beatles tune called 'One After 909'. Terry had acquired an incomplete demo of the song from someone close to The Beatles. According to Terry, this cover version was Chris Bell's first recording in a 'real studio'.
In addition to that, tracks 9 - 11 feature Chris Bell contributing to songs that would wind up on Terry Manning's solo LP called 'Home Sweet Home'.

From either late 1968 or early 1969 are some Chris Bell experimental tracks called 'Psychedelic Stuff' in which Terry Manning contributes.

During the years in between 1965 and 1968 this compilation doesn't focus on Alex Chilton because his work is more widely known with The Box Tops so there is no reason to add those tracks here as this comp is about rarities and outtakes - not greatest hits.

Alex Chilton departs The Box Tops by late 1969 and records an album's worth of material along with Terry Manning that will remain largely unreleased until roughly 1996 with the album title '1970' - though reports say the material was actually recorded in 1969 - but due to contract stipulations with The Box Tops the album is given the name '1970' so that the recordings can't be viewed as Alex breaking contractual obligations with The Box Tops. Some of these solo tracks make up tracks 12 -23 on disc one. Of course these are alternate or mono tracks that never appeared on the officially released Alex Chilton archival solo album in 1996 called '1970'.

Tracks 18 & 20 are needledrops taken from a pristine vinyl 45 limited to 500 copies.

The cover of disc one features a colorized photo taken by Michael O'Brien of the band in happier days (1971) at Alex's parents house (145 North Montgomery, Memphis, TN). Previously we've only seen a few different shots from this session at Alex's house - all of them have been in black and white. It's interesting to view one of these iconic photos in an colorized alternate way.

The reverse image of the cover features a black & white photo of Alex and Chris in Ardent Studios. It is believed that year is either late 1971 or early 1972.

It's too bad that Omnivore used this same photo of Alex & Chris in the studio for the rear photo of their 45 vinyl single of Alex Chilton's 'All We Ever Got From Them Was Pain' in which they completely airbrushed Chris Bell out of the picture to make it look like Alex was the sole person in the photo/studio!
That crappy omission has been corrected with this release.
The outside tray liner photo is from the same session that yielded the restored photo as mentioned above with Alex and Chris.


01 Little Girl
02 Just Like Me
03 And My Baby's Gone
04 I'll Go Crazy
05 One After 909
06 Psychedelic Stuff [1994 mix]
07 Psychedelic Stuff [alt guitar mix 2008]
08 Psychedelic Stuff [original mix 2009]
09 Untitled Acoustic Instrumental [rough mix]
10 Guess Things Happen That Way
11 Trashy Dog
12 Wild Wild Rocker
13 Free Again [original mono mix 2008]
14 Free Again [original mono mix]
15 Free Again [stereo mix - alt vocal]
16 Everyday As We Grow Closer [original mono mix 2008]
17 Come On Honey [original mono mix]
18 Happy Song [mono mix - cassette source]
19 All We Ever Got From Them Was Pain [demo]
20 All We Ever Got From Them Was Pain
21 All We Ever Got From Them Was Pain [US 45 single mix]
22 All We Ever Got From Them Was Pain [movie mix 2012]
23 All I Really Want Is Money [mono mix - cassette source]
24 All I Really Want Is Money [original mono mix]

Big Star - I Got Kinda Lost - Fan Made Project (2013) {8CD set with bonus 9th disc, 2015 Upgrade rec 1965-1975}


Disc 02

By 1970, after recording this solo album at Ardent with Terry Manning in 1969, Alex heads to New York City to try his hand at playing folk clubs.
Meanwhile, back in Memphis, Chris Bell, Thomas Dean Eubanks, Terry Manning & Jody Stephens form a band in 1969 - 1970 called 'Rock City' and manage to record a proper album. This material makes up the heart of disc two following the rest of Alex's solo material with Terry Manning.
Following the dissolution of Rock City, another Chris Bell led band called Icewater, featuring Chris Bell, Jody Stephens and Terry Manning with extended cast members that included Andy Hummel and Steve Rhea circa 1970.
On a jaunt to New York City in late 1970 to shop demos of Icewater, Chris Bell and Richard Rosebrough meet up with Alex Chilton. Alex tries to convince Chris to stay in NYC and form an acoustic folk duo like Simon & Grafunkel. Chris tells Alex he is more interested in electric guitar in a band - like the Beatles. Chris asks Alex to come and see them play in Memphis and Alex tells him he will.
By late 1970 (just before Christmas) Alex has left NYC and is back in Memphis and true to his word comes to see a 3-piece band Icewater (Chris, Jody & Andy) playing a gig. After the gig Alex discusses with Chris a meeting date and to possibly record. And so in February of 1971 Alex shows up at Ardent where Chris is and enters the studio, announcing he has a new song to play called 'Watch The Sunrise'. Alex pulls up a stool and starts playing his Martin 12 string acoustic guitar - meanwhile Chris is recording the performance and will ultimately add guitar parts to it.

The front cover to disc two features all four Big Star members in an unknown locale. The rear cover features Alex Chilton slumped over an organ in Ardent studios. The outside tray liner pic is Terry Manning recording Chris Bell in 1972.


01 Just To See You [cassette source]
02 The EMI Song (Smile For Me) [original mono mix 2008]
03 If you Would Marry Me Babe [demo]
04 It Isn't Always That Easy [demo]
05 Sugar Sugar [mono mix - cassette source - incomplete]
06 Think It's Time To Say Goodbye
07 I Lost Your Love
08 My Life Is Right
09 The Wind Will Cry For Me
10 Lovely Lady
11 The Answer
12 Introduction
13 Sunday Organ
14 The Preacher
15 Shine On Me
16 Feeling High
17 All I See Is You
18 Looking Forward
19 Sunshine
20 Feel

Big Star - I Got Kinda Lost - Fan Made Project (2013) {8CD set with bonus 9th disc, 2015 Upgrade rec 1965-1975}


Disc 03

At last Big Star has arrived with disc three! The cover photo is an outtake of the band in a relaxed, light-hearted moment sitting in the front 3-paneled window of Alex Chilton's parent's house in 1971. The rear insert cover is of the band taken inside at Ardent Studios circa late 1971. The outside tray liner photo seems to be the proper posed photo of the cover but at this time it's believed they are not the same session/day.
In fact if you look close enough to tray liner of disc 3 and the cover of disc 4, you will notice they are wearing the exact same clothes with the exception of Chilton who has shed the red reindeer sweatshirt.

Track 12 is the real deal 45 single mix of 'In The Street'. This track is a recent needledrop taken from pristine condition vinyl of a vintage Ardent Records vinyl 45 single. In the recent past, there appeared on CD some tracks that claimed to be the 45 single mix but that wasn't really true. The real 45 single mix does not feature a false start/stop.


01 Feel [rough mix - alt guitar]
02 Feel [early mix]
03 Feel [alt mix - prev unissued]
04 Feel [alt mix 1972]
05 The Ballad Of El Goodo [rough mix - alt vocals]
06 The Ballad Of El Goodo [alt mix - version 01]
07 The Ballad Of El Goodo [alt mix - version 02]
08 The Ballad Of El Goodo [alt lyric - prev unissued]
09 The Ballad Of El Goodo [alt lyrics]
10 The Ballad Of El Goodo [alt mix 1972]
11 In The Street [rough mix - alt guitar]
12 In The Street [US 45 single mix 1972]
13 In The Street [US 45 single mix 2008]
14 In The Street [movie mix 2012]
15 Thirteen [alt mix - prev unissued]
16 Thirteen [alt mix]
17 Thirteen [alt mix 1972]
18 Don't Lie To Me [rough mix]
19 Don't Lie To Me [alt mix 1972]
20 The India Song [alt mix - prev unissued]
21 The India Song [alt version - prev unissued]

Big Star - I Got Kinda Lost - Fan Made Project (2013) {8CD set with bonus 9th disc, 2015 Upgrade rec 1965-1975}


Disc 04

nothing to report


01 When My Baby's Beside Me [alt mix - prev unissued]
02 When My Baby's Beside Me [alt mix]
03 When My Baby's Beside Me [alt mix 1972]
04 My Life Is Right [alt mix with intro]
05 My Life Is Right [alt mix 2008]
06 My Life Is Right [alt mix - prev unissued]
07 My Life Is Right [alt mix]
08 My Life Is Right [alt mix 1972
09 Give Me Another Chance [rough mix with alt guitar]
10 Give Me Another Chance [alt mix - prev unissued]
11 Give Me Another Chance [control room monitor mix 1972]
12 studio banter
13 Try Again [early version - alt mix]
14 Try Again [early version - unissued mix]
15 Try Again [early version]
16 Gone With The Light [demo]
17 Gone With The Light [prev unissued]
18 Gone With The Light
19 Country Morn
20 Watch The Sunrise [seingle version]
21 ST100-6 [alt mix - prev unissued]
22 ST100-6 [alt mix]

Big Star - I Got Kinda Lost - Fan Made Project (2013) {8CD set with bonus 9th disc, 2015 Upgrade rec 1965-1975}


Disc 05

Disc five covers the post #1 Record period and picks up at the beginning of Radio City. The band demoed some songs between the 2 records with the intention of including them on the next album.

Recent information has come to light concerning the song 'Another Time Another Place & You'. One report claims Alex Chilton & Richard Rosebrough performed the track from 1973 (Omnivore Records' claim).
According to the end credits of the Big Star biopic called 'Nothing Can Hurt Me' - the end credits list this song as a 'Bell/Rosebrough' composition. If that is the case -maybe it wasn't intended to be a Big Star track - then again maybe it was. We just don't know.

Tracks 7 & 8 are fan remixes. These tracks have the potential of muddying up the trade pool - so this is important to note to the collectors of these things.

Track 14 (O My Soul) is a needledrop from pristine vintage vinyl and is not sourced from the 2009 remaster of the 2 for 1 #1 Record/Radio City CD. The track from the remaster is very loud and based on that it was decided to go with the vintage needledrop of this track to maintain some sort of vintage/authenticity.
This track was originally written by Chilton & Bell.

Unfortunately at this time in the band's history, Chris Bell quits the band, leaving Chilton, Hummel and Stephens to continue and thus dropping Chris Bell's name from any songs he helped write, such as 'Back Of A Car'.


01 Another Time Another Place & You
02 There Was A Light [prev unissued demo]
03 There Was A Light [rough mix]
04 I Got Kinda Lost [demo - rough mix]
05 I Got Kinda Lost [demo - 2008 mix]
06 I Got Kinda Lost [demo]
07 I Got Kinda Lost [demo - single edit]
08 I Got Kinda Lost [demo - alternate mix]
09 Motel Blues [demo]
10 Motel Blues [demo - alt mix]
11 O My Soul [1973 demo]
12 O My Soul [rough mix - alt vocals]
13 O My Soul [alt version]
14 O My Soul [US 45 single edit]
15 Life Is White [demo]
16 Way Out West [rough mix - alt vocals]
17 Way Out West [alt mix 1973]
18 What's Going Ahn [demo]

Big Star - I Got Kinda Lost - Fan Made Project (2013) {8CD set with bonus 9th disc, 2015 Upgrade rec 1965-1975}


Disc 06

During the period between #1 Record and Radio City the band sort of fragments at this time after Bell's sudden departure and Alex begins recording with Danny Jones (bass) and Richard Rosebrough (drums) as a three piece calling themselves 'The Dolby Fuckers'. This was name that came from a statement Alex had made in the studio regarding Dolby noise reduction.

The Dolby Fuckers sessions produced these songs; 'Mod Lang', 'She's A Mover' and 'What's Going Ahn'.
Disc six, track 9 (Mod Lang - U.S. 45 single mix) is a needledrop from pristine vinyl. This track was only released on vinyl, not on CD.


01 You Get What You Deserve [demo - prev unissued]
02 You Get What You Deserve [demo - alt mix]
03 You Get What You Deserve [rough mix]
04 You Get What You Deserve [alt mix 1973]
05 You Get What You Deserve [alt mix]
06 Mod Lang [rough mix - alt vocal]
07 Mod Lang [alt mix 2008]
08 Mod Lang [alt mix - prev unissued]
09 Mod Lang [US 45 single mix - unissued]
10 Back Of A Car [demo 2008 mix]
11 Back Of A Car [alt mix - prev unissued]
12 Daisy Glaze [demo - instrumental]
13 Daisy Glaze [rehearsal version - prev unissued]
14 She's A Mover [alt take]
15 She's A Mover [alt take 2008 mix]
16 She's A Mover [alt version]
17 September Gurls [2008 mix]
18 September Gurls [movie mix 2012]
19 Morpha Too [rough mix]
20 Morpha Too [alt mix]

Big Star - I Got Kinda Lost - Fan Made Project (2013) {8CD set with bonus 9th disc, 2015 Upgrade rec 1965-1975}


Disc 07

By now in the band's story, Andy Hummel has left for good and has chose college over the music business. At this juncture it is interesting to note that Andy along with Jody and Alex will make contributions on Chris Bell solo tracks during the years 1974 - 1975. These tracks were finally released in a collection postmortem in 1992 by Ryko called 'I Am The Cosmos'. One could easily say that 'Cosmos' was more of a Big Star album not called Big Star than Third/Sister Lovers. At least Chris' solo material featured more Big Star members and fringe members than Third/Sister Lovers did.

Third/Sister Lovers is a great moody Chilton (for the most part) solo album disguised as a Big Star album. Its track listing order disputed throughout the years.
Jody Stephens contributes drums here and there and kicks in a song he wrote called 'For You'.
It has been debated whether Third/Sister Lovers was actually meant to be a Big Star album or a Chilton solo piece. And it does get sketchy here because throughout the years people's memories get fuzzy.

One theory put forth says that the album was attributed to Big Star because the general public would have been more aware of the name/band Big Star than the name of solo performer Alex Chilton. Maybe, maybe not. Speculation is hard to prove here as one cannot prove or disprove the theory.

Regardless of the theories out there, whether one views it as a grand Alex Chilton solo album or a legit Big Star album, the name Big Star graces Third/Sister Lovers nonetheless and it is widely known as such among fans.


01 Thank You Friends [demo - prev unissued]
02 Thank You Friends [demo - alternate mix]
03 Thank You Friends [original acetate mix 2008]
04 Thank You Friends [TV Mix]
05 Manana [prev unissued]
06 Jesus Christ [demo - prev unissued]
07 Jesus Christ [demo - alternate mix]
08 Femme Fatale [demo - prev unissued]
09 Big Black Car [alternate demo - prev unissued]
10 Big Black Car [demo 2008 mix]
11 Big Black Car [rough mix 1974]
12 Holocaust [demo - prev unissued]
13 Holocaust [demo - alternate mix]
14 Holocaust [original acetate mix 2008]
15 Holocaust [rough mix 1974]
16 Kanga Roo [rough mix 1974]
17 Stroke It Noel [backward intro 1974]
18 For You [original acetate mix 2008]
19 Kizza Me [original acetate mix 2008]
20 Nightime [demo - prev unissued]
21 Nightime [demo - alternate mix]
22 Blue Moon [demo - prev unissued]
23 Take Care [demo - prev unissued]
24 Take Care [demo - alternate mix]

Big Star - I Got Kinda Lost - Fan Made Project (2013) {8CD set with bonus 9th disc, 2015 Upgrade rec 1965-1975}


Disc 08

The last disc (disc eight) of the chronological behemoth known as 'I Got Kinda Lost', is the kitchen sink of the collection. It is the continuation of the Third/Sister Lovers sessions as well as one '90's Big Star track, 'Hot Thing' taken from a rare compilation of a defunct small indie record label.

Lastly, a handful of Chris Bell solo tracks round out the collection. One of the Bell solo tracks, 'Make A Scene' is from a rare Ryko compilation called 'Medium Rare'.

The cover to disc eight features a colorized photo of Alex Chilton in Ardent Studio circa 1972 and the back side of the cover features Chris Bell in Europe circa 1974 - a trip he took accompanied by his brother David Bell & Richard Rosebrough that would find Chris meeting with Geoff Emerick, George Martin and Paul McCartney.

The trayliner photo is a parting shot of the band, a last 'goodbye' - the way they were and will always be remembered in our memories; youthful, great, promising, rising, talented - stars, Big Stars!


01 Lovely Day [demo]
02 Lovely Day [demo - alternate mix]
03 Lovely Day [demo 2008 mix]
04 Lovely Day [demo - prev unreleased]
05 Lovely Day [alternate take]
06 Downs [demo]
07 Downs [demo 2008 mix]
08 Nature Boy [alternate mix - prev unreleased]
09 Till The End Of The Day [alternate mix - prev unissued]
10 Till The End Of The Day [alternate mix]
11 Hot Thing [Ignition Records Sampler mix]
12 I Am The Cosmos [slow version]
13 I Am The Cosmos [movie mix 2012]
14 I Am The Cosmos [extended alt version]
15 I Don't Know [alt version]
16 Make A Scene [alt mix]
17 Speed Of Sound [alt version]
18 Fight At The Table [alt mix]
19 Get Away [alt version]
20 Better Save Yourself [movie mix 2012]
21 You And Your Sister [acoustic version]
22 You And Your Sister [country version]
23 Clacton Rag [prev unissued]
24 Untitled Electric Instrumental [rough mix]

Big Star - I Got Kinda Lost - Fan Made Project (2013) {8CD set with bonus 9th disc, 2015 Upgrade rec 1965-1975}


Bonus Disc - Big Star - Till The End OF The Day 1974 (2013) [FLAC] {2013 IGKL bonus disc}

01 In The Street
02 Baby Strange
03 Mod Lang
04 Candy Says
05 Till The End Of The Day
06 O My Soul
07 Motel Blues
08 Thirteen
09 Way Out West
10 September Gurls
11 Come On Now

Big Star - I Got Kinda Lost - Fan Made Project (2013) {8CD set with bonus 9th disc, 2015 Upgrade rec 1965-1975}


Postlogue -

Would the band ever have gotten back together if Chris wouldn't have been killed? It's hard to tell for we cannot know with certainty, the writer of these notes certainly thinks they would've sans Andy Hummel.

Events/attitudes of certain band members by the late 70's pointed to the inevitability of it, perhaps sooner than later. Unfortunately we will never know but the band and its artists have left us with a most interesting body of work to ponder, fret over, cherish, hold up as a beacon of greatness and pass on to the next generation as one of the greatest bands that almost was.

Exact Audio Copy V1.0 beta 2 from 29. April 2011

EAC extraction logfile from 16. January 2016, 20:13

Big Star / I Got Kinda Lost [disc 01]

Used drive : ATAPI BD E DH12E3SH Adapter: 3 ID: 0

Read mode : Secure
Utilize accurate stream : Yes
Defeat audio cache : Yes
Make use of C2 pointers : No

Read offset correction : 702
Overread into Lead-In and Lead-Out : No
Fill up missing offset samples with silence : Yes
Delete leading and trailing silent blocks : No
Null samples used in CRC calculations : Yes
Used interface : Native Win32 interface for Win NT & 2000
Gap handling : Appended to previous track

Used output format : User Defined Encoder
Selected bitrate : 128 kBit/s
Quality : High
Add ID3 tag : No
Command line compressor : C:\Program Files (x86)\FLAC\flac.exe
Additional command line options : -8 -V -T "ARTIST=%artist%" -T "TITLE=%title%" -T "ALBUM=%albumtitle%" -T "DATE=%year%" -T "TRACKNUMBER=%tracknr%" -T "TOTALTRACKS=%numtracks%" -T "GENRE=%genre%" -T "ALBUMARTIST=%albumartist%" -T "ALBUM ARTIST=%albumartist%


TOC of the extracted CD

Track | Start | Length | Start sector | End sector
––––––––––––––––––––––––––––-
1 | 0:00.00 | 1:55.04 | 0 | 8628
2 | 1:55.04 | 2:14.64 | 8629 | 18742
3 | 4:09.68 | 2:23.01 | 18743 | 29468
4 | 6:32.69 | 2:18.30 | 29469 | 39848
5 | 8:51.24 | 3:04.51 | 39849 | 53699
6 | 11:56.00 | 2:57.30 | 53700 | 67004
7 | 14:53.30 | 2:46.37 | 67005 | 79491
8 | 17:39.67 | 3:04.26 | 79492 | 93317
9 | 20:44.18 | 1:57.63 | 93318 | 102155
10 | 22:42.06 | 3:24.09 | 102156 | 117464
11 | 26:06.15 | 3:01.06 | 117465 | 131045
12 | 29:07.21 | 2:29.03 | 131046 | 142223
13 | 31:36.24 | 2:46.56 | 142224 | 154729
14 | 34:23.05 | 2:38.01 | 154730 | 166580
15 | 37:01.06 | 2:58.13 | 166581 | 179943
16 | 39:59.19 | 2:27.33 | 179944 | 191001
17 | 42:26.52 | 3:34.05 | 191002 | 207056
18 | 46:00.57 | 2:03.09 | 207057 | 216290
19 | 48:03.66 | 3:23.09 | 216291 | 231524
20 | 51:27.00 | 3:14.61 | 231525 | 246135
21 | 54:41.61 | 3:22.73 | 246136 | 261358
22 | 58:04.59 | 3:21.71 | 261359 | 276504
23 | 61:26.55 | 5:00.18 | 276505 | 299022
24 | 66:26.73 | 4:44.27 | 299023 | 320349


Track 1

Filename C:\downloads\Big Star - I Got Kinda Lost (2013) [FLAC]\disc 01\01 - Little Girl.wav

Pre-gap length 0:00:02.00

Peak level 89.1 %
Extraction speed 4.2 X
Track quality 100.0 %
Test CRC DAFE041F
Copy CRC DAFE041F
Track not present in AccurateRip database
Copy OK

Track 2

Filename C:\downloads\Big Star - I Got Kinda Lost (2013) [FLAC]\disc 01\02 - Just Like Me.wav

Peak level 89.5 %
Extraction speed 4.5 X
Track quality 100.0 %
Test CRC 0BCADD76
Copy CRC 0BCADD76
Track not present in AccurateRip database
Copy OK

Track 3

Filename C:\downloads\Big Star - I Got Kinda Lost (2013) [FLAC]\disc 01\03 - And My Baby's Gone.wav

Peak level 89.0 %
Extraction speed 4.9 X
Track quality 100.0 %
Test CRC FD54878C
Copy CRC FD54878C
Track not present in AccurateRip database
Copy OK

Track 4

Filename C:\downloads\Big Star - I Got Kinda Lost (2013) [FLAC]\disc 01\04 - I'll Go Crazy.wav

Peak level 83.0 %
Extraction speed 5.0 X
Track quality 100.0 %
Test CRC A5AE186E
Copy CRC A5AE186E
Track not present in AccurateRip database
Copy OK

Track 5

Filename C:\downloads\Big Star - I Got Kinda Lost (2013) [FLAC]\disc 01\05 - One After 909.wav

Peak level 100.0 %
Extraction speed 5.2 X
Track quality 100.0 %
Test CRC B3FA8A6C
Copy CRC B3FA8A6C
Track not present in AccurateRip database
Copy OK

Track 6

Filename C:\downloads\Big Star - I Got Kinda Lost (2013) [FLAC]\disc 01\06 - Psychedelic Stuff [1994 mix].wav

Peak level 100.0 %
Extraction speed 5.6 X
Track quality 100.0 %
Test CRC E5D1DEA4
Copy CRC E5D1DEA4
Track not present in AccurateRip database
Copy OK

Track 7

Filename C:\downloads\Big Star - I Got Kinda Lost (2013) [FLAC]\disc 01\07 - Psychedelic Stuff [alt guitar mix 2008].wav

Peak level 98.8 %
Extraction speed 5.6 X
Track quality 100.0 %
Test CRC C1254720
Copy CRC C1254720
Track not present in AccurateRip database
Copy OK

Track 8

Filename C:\downloads\Big Star - I Got Kinda Lost (2013) [FLAC]\disc 01\08 - Psychedelic Stuff [original mix 2009].wav

Peak level 90.8 %
Extraction speed 6.1 X
Track quality 100.0 %
Test CRC D3B81F6E
Copy CRC D3B81F6E
Track not present in AccurateRip database
Copy OK

Track 9

Filename C:\downloads\Big Star - I Got Kinda Lost (2013) [FLAC]\disc 01\09 - Untitled Acoustic Instrumental [Rough Mix].wav

Peak level 61.7 %
Extraction speed 4.4 X
Track quality 99.9 %
Test CRC 6F5B0B02
Copy CRC 6F5B0B02
Track not present in AccurateRip database
Copy OK

Track 10

Filename C:\downloads\Big Star - I Got Kinda Lost (2013) [FLAC]\disc 01\10 - Guess Things Happen That Way.wav

Peak level 97.6 %
Extraction speed 6.8 X
Track quality 100.0 %
Test CRC 03F3A384
Copy CRC 03F3A384
Track not present in AccurateRip database
Copy OK

Track 11

Filename C:\downloads\Big Star - I Got Kinda Lost (2013) [FLAC]\disc 01\11 - Trashy Dog.wav

Peak level 97.6 %
Extraction speed 6.7 X
Track quality 100.0 %
Test CRC D5A25EA7
Copy CRC D5A25EA7
Track not present in AccurateRip database
Copy OK

Track 12

Filename C:\downloads\Big Star - I Got Kinda Lost (2013) [FLAC]\disc 01\12 - Wild Wild Rocker.wav

Peak level 97.6 %
Extraction speed 5.3 X
Track quality 99.9 %
Test CRC AD13F92B
Copy CRC AD13F92B
Track not present in AccurateRip database
Copy OK

Track 13

Filename C:\downloads\Big Star - I Got Kinda Lost (2013) [FLAC]\disc 01\13 - Free Again [original mono mix 2008].wav

Peak level 98.8 %
Extraction speed 6.6 X
Track quality 100.0 %
Test CRC 7E30B57E
Copy CRC 7E30B57E
Track not present in AccurateRip database
Copy OK

Track 14

Filename C:\downloads\Big Star - I Got Kinda Lost (2013) [FLAC]\disc 01\14 - Free Again [original mono mix].wav

Peak level 95.4 %
Extraction speed 5.7 X
Track quality 99.9 %
Test CRC 29E13382
Copy CRC 29E13382
Track not present in AccurateRip database
Copy OK

Track 15

Filename C:\downloads\Big Star - I Got Kinda Lost (2013) [FLAC]\disc 01\15 - Free Again [stereo mix - alt vocal].wav

Peak level 95.4 %
Extraction speed 7.3 X
Track quality 100.0 %
Test CRC 6CF81986
Copy CRC 6CF81986
Track not present in AccurateRip database
Copy OK

Track 16

Filename C:\downloads\Big Star - I Got Kinda Lost (2013) [FLAC]\disc 01\16 - Everyday As We Grow Closer [original mono mix 2008].wav

Peak level 98.8 %
Extraction speed 7.4 X
Track quality 100.0 %
Test CRC A6BC7919
Copy CRC A6BC7919
Track not present in AccurateRip database
Copy OK

Track 17

Filename C:\downloads\Big Star - I Got Kinda Lost (2013) [FLAC]\disc 01\17 - Come On Honey [original mono mix].wav

Peak level 94.8 %
Extraction speed 7.8 X
Track quality 100.0 %
Test CRC 44AC0B53
Copy CRC 44AC0B53
Track not present in AccurateRip database
Copy OK

Track 18

Filename C:\downloads\Big Star - I Got Kinda Lost (2013) [FLAC]\disc 01\18 - Happy Song [mono mix - cassette source].wav

Peak level 75.9 %
Extraction speed 7.1 X
Track quality 100.0 %
Test CRC 4C437BA0
Copy CRC 4C437BA0
Track not present in AccurateRip database
Copy OK

Track 19

Filename C:\downloads\Big Star - I Got Kinda Lost (2013) [FLAC]\disc 01\19 - All We Ever Got From Them Was Pain [demo].wav

Peak level 94.1 %
Extraction speed 8.4 X
Track quality 100.0 %
Test CRC EA04843C
Copy CRC EA04843C
Track not present in AccurateRip database
Copy OK

Track 20

Filename C:\downloads\Big Star - I Got Kinda Lost (2013) [FLAC]\disc 01\20 - All We Ever Got From Them Was Pain.wav

Peak level 86.1 %
Extraction speed 8.5 X
Track quality 100.0 %
Test CRC CF973873
Copy CRC CF973873
Track not present in AccurateRip database
Copy OK

Track 21

Filename C:\downloads\Big Star - I Got Kinda Lost (2013) [FLAC]\disc 01\21 - All We Ever Got From Them Was Pain [US 45 single mix].wav

Peak level 98.8 %
Extraction speed 8.8 X
Track quality 100.0 %
Test CRC 925636B7
Copy CRC 925636B7
Track not present in AccurateRip database
Copy OK

Track 22

Filename C:\downloads\Big Star - I Got Kinda Lost (2013) [FLAC]\disc 01\22 - All We Ever Got From Them Was Pain [movie mix 2012].wav

Peak level 89.4 %
Extraction speed 8.9 X
Track quality 100.0 %
Test CRC D0993E6F
Copy CRC D0993E6F
Track not present in AccurateRip database
Copy OK

Track 23

Filename C:\downloads\Big Star - I Got Kinda Lost (2013) [FLAC]\disc 01\23 - All I Really Want Is Money [mono mix - cassette source].wav

Peak level 100.0 %
Extraction speed 9.6 X
Track quality 100.0 %
Test CRC 22E6F2C6
Copy CRC 22E6F2C6
Track not present in AccurateRip database
Copy OK

Track 24

Filename C:\downloads\Big Star - I Got Kinda Lost (2013) [FLAC]\disc 01\24 - All I Really Want Is Money [original mono mix].wav

Peak level 98.8 %
Extraction speed 9.8 X
Track quality 100.0 %
Test CRC C38C5489
Copy CRC C38C5489
Track not present in AccurateRip database
Copy OK


None of the tracks are present in the AccurateRip database

No errors occurred

End of status report

==== Log checksum B70DFC064ADDB98954F67BFC2B633C55B6F7B6939D568A0C1451611D9ADBB5CA ====

––––––––––

Exact Audio Copy V1.0 beta 2 from 29. April 2011

EAC extraction logfile from 17. January 2016, 6:50

Big Star / I Got Kinda Lost [disc 02]

Used drive : ATAPI BD E DH12E3SH Adapter: 3 ID: 0

Read mode : Secure
Utilize accurate stream : Yes
Defeat audio cache : Yes
Make use of C2 pointers : No

Read offset correction : 702
Overread into Lead-In and Lead-Out : No
Fill up missing offset samples with silence : Yes
Delete leading and trailing silent blocks : No
Null samples used in CRC calculations : Yes
Used interface : Native Win32 interface for Win NT & 2000
Gap handling : Appended to previous track

Used output format : User Defined Encoder
Selected bitrate : 128 kBit/s
Quality : High
Add ID3 tag : No
Command line compressor : C:\Program Files (x86)\FLAC\flac.exe
Additional command line options : -8 -V -T "ARTIST=%artist%" -T "TITLE=%title%" -T "ALBUM=%albumtitle%" -T "DATE=%year%" -T "TRACKNUMBER=%tracknr%" -T "TOTALTRACKS=%numtracks%" -T "GENRE=%genre%" -T "ALBUMARTIST=%albumartist%" -T "ALBUM ARTIST=%albumartist%


TOC of the extracted CD

Track | Start | Length | Start sector | End sector
––––––––––––––––––––––––––––-
1 | 0:00.00 | 3:38.12 | 0 | 16361
2 | 3:38.12 | 3:55.45 | 16362 | 34031
3 | 7:33.57 | 1:49.25 | 34032 | 42231
4 | 9:23.07 | 2:32.37 | 42232 | 53668
5 | 11:55.44 | 2:45.72 | 53669 | 66115
6 | 14:41.41 | 4:02.56 | 66116 | 84321
7 | 18:44.22 | 3:16.53 | 84322 | 99074
8 | 22:01.00 | 3:07.63 | 99075 | 113162
9 | 25:08.63 | 3:07.28 | 113163 | 127215
10 | 28:16.16 | 3:12.23 | 127216 | 141638
11 | 31:28.39 | 3:32.37 | 141639 | 157575
12 | 35:01.01 | 1:50.72 | 157576 | 165897
13 | 36:51.73 | 3:16.03 | 165898 | 180600
14 | 40:08.01 | 3:38.44 | 180601 | 196994
15 | 43:46.45 | 2:30.58 | 196995 | 208302
16 | 46:17.28 | 3:18.21 | 208303 | 223173
17 | 49:35.49 | 3:30.07 | 223174 | 238930
18 | 53:05.56 | 3:37.25 | 238931 | 255230
19 | 56:43.06 | 1:43.38 | 255231 | 262993
20 | 58:26.44 | 3:43.15 | 262994 | 279733


Track 1

Filename C:\downloads\Big Star - I Got Kinda Lost (2013) [FLAC]\disc 02\01 - Just To See You [cassette source].wav

Pre-gap length 0:00:02.00

Peak level 99.8 %
Extraction speed 5.5 X
Track quality 100.0 %
Test CRC A6FEB63C
Copy CRC A6FEB63C
Track not present in AccurateRip database
Copy OK

Track 2

Filename C:\downloads\Big Star - I Got Kinda Lost (2013) [FLAC]\disc 02\02 - The EMI Song (Smile For Me) [original mono mix 2008].wav

Peak level 98.8 %
Extraction speed 6.0 X
Track quality 100.0 %
Test CRC 6F855E03
Copy CRC 6F855E03
Track not present in AccurateRip database
Copy OK

Track 3

Filename C:\downloads\Big Star - I Got Kinda Lost (2013) [FLAC]\disc 02\03 - If you Would Marry Me Babe [demo].wav

Peak level 97.7 %
Extraction speed 5.4 X
Track quality 100.0 %
Test CRC B49950EA
Copy CRC B49950EA
Track not present in AccurateRip database
Copy OK

Track 4

Filename C:\downloads\Big Star - I Got Kinda Lost (2013) [FLAC]\disc 02\04 - It Isn't Always That Easy [demo].wav

Peak level 97.7 %
Extraction speed 6.4 X
Track quality 100.0 %
Test CRC ECCFB895
Copy CRC ECCFB895
Track not present in AccurateRip database
Copy OK

Track 5

Filename C:\downloads\Big Star - I Got Kinda Lost (2013) [FLAC]\disc 02\05 - Sugar Sugar [mono mix - cassette source - incomplete].wav

Peak level 92.7 %
Extraction speed 6.6 X
Track quality 100.0 %
Test CRC B7249F4F
Copy CRC B7249F4F
Track not present in AccurateRip database
Copy OK

Track 6

Filename C:\downloads\Big Star - I Got Kinda Lost (2013) [FLAC]\disc 02\06 - Think It's Time To Say Goodbye.wav

Peak level 99.6 %
Extraction speed 7.3 X
Track quality 100.0 %
Test CRC 30C149FC
Copy CRC 30C149FC
Track not present in AccurateRip database
Copy OK

Track 7

Filename C:\downloads\Big Star - I Got Kinda Lost (2013) [FLAC]\disc 02\07 - I Lost Your Love.wav

Peak level 100.0 %
Extraction speed 7.6 X
Track quality 100.0 %
Test CRC E34200CA
Copy CRC E34200CA
Track not present in AccurateRip database
Copy OK

Track 8

Filename C:\downloads\Big Star - I Got Kinda Lost (2013) [FLAC]\disc 02\08 - My Life Is Right.wav

Peak level 100.0 %
Extraction speed 7.8 X
Track quality 100.0 %
Test CRC EEF57BC7
Copy CRC EEF57BC7
Track not present in AccurateRip database
Copy OK

Track 9

Filename C:\downloads\Big Star - I Got Kinda Lost (2013) [FLAC]\disc 02\09 - The Wind Will Cry For Me.wav

Peak level 98.2 %
Extraction speed 8.1 X
Track quality 100.0 %
Test CRC 49D67436
Copy CRC 49D67436
Track not present in AccurateRip database
Copy OK

Track 10

Filename C:\downloads\Big Star - I Got Kinda Lost (2013) [FLAC]\disc 02\10 - Lovely Lady.wav

Peak level 100.0 %
Extraction speed 8.1 X
Track quality 100.0 %
Test CRC 0E1C6B5E
Copy CRC 0E1C6B5E
Track not present in AccurateRip database
Copy OK

Track 11

Filename C:\downloads\Big Star - I Got Kinda Lost (2013) [FLAC]\disc 02\11 - The Answer.wav

Peak level 100.0 %
Extraction speed 7.4 X
Track quality 99.9 %
Test CRC E78F87DD
Copy CRC E78F87DD
Track not present in AccurateRip database
Copy OK

Track 12

Filename C:\downloads\Big Star - I Got Kinda Lost (2013) [FLAC]\disc 02\12 - Introduction.wav

Peak level 100.0 %
Extraction speed 7.9 X
Track quality 100.0 %
Test CRC 8DC03F59
Copy CRC 8DC03F59
Track not present in AccurateRip database
Copy OK

Track 13

Filename C:\downloads\Big Star - I Got Kinda Lost (2013) [FLAC]\disc 02\13 - Sunday Organ.wav

Peak level 95.6 %
Extraction speed 8.7 X
Track quality 100.0 %
Test CRC F98C5FA9
Copy CRC F98C5FA9
Track not present in AccurateRip database
Copy OK

Track 14

Filename C:\downloads\Big Star - I Got Kinda Lost (2013) [FLAC]\disc 02\14 - The Preacher.wav

Peak level 100.0 %
Extraction speed 8.8 X
Track quality 100.0 %
Test CRC 3DA667C4
Copy CRC 3DA667C4
Track not present in AccurateRip database
Copy OK

Track 15

Filename C:\downloads\Big Star - I Got Kinda Lost (2013) [FLAC]\disc 02\15 - Shine On Me.wav

Peak level 99.9 %
Extraction speed 8.2 X
Track quality 100.0 %
Test CRC 1E54ED25
Copy CRC 1E54ED25
Track not present in AccurateRip database
Copy OK

Track 16

Filename C:\downloads\Big Star - I Got Kinda Lost (2013) [FLAC]\disc 02\16 - Feeling High.wav

Peak level 98.8 %
Extraction speed 9.7 X
Track quality 100.0 %
Test CRC 8FF7B53C
Copy CRC 8FF7B53C
Track not present in AccurateRip database
Copy OK

Track 17

Filename C:\downloads\Big Star - I Got Kinda Lost (2013) [FLAC]\disc 02\17 - All I See Is You.wav

Peak level 98.8 %
Extraction speed 10.0 X
Track quality 100.0 %
Test CRC 01CCB918
Copy CRC 01CCB918
Track not present in AccurateRip database
Copy OK

Track 18

Filename C:\downloads\Big Star - I Got Kinda Lost (2013) [FLAC]\disc 02\18 - Looking Forward.wav

Peak level 96.6 %
Extraction speed 9.8 X
Track quality 100.0 %
Test CRC B7569508
Copy CRC B7569508
Track not present in AccurateRip database
Copy OK

Track 19

Filename C:\downloads\Big Star - I Got Kinda Lost (2013) [FLAC]\disc 02\19 - Sunshine.wav

Peak level 96.6 %
Extraction speed 9.0 X
Track quality 100.0 %
Test CRC 2E3FCF8E
Copy CRC 2E3FCF8E
Track not present in AccurateRip database
Copy OK

Track 20

Filename C:\downloads\Big Star - I Got Kinda Lost (2013) [FLAC]\disc 02\20 - Feel.wav

Peak level 100.0 %
Extraction speed 10.2 X
Track quality 100.0 %
Test CRC 46435AB9
Copy CRC 46435AB9
Track not present in AccurateRip database
Copy OK


None of the tracks are present in the AccurateRip database

No errors occurred

End of status report

==== Log checksum 96417C1CDBF4875185886E9CD7D7B60324C71DCAA7B12B91940FC8CAC3DB6322 ====

––––––––-

Exact Audio Copy V1.0 beta 2 from 29. April 2011

EAC extraction logfile from 17. January 2016, 7:28

Big Star / I Got Kinda Lost [disc 03]

Used drive : ATAPI BD E DH12E3SH Adapter: 3 ID: 0

Read mode : Secure
Utilize accurate stream : Yes
Defeat audio cache : Yes
Make use of C2 pointers : No

Read offset correction : 702
Overread into Lead-In and Lead-Out : No
Fill up missing offset samples with silence : Yes
Delete leading and trailing silent blocks : No
Null samples used in CRC calculations : Yes
Used interface : Native Win32 interface for Win NT & 2000
Gap handling : Appended to previous track

Used output format : User Defined Encoder
Selected bitrate : 128 kBit/s
Quality : High
Add ID3 tag : No
Command line compressor : C:\Program Files (x86)\FLAC\flac.exe
Additional command line options : -8 -V -T "ARTIST=%artist%" -T "TITLE=%title%" -T "ALBUM=%albumtitle%" -T "DATE=%year%" -T "TRACKNUMBER=%tracknr%" -T "TOTALTRACKS=%numtracks%" -T "GENRE=%genre%" -T "ALBUMARTIST=%albumartist%" -T "ALBUM ARTIST=%albumartist%


TOC of the extracted CD

Track | Start | Length | Start sector | End sector
––––––––––––––––––––––––––––-
1 | 0:00.00 | 3:39.45 | 0 | 16469
2 | 3:39.45 | 3:33.57 | 16470 | 32501
3 | 7:13.27 | 3:33.57 | 32502 | 48533
4 | 10:47.09 | 3:35.53 | 48534 | 64711
5 | 14:22.62 | 4:31.33 | 64712 | 85069
6 | 18:54.20 | 4:27.63 | 85070 | 105157
7 | 23:22.08 | 4:18.73 | 105158 | 124580
8 | 27:41.06 | 4:29.59 | 124581 | 144814
9 | 32:10.65 | 4:29.59 | 144815 | 165048
10 | 36:40.49 | 4:29.41 | 165049 | 185264
11 | 41:10.15 | 2:56.03 | 185265 | 198467
12 | 44:06.18 | 2:54.05 | 198468 | 211522
13 | 47:00.23 | 3:01.06 | 211523 | 225103
14 | 50:01.29 | 2:56.47 | 225104 | 238350
15 | 52:58.01 | 2:36.19 | 238351 | 250069
16 | 55:34.20 | 2:44.12 | 250070 | 262381
17 | 58:18.32 | 2:45.69 | 262382 | 274825
18 | 61:04.26 | 3:14.30 | 274826 | 289405
19 | 64:18.56 | 2:56.39 | 289406 | 302644
20 | 67:15.20 | 2:23.54 | 302645 | 313423
21 | 69:38.74 | 2:09.71 | 313424 | 323169


Track 1

Filename C:\downloads\Big Star - I Got Kinda Lost (2013) [FLAC]\disc 03\01 - Feel [rough mix - alt guitar].wav

Pre-gap length 0:00:02.00

Peak level 64.5 %
Extraction speed 5.4 X
Track quality 100.0 %
Test CRC CD608342
Copy CRC CD608342
Track not present in AccurateRip database
Copy OK

Track 2

Filename C:\downloads\Big Star - I Got Kinda Lost (2013) [FLAC]\disc 03\02 - Feel [early mix].wav

Peak level 98.8 %
Extraction speed 5.1 X
Track quality 99.9 %
Test CRC 86C6AA92
Copy CRC 86C6AA92
Track not present in AccurateRip database
Copy OK

Track 3

Filename C:\downloads\Big Star - I Got Kinda Lost (2013) [FLAC]\disc 03\03 - Feel [alt mix - prev unissued].wav

Peak level 98.8 %
Extraction speed 5.4 X
Track quality 99.9 %
Test CRC 8BBAF9AD
Copy CRC 8BBAF9AD
Track not present in AccurateRip database
Copy OK

Track 4

Filename C:\downloads\Big Star - I Got Kinda Lost (2013) [FLAC]\disc 03\04 - Feel [alt mix 1972].wav

Peak level 98.8 %
Extraction speed 7.0 X
Track quality 100.0 %
Test CRC A4556142
Copy CRC A4556142
Track not present in AccurateRip database
Copy OK

Track 5

Filename C:\downloads\Big Star - I Got Kinda Lost (2013) [FLAC]\disc 03\05 - The Ballad Of El Goodo [rough mix - alt vocals].wav

Peak level 63.0 %
Extraction speed 7.6 X
Track quality 100.0 %
Test CRC 6C760CBA
Copy CRC 6C760CBA
Track not present in AccurateRip database
Copy OK

Track 6

Filename C:\downloads\Big Star - I Got Kinda Lost (2013) [FLAC]\disc 03\06 - The Ballad Of El Goodo [alt mix - version 01].wav

Peak level 65.4 %
Extraction speed 7.6 X
Track quality 100.0 %
Test CRC 4C0EDD4C
Copy CRC 4C0EDD4C
Track not present in AccurateRip database
Copy OK

Track 7

Filename C:\downloads\Big Star - I Got Kinda Lost (2013) [FLAC]\disc 03\07 - The Ballad Of El Goodo [alt mix - version 02].wav

Peak level 98.8 %
Extraction speed 6.9 X
Track quality 99.9 %
Test CRC 1DAC23C8
Copy CRC 1DAC23C8
Track not present in AccurateRip database
Copy OK

Track 8

Filename C:\downloads\Big Star - I Got Kinda Lost (2013) [FLAC]\disc 03\08 - The Ballad Of El Goodo [alt lyric - prev unissued].wav

Peak level 98.8 %
Extraction speed 8.6 X
Track quality 100.0 %
Test CRC B9C710C0
Copy CRC B9C710C0
Track not present in AccurateRip database
Copy OK

Track 9

Filename C:\downloads\Big Star - I Got Kinda Lost (2013) [FLAC]\disc 03\09 - The Ballad Of El Goodo [alt lyrics].wav

Peak level 98.8 %
Extraction speed 8.9 X
Track quality 100.0 %
Test CRC 4263BEE9
Copy CRC 4263BEE9
Track not present in AccurateRip database
Copy OK

Track 10

Filename C:\downloads\Big Star - I Got Kinda Lost (2013) [FLAC]\disc 03\10 - The Ballad Of El Goodo [alt mix 1972].wav

Peak level 98.8 %
Extraction speed 8.2 X
Track quality 99.9 %
Test CRC D8047B17
Copy CRC D8047B17
Track not present in AccurateRip database
Copy OK

Track 11

Filename C:\downloads\Big Star - I Got Kinda Lost (2013) [FLAC]\disc 03\11 - In The Street [rough mix - alt guitar].wav

Peak level 66.0 %
Extraction speed 9.2 X
Track quality 100.0 %
Test CRC D3C2F77C
Copy CRC D3C2F77C
Track not present in AccurateRip database
Copy OK

Track 12

Filename C:\downloads\Big Star - I Got Kinda Lost (2013) [FLAC]\disc 03\12 - In The Street [US 45 single mix 1972].wav

Peak level 88.5 %
Extraction speed 9.3 X
Track quality 100.0 %
Test CRC 8094E26F
Copy CRC 8094E26F
Track not present in AccurateRip database
Copy OK

Track 13

Filename C:\downloads\Big Star - I Got Kinda Lost (2013) [FLAC]\disc 03\13 - In The Street [US 45 single mix 2008].wav

Peak level 98.8 %
Extraction speed 9.5 X
Track quality 100.0 %
Test CRC E68BE691
Copy CRC E68BE691
Track not present in AccurateRip database
Copy OK

Track 14

Filename C:\downloads\Big Star - I Got Kinda Lost (2013) [FLAC]\disc 03\14 - In The Street [movie mix 2012].wav

Peak level 98.8 %
Extraction speed 7.1 X
Track quality 99.9 %
Test CRC 20E67F27
Copy CRC 20E67F27
Track not present in AccurateRip database
Copy OK

Track 15

Filename C:\downloads\Big Star - I Got Kinda Lost (2013) [FLAC]\disc 03\15 - Thirteen [alt mix - prev unissued].wav

Peak level 83.2 %
Extraction speed 9.6 X
Track quality 100.0 %
Test CRC 1DD834FD
Copy CRC 1DD834FD
Track not present in AccurateRip database
Copy OK

Track 16

Filename C:\downloads\Big Star - I Got Kinda Lost (2013) [FLAC]\disc 03\16 - Thirteen [alt mix].wav

Peak level 64.2 %
Extraction speed 9.4 X
Track quality 100.0 %
Test CRC 4E088BC8
Copy CRC 4E088BC8
Track not present in AccurateRip database
Copy OK

Track 17

Filename C:\downloads\Big Star - I Got Kinda Lost (2013) [FLAC]\disc 03\17 - Thirteen [alt mix 1972].wav

Peak level 98.8 %
Extraction speed 9.6 X
Track quality 100.0 %
Test CRC 5B0575EE
Copy CRC 5B0575EE
Track not present in AccurateRip database
Copy OK

Track 18

Filename C:\downloads\Big Star - I Got Kinda Lost (2013) [FLAC]\disc 03\18 - Don't Lie To Me [rough mix].wav

Peak level 60.3 %
Extraction speed 10.3 X
Track quality 100.0 %
Test CRC 970EAD9B
Copy CRC 970EAD9B
Track not present in AccurateRip database
Copy OK

Track 19

Filename C:\downloads\Big Star - I Got Kinda Lost (2013) [FLAC]\disc 03\19 - Don't Lie To Me [alt mix 1972].wav

Peak level 98.8 %
Extraction speed 8.2 X
Track quality 99.9 %
Test CRC 0BB83991
Copy CRC 0BB83991
Track not present in AccurateRip database
Copy OK

Track 20

Filename C:\downloads\Big Star - I Got Kinda Lost (2013) [FLAC]\disc 03\20 - The India Song [alt mix - prev unissued].wav

Peak level 90.2 %
Extraction speed 8.0 X
Track quality 99.9 %
Test CRC 62699383
Copy CRC 62699383
Track not present in AccurateRip database
Copy OK

Track 21

Filename C:\downloads\Big Star - I Got Kinda Lost (2013) [FLAC]\disc 03\21 - The India Song [alt version - prev unissued].wav

Peak level 82.9 %
Extraction speed 9.5 X
Track quality 100.0 %
Test CRC 803F03F5
Copy CRC 803F03F5
Track not present in AccurateRip database
Copy OK


None of the tracks are present in the AccurateRip database

No errors occurred

End of status report

==== Log checksum 3B4D94EBE553D237EAB008D27947ED5441D5E79C525961D784CC9089CA2A4166 ====

––––––––––-

Exact Audio Copy V1.0 beta 2 from 29. April 2011

EAC extraction logfile from 17. January 2016, 7:59

Big Star / I Got Kinda Lost [disc 04]

Used drive : ATAPI BD E DH12E3SH Adapter: 3 ID: 0

Read mode : Secure
Utilize accurate stream : Yes
Defeat audio cache : Yes
Make use of C2 pointers : No

Read offset correction : 702
Overread into Lead-In and Lead-Out : No
Fill up missing offset samples with silence : Yes
Delete leading and trailing silent blocks : No
Null samples used in CRC calculations : Yes
Used interface : Native Win32 interface for Win NT & 2000
Gap handling : Appended to previous track

Used output format : User Defined Encoder
Selected bitrate : 128 kBit/s
Quality : High
Add ID3 tag : No
Command line compressor : C:\Program Files (x86)\FLAC\flac.exe
Additional command line options : -8 -V -T "ARTIST=%artist%" -T "TITLE=%title%" -T "ALBUM=%albumtitle%" -T "DATE=%year%" -T "TRACKNUMBER=%tracknr%" -T "TOTALTRACKS=%numtracks%" -T "GENRE=%genre%" -T "ALBUMARTIST=%albumartist%" -T "ALBUM ARTIST=%albumartist%


TOC of the extracted CD

Track | Start | Length | Start sector | End sector
––––––––––––––––––––––––––––-
1 | 0:00.00 | 3:27.58 | 0 | 15582
2 | 3:27.58 | 3:28.60 | 15583 | 31242
3 | 6:56.43 | 3:24.37 | 31243 | 46579
4 | 10:21.05 | 3:22.24 | 46580 | 61753
5 | 13:43.29 | 3:23.57 | 61754 | 77035
6 | 17:07.11 | 3:17.71 | 77036 | 91881
7 | 20:25.07 | 3:17.71 | 91882 | 106727
8 | 23:43.03 | 3:30.52 | 106728 | 122529
9 | 27:13.55 | 3:29.11 | 122530 | 138215
10 | 30:42.66 | 3:27.24 | 138216 | 153764
11 | 34:10.15 | 3:34.59 | 153765 | 169873
12 | 37:44.74 | 0:41.73 | 169874 | 173021
13 | 38:26.72 | 3:49.15 | 173022 | 190211
14 | 42:16.12 | 3:37.23 | 190212 | 206509
15 | 45:53.35 | 3:37.23 | 206510 | 222807
16 | 49:30.58 | 2:51.00 | 222808 | 235632
17 | 52:21.58 | 2:44.01 | 235633 | 247933
18 | 55:05.59 | 2:44.01 | 247934 | 260234
19 | 57:49.60 | 3:14.30 | 260235 | 274814
20 | 61:04.15 | 3:10.71 | 274815 | 289135
21 | 64:15.11 | 0:54.44 | 289136 | 293229
22 | 65:09.55 | 0:54.44 | 293230 | 297323


Track 1

Filename C:\downloads\Big Star - I Got Kinda Lost (2013) [FLAC]\disc 04\01 - When My Baby's Beside Me [alt mix - prev unissued].wav

Pre-gap length 0:00:02.00

Peak level 98.8 %
Extraction speed 5.3 X
Track quality 100.0 %
Test CRC 6328A53E
Copy CRC 6328A53E
Track not present in AccurateRip database
Copy OK

Track 2

Filename C:\downloads\Big Star - I Got Kinda Lost (2013) [FLAC]\disc 04\02 - When My Baby's Beside Me [alt mix].wav

Peak level 66.1 %
Extraction speed 5.0 X
Track quality 99.9 %
Test CRC 8E80EB1D
Copy CRC 8E80EB1D
Track not present in AccurateRip database
Copy OK

Track 3

Filename C:\downloads\Big Star - I Got Kinda Lost (2013) [FLAC]\disc 04\03 - When My Baby's Beside Me [alt mix 1972].wav

Peak level 98.8 %
Extraction speed 5.3 X
Track quality 99.9 %
Test CRC F953D1F3
Copy CRC F953D1F3
Track not present in AccurateRip database
Copy OK

Track 4

Filename C:\downloads\Big Star - I Got Kinda Lost (2013) [FLAC]\disc 04\04 - My Life Is Right [alt mix with intro].wav

Peak level 64.2 %
Extraction speed 6.8 X
Track quality 100.0 %
Test CRC 4C517338
Copy CRC 4C517338
Track not present in AccurateRip database
Copy OK

Track 5

Filename C:\downloads\Big Star - I Got Kinda Lost (2013) [FLAC]\disc 04\05 - My Life Is Right [alt mix 2008].wav

Peak level 98.8 %
Extraction speed 7.2 X
Track quality 100.0 %
Test CRC 9BF3C183
Copy CRC 9BF3C183
Track not present in AccurateRip database
Copy OK

Track 6

Filename C:\downloads\Big Star - I Got Kinda Lost (2013) [FLAC]\disc 04\06 - My Life Is Right [alt mix - prev unissued].wav

Peak level 98.8 %
Extraction speed 7.3 X
Track quality 100.0 %
Test CRC 9AF2C779
Copy CRC 9AF2C779
Track not present in AccurateRip database
Copy OK

Track 7

Filename C:\downloads\Big Star - I Got Kinda Lost (2013) [FLAC]\disc 04\07 - My Life Is Right [alt mix].wav

Peak level 98.8 %
Extraction speed 7.5 X
Track quality 100.0 %
Test CRC 0D76A3AB
Copy CRC 0D76A3AB
Track not present in AccurateRip database
Copy OK

Track 8

Filename C:\downloads\Big Star - I Got Kinda Lost (2013) [FLAC]\disc 04\08 - My Life Is Right [alt mix 1972.wav

Peak level 98.8 %
Extraction speed 7.9 X
Track quality 100.0 %
Test CRC F9840153
Copy CRC F9840153
Track not present in AccurateRip database
Copy OK

Track 9

Filename C:\downloads\Big Star - I Got Kinda Lost (2013) [FLAC]\disc 04\09 - Give Me Another Chance [rough mix with alt guitar].wav

Peak level 59.5 %
Extraction speed 7.0 X
Track quality 99.9 %
Test CRC C39A3468
Copy CRC C39A3468
Track not present in AccurateRip database
Copy OK

Track 10

Filename C:\downloads\Big Star - I Got Kinda Lost (2013) [FLAC]\disc 04\10 - Give Me Another Chance [alt mix - prev unissued].wav

Peak level 98.8 %
Extraction speed 8.7 X
Track quality 100.0 %
Test CRC 08B6163D
Copy CRC 08B6163D
Track not present in AccurateRip database
Copy OK

Track 11

Filename C:\downloads\Big Star - I Got Kinda Lost (2013) [FLAC]\disc 04\11 - Give Me Another Chance [control room monitor mix 1972].wav

Peak level 63.4 %
Extraction speed 7.5 X
Track quality 99.9 %
Test CRC A03BA0DD
Copy CRC A03BA0DD
Track not present in AccurateRip database
Copy OK

Track 12

Filename C:\downloads\Big Star - I Got Kinda Lost (2013) [FLAC]\disc 04\12 - studio banter.wav

Peak level 65.0 %
Extraction speed 5.6 X
Track quality 100.0 %
Test CRC 601EB9E3
Copy CRC 601EB9E3
Track not present in AccurateRip database
Copy OK

Track 13

Filename C:\downloads\Big Star - I Got Kinda Lost (2013) [FLAC]\disc 04\13 - Try Again [early version - alt mix].wav

Peak level 99.6 %
Extraction speed 9.4 X
Track quality 100.0 %
Test CRC 56EDE5E1
Copy CRC 56EDE5E1
Track not present in AccurateRip database
Copy OK

Track 14

Filename C:\downloads\Big Star - I Got Kinda Lost (2013) [FLAC]\disc 04\14 - Try Again [early version - unissued mix].wav

Peak level 98.8 %
Extraction speed 9.6 X
Track quality 100.0 %
Test CRC 9192B5A5
Copy CRC 9192B5A5
Track not present in AccurateRip database
Copy OK

Track 15

Filename C:\downloads\Big Star - I Got Kinda Lost (2013) [FLAC]\disc 04\15 - Try Again [early version].wav

Peak level 98.8 %
Extraction speed 9.8 X
Track quality 100.0 %
Test CRC 32801AA6
Copy CRC 32801AA6
Track not present in AccurateRip database
Copy OK

Track 16

Filename C:\downloads\Big Star - I Got Kinda Lost (2013) [FLAC]\disc 04\16 - Gone With The Light [demo].wav

Peak level 54.7 %
Extraction speed 7.6 X
Track quality 99.9 %
Test CRC F822AB66
Copy CRC F822AB66
Track not present in AccurateRip database
Copy OK

Track 17

Filename C:\downloads\Big Star - I Got Kinda Lost (2013) [FLAC]\disc 04\17 - Gone With The Light [prev unissued].wav

Peak level 97.1 %
Extraction speed 7.5 X
Track quality 99.9 %
Test CRC 3B240F22
Copy CRC 3B240F22
Track not present in AccurateRip database
Copy OK

Track 18

Filename C:\downloads\Big Star - I Got Kinda Lost (2013) [FLAC]\disc 04\18 - Gone With The Light.wav

Peak level 97.1 %
Extraction speed 7.9 X
Track quality 99.9 %
Test CRC 3BF0AB77
Copy CRC 3BF0AB77
Track not present in AccurateRip database
Copy OK

Track 19

Filename C:\downloads\Big Star - I Got Kinda Lost (2013) [FLAC]\disc 04\19 - Country Morn.wav

Peak level 100.0 %
Extraction speed 7.2 X
Track quality 99.8 %
Test CRC 44F4BE33
Copy CRC 44F4BE33
Track not present in AccurateRip database
Copy OK

Track 20

Filename C:\downloads\Big Star - I Got Kinda Lost (2013) [FLAC]\disc 04\20 - Watch The Sunrise [seingle version].wav

Peak level 98.8 %
Extraction speed 10.0 X
Track quality 100.0 %
Test CRC D43120E6
Copy CRC D43120E6
Track not present in AccurateRip database
Copy OK

Track 21

Filename C:\downloads\Big Star - I Got Kinda Lost (2013) [FLAC]\disc 04\21 - ST100-6 [alt mix - prev unissued].wav

Peak level 92.4 %
Extraction speed 7.3 X
Track quality 100.0 %
Test CRC BC1BA8B1
Copy CRC BC1BA8B1
Track not present in AccurateRip database
Copy OK

Track 22

Filename C:\downloads\Big Star - I Got Kinda Lost (2013) [FLAC]\disc 04\22 - ST100-6 [alt mix].wav

Peak level 92.4 %
Extraction speed 7.3 X
Track quality 100.0 %
Test CRC 8364C40A
Copy CRC 8364C40A
Track not present in AccurateRip database
Copy OK


None of the tracks are present in the AccurateRip database

No errors occurred

End of status report

==== Log checksum 772B08C5A7FA62276D5BB4DAB81D98E35C94C7CF07629184B95FEE1123F0E0B1 ====

––––––––

Exact Audio Copy V1.0 beta 2 from 29. April 2011

EAC extraction logfile from 17. January 2016, 8:37

Big Star / I Got Kinda Lost [disc 05]

Used drive : ATAPI BD E DH12E3SH Adapter: 3 ID: 0

Read mode : Secure
Utilize accurate stream : Yes
Defeat audio cache : Yes
Make use of C2 pointers : No

Read offset correction : 702
Overread into Lead-In and Lead-Out : No
Fill up missing offset samples with silence : Yes
Delete leading and trailing silent blocks : No
Null samples used in CRC calculations : Yes
Used interface : Native Win32 interface for Win NT & 2000
Gap handling : Appended to previous track

Used output format : User Defined Encoder
Selected bitrate : 128 kBit/s
Quality : High
Add ID3 tag : No
Command line compressor : C:\Program Files (x86)\FLAC\flac.exe
Additional command line options : -8 -V -T "ARTIST=%artist%" -T "TITLE=%title%" -T "ALBUM=%albumtitle%" -T "DATE=%year%" -T "TRACKNUMBER=%tracknr%" -T "TOTALTRACKS=%numtracks%" -T "GENRE=%genre%" -T "ALBUMARTIST=%albumartist%" -T "ALBUM ARTIST=%albumartist%


TOC of the extracted CD

Track | Start | Length | Start sector | End sector
––––––––––––––––––––––––––––-
1 | 0:00.00 | 2:26.39 | 0 | 10988
2 | 2:26.39 | 3:43.18 | 10989 | 27731
3 | 6:09.57 | 3:39.72 | 27732 | 44228
4 | 9:49.54 | 3:51.36 | 44229 | 61589
5 | 13:41.15 | 3:11.12 | 61590 | 75926
6 | 16:52.27 | 4:03.22 | 75927 | 94173
7 | 20:55.49 | 3:17.36 | 94174 | 108984
8 | 24:13.10 | 3:25.55 | 108985 | 124414
9 | 27:38.65 | 3:07.55 | 124415 | 138494
10 | 30:46.45 | 3:03.28 | 138495 | 152247
11 | 33:49.73 | 3:40.12 | 152248 | 168759
12 | 37:30.10 | 5:22.62 | 168760 | 192971
13 | 42:52.72 | 5:09.25 | 192972 | 216171
14 | 48:02.22 | 2:55.05 | 216172 | 229301
15 | 50:57.27 | 3:18.68 | 229302 | 244219
16 | 54:16.20 | 2:49.69 | 244220 | 256963
17 | 57:06.14 | 2:52.00 | 256964 | 269863
18 | 59:58.14 | 2:13.17 | 269864 | 279855


Track 1

Filename C:\downloads\Big Star - I Got Kinda Lost (2013) [FLAC]\disc 05\01 - Another Time Another Place & You.wav

Pre-gap length 0:00:02.00

Peak level 79.7 %
Extraction speed 4.9 X
Track quality 100.0 %
Test CRC B5605A51
Copy CRC B5605A51
Track not present in AccurateRip database
Copy OK

Track 2

Filename C:\downloads\Big Star - I Got Kinda Lost (2013) [FLAC]\disc 05\02 - There Was A Light [prev unissued demo].wav

Peak level 98.8 %
Extraction speed 5.8 X
Track quality 100.0 %
Test CRC B1263712
Copy CRC B1263712
Track not present in AccurateRip database
Copy OK

Track 3

Filename C:\downloads\Big Star - I Got Kinda Lost (2013) [FLAC]\disc 05\03 - There Was A Light [rough mix].wav

Peak level 61.0 %
Extraction speed 6.2 X
Track quality 100.0 %
Test CRC 7129B3FA
Copy CRC 7129B3FA
Track not present in AccurateRip database
Copy OK

Track 4

Filename C:\downloads\Big Star - I Got Kinda Lost (2013) [FLAC]\disc 05\04 - I Got Kinda Lost [demo - rough mix].wav

Peak level 48.0 %
Extraction speed 6.8 X
Track quality 100.0 %
Test CRC B4E1CC5E
Copy CRC B4E1CC5E
Track not present in AccurateRip database
Copy OK

Track 5

Filename C:\downloads\Big Star - I Got Kinda Lost (2013) [FLAC]\disc 05\05 - I Got Kinda Lost [demo - 2008 mix].wav

Peak level 98.8 %
Extraction speed 7.1 X
Track quality 100.0 %
Test CRC 1AC80CF7
Copy CRC 1AC80CF7
Track not present in AccurateRip database
Copy OK

Track 6

Filename C:\downloads\Big Star - I Got Kinda Lost (2013) [FLAC]\disc 05\06 - I Got Kinda Lost [demo].wav

Peak level 98.8 %
Extraction speed 7.7 X
Track quality 100.0 %
Test CRC 0497A9F8
Copy CRC 0497A9F8
Track not present in AccurateRip database
Copy OK

Track 7

Filename C:\downloads\Big Star - I Got Kinda Lost (2013) [FLAC]\disc 05\07 - I Got Kinda Lost [demo - single edit].wav

Peak level 100.0 %
Extraction speed 7.8 X
Track quality 100.0 %
Test CRC 7B938629
Copy CRC 7B938629
Track not present in AccurateRip database
Copy OK

Track 8

Filename C:\downloads\Big Star - I Got Kinda Lost (2013) [FLAC]\disc 05\08 - I Got Kinda Lost [demo - alternate mix].wav

Peak level 100.0 %
Extraction speed 7.7 X
Track quality 100.0 %
Test CRC FDCF8E65
Copy CRC FDCF8E65
Track not present in AccurateRip database
Copy OK

Track 9

Filename C:\downloads\Big Star - I Got Kinda Lost (2013) [FLAC]\disc 05\09 - Motel Blues [demo].wav

Peak level 57.2 %
Extraction speed 8.0 X
Track quality 100.0 %
Test CRC B6D30777
Copy CRC B6D30777
Track not present in AccurateRip database
Copy OK

Track 10

Filename C:\downloads\Big Star - I Got Kinda Lost (2013) [FLAC]\disc 05\10 - Motel Blues [demo - alt mix].wav

Peak level 90.8 %
Extraction speed 8.5 X
Track quality 100.0 %
Test CRC DD1DABE4
Copy CRC DD1DABE4
Track not present in AccurateRip database
Copy OK

Track 11

Filename C:\downloads\Big Star - I Got Kinda Lost (2013) [FLAC]\disc 05\11 - O My Soul [1973 demo].wav

Peak level 98.8 %
Extraction speed 9.0 X
Track quality 100.0 %
Test CRC 4B4D6A68
Copy CRC 4B4D6A68
Track not present in AccurateRip database
Copy OK

Track 12

Filename C:\downloads\Big Star - I Got Kinda Lost (2013) [FLAC]\disc 05\12 - O My Soul [rough mix - alt vocals].wav

Peak level 51.5 %
Extraction speed 9.8 X
Track quality 100.0 %
Test CRC 4E36B118
Copy CRC 4E36B118
Track not present in AccurateRip database
Copy OK

Track 13

Filename C:\downloads\Big Star - I Got Kinda Lost (2013) [FLAC]\disc 05\13 - O My Soul [alt version].wav

Peak level 83.1 %
Extraction speed 10.1 X
Track quality 100.0 %
Test CRC AB630F35
Copy CRC AB630F35
Track not present in AccurateRip database
Copy OK

Track 14

Filename C:\downloads\Big Star - I Got Kinda Lost (2013) [FLAC]\disc 05\14 - O My Soul [US 45 single edit].wav

Peak level 88.1 %
Extraction speed 9.1 X
Track quality 100.0 %
Test CRC 7A921273
Copy CRC 7A921273
Track not present in AccurateRip database
Copy OK

Track 15

Filename C:\downloads\Big Star - I Got Kinda Lost (2013) [FLAC]\disc 05\15 - Life Is White [demo].wav

Peak level 89.4 %
Extraction speed 9.5 X
Track quality 100.0 %
Test CRC B690D1EE
Copy CRC B690D1EE
Track not present in AccurateRip database
Copy OK

Track 16

Filename C:\downloads\Big Star - I Got Kinda Lost (2013) [FLAC]\disc 05\16 - Way Out West [rough mix - alt vocals].wav

Peak level 49.0 %
Extraction speed 9.8 X
Track quality 100.0 %
Test CRC 4001DAA6
Copy CRC 4001DAA6
Track not present in AccurateRip database
Copy OK

Track 17

Filename C:\downloads\Big Star - I Got Kinda Lost (2013) [FLAC]\disc 05\17 - Way Out West [alt mix 1973].wav

Peak level 98.8 %
Extraction speed 7.9 X
Track quality 99.9 %
Test CRC BE253215
Copy CRC BE253215
Track not present in AccurateRip database
Copy OK

Track 18

Filename C:\downloads\Big Star - I Got Kinda Lost (2013) [FLAC]\disc 05\18 - What's Going Ahn [demo].wav

Peak level 82.8 %
Extraction speed 9.6 X
Track quality 100.0 %
Test CRC 6C914C38
Copy CRC 6C914C38
Track not present in AccurateRip database
Copy OK


None of the tracks are present in the AccurateRip database

No errors occurred

End of status report

==== Log checksum 655B13AA8F6E8CBB33B4419E6A6E385D5769333CC13D5C875B44AEDFE4A84BD3 ====

–––––––

Exact Audio Copy V1.0 beta 2 from 29. April 2011

EAC extraction logfile from 17. January 2016, 9:11

Big Star / I Got Kinda Lost [disc 06]

Used drive : ATAPI BD E DH12E3SH Adapter: 3 ID: 0

Read mode : Secure
Utilize accurate stream : Yes
Defeat audio cache : Yes
Make use of C2 pointers : No

Read offset correction : 702
Overread into Lead-In and Lead-Out : No
Fill up missing offset samples with silence : Yes
Delete leading and trailing silent blocks : No
Null samples used in CRC calculations : Yes
Used interface : Native Win32 interface for Win NT & 2000
Gap handling : Appended to previous track

Used output format : User Defined Encoder
Selected bitrate : 128 kBit/s
Quality : High
Add ID3 tag : No
Command line compressor : C:\Program Files (x86)\FLAC\flac.exe
Additional command line options : -8 -V -T "ARTIST=%artist%" -T "TITLE=%title%" -T "ALBUM=%albumtitle%" -T "DATE=%year%" -T "TRACKNUMBER=%tracknr%" -T "TOTALTRACKS=%numtracks%" -T "GENRE=%genre%" -T "ALBUMARTIST=%albumartist%" -T "ALBUM ARTIST=%albumartist%


TOC of the extracted CD

Track | Start | Length | Start sector | End sector
––––––––––––––––––––––––––––-
1 | 0:00.00 | 3:20.59 | 0 | 15058
2 | 3:20.59 | 3:20.59 | 15059 | 30117
3 | 6:41.43 | 3:06.48 | 30118 | 44115
4 | 9:48.16 | 3:06.07 | 44116 | 58072
5 | 12:54.23 | 3:06.23 | 58073 | 72045
6 | 16:00.46 | 2:46.34 | 72046 | 84529
7 | 18:47.05 | 2:46.24 | 84530 | 97003
8 | 21:33.29 | 2:47.36 | 97004 | 109564
9 | 24:20.65 | 3:16.29 | 109565 | 124293
10 | 27:37.19 | 2:47.30 | 124294 | 136848
11 | 30:24.49 | 2:47.52 | 136849 | 149425
12 | 33:12.26 | 3:45.60 | 149426 | 166360
13 | 36:58.11 | 3:52.52 | 166361 | 183812
14 | 40:50.63 | 3:15.10 | 183813 | 198447
15 | 44:05.73 | 3:09.27 | 198448 | 212649
16 | 47:15.25 | 3:17.54 | 212650 | 227478
17 | 50:33.04 | 2:57.36 | 227479 | 240789
18 | 53:30.40 | 2:46.02 | 240790 | 253241
19 | 56:16.42 | 1:29.26 | 253242 | 259942
20 | 57:45.68 | 1:28.01 | 259943 | 266543


Track 1

Filename C:\downloads\Big Star - I Got Kinda Lost (2013) [FLAC]\disc 06\01 - You Get What You Deserve [demo - prev unissued].wav

Pre-gap length 0:00:02.00

Peak level 98.8 %
Extraction speed 5.4 X
Track quality 100.0 %
Test CRC 1E60789A
Copy CRC 1E60789A
Track not present in AccurateRip database
Copy OK

Track 2

Filename C:\downloads\Big Star - I Got Kinda Lost (2013) [FLAC]\disc 06\02 - You Get What You Deserve [demo - alt mix].wav

Peak level 98.8 %
Extraction speed 6.1 X
Track quality 100.0 %
Test CRC 0BDA6C26
Copy CRC 0BDA6C26
Track not present in AccurateRip database
Copy OK

Track 3

Filename C:\downloads\Big Star - I Got Kinda Lost (2013) [FLAC]\disc 06\03 - You Get What You Deserve [rough mix].wav

Peak level 63.2 %
Extraction speed 6.2 X
Track quality 100.0 %
Test CRC 2F6A1002
Copy CRC 2F6A1002
Track not present in AccurateRip database
Copy OK

Track 4

Filename C:\downloads\Big Star - I Got Kinda Lost (2013) [FLAC]\disc 06\04 - You Get What You Deserve [alt mix 1973].wav

Peak level 98.8 %
Extraction speed 6.5 X
Track quality 100.0 %
Test CRC 56021177
Copy CRC 56021177
Track not present in AccurateRip database
Copy OK

Track 5

Filename C:\downloads\Big Star - I Got Kinda Lost (2013) [FLAC]\disc 06\05 - You Get What You Deserve [alt mix].wav

Peak level 98.8 %
Extraction speed 6.8 X
Track quality 100.0 %
Test CRC FC5D3A6D
Copy CRC FC5D3A6D
Track not present in AccurateRip database
Copy OK

Track 6

Filename C:\downloads\Big Star - I Got Kinda Lost (2013) [FLAC]\disc 06\06 - Mod Lang [rough mix - alt vocal].wav

Peak level 62.8 %
Extraction speed 6.9 X
Track quality 100.0 %
Test CRC 29CB64EE
Copy CRC 29CB64EE
Track not present in AccurateRip database
Copy OK

Track 7

Filename C:\downloads\Big Star - I Got Kinda Lost (2013) [FLAC]\disc 06\07 - Mod Lang [alt mix 2008].wav

Peak level 98.8 %
Extraction speed 5.4 X
Track quality 99.9 %
Test CRC 5A105E78
Copy CRC 5A105E78
Track not present in AccurateRip database
Copy OK

Track 8

Filename C:\downloads\Big Star - I Got Kinda Lost (2013) [FLAC]\disc 06\08 - Mod Lang [alt mix - prev unissued].wav

Peak level 98.8 %
Extraction speed 7.6 X
Track quality 100.0 %
Test CRC 56837E61
Copy CRC 56837E61
Track not present in AccurateRip database
Copy OK

Track 9

Filename C:\downloads\Big Star - I Got Kinda Lost (2013) [FLAC]\disc 06\09 - Mod Lang [US 45 single mix - unissued].wav

Peak level 85.8 %
Extraction speed 8.1 X
Track quality 100.0 %
Test CRC 428ABB57
Copy CRC 428ABB57
Track not present in AccurateRip database
Copy OK

Track 10

Filename C:\downloads\Big Star - I Got Kinda Lost (2013) [FLAC]\disc 06\10 - Back Of A Car [demo 2008 mix].wav

Peak level 98.8 %
Extraction speed 8.1 X
Track quality 100.0 %
Test CRC 8E7CD51F
Copy CRC 8E7CD51F
Track not present in AccurateRip database
Copy OK

Track 11

Filename C:\downloads\Big Star - I Got Kinda Lost (2013) [FLAC]\disc 06\11 - Back Of A Car [alt mix - prev unissued].wav

Peak level 98.8 %
Extraction speed 8.3 X
Track quality 100.0 %
Test CRC 2D74B10E
Copy CRC 2D74B10E
Track not present in AccurateRip database
Copy OK

Track 12

Filename C:\downloads\Big Star - I Got Kinda Lost (2013) [FLAC]\disc 06\12 - Daisy Glaze [demo - instrumental].wav

Peak level 61.7 %
Extraction speed 8.7 X
Track quality 100.0 %
Test CRC 8568CAF6
Copy CRC 8568CAF6
Track not present in AccurateRip database
Copy OK

Track 13

Filename C:\downloads\Big Star - I Got Kinda Lost (2013) [FLAC]\disc 06\13 - Daisy Glaze [rehearsal version - prev unissued].wav

Peak level 98.8 %
Extraction speed 9.4 X
Track quality 100.0 %
Test CRC FE8EDC6B
Copy CRC FE8EDC6B
Track not present in AccurateRip database
Copy OK

Track 14

Filename C:\downloads\Big Star - I Got Kinda Lost (2013) [FLAC]\disc 06\14 - She's A Mover [alt take].wav

Peak level 51.6 %
Extraction speed 9.3 X
Track quality 100.0 %
Test CRC 1686E803
Copy CRC 1686E803
Track not present in AccurateRip database
Copy OK

Track 15

Filename C:\downloads\Big Star - I Got Kinda Lost (2013) [FLAC]\disc 06\15 - She's A Mover [alt take 2008 mix].wav

Peak level 98.8 %
Extraction speed 9.4 X
Track quality 100.0 %
Test CRC B58634D3
Copy CRC B58634D3
Track not present in AccurateRip database
Copy OK

Track 16

Filename C:\downloads\Big Star - I Got Kinda Lost (2013) [FLAC]\disc 06\16 - She's A Mover [alt version].wav

Peak level 98.8 %
Extraction speed 9.3 X
Track quality 100.0 %
Test CRC C334DDAF
Copy CRC C334DDAF
Track not present in AccurateRip database
Copy OK

Track 17

Filename C:\downloads\Big Star - I Got Kinda Lost (2013) [FLAC]\disc 06\17 - September Gurls [2008 mix].wav

Peak level 98.8 %
Extraction speed 6.8 X
Track quality 99.9 %
Test CRC 36521809
Copy CRC 36521809
Track not present in AccurateRip database
Copy OK

Track 18

Filename C:\downloads\Big Star - I Got Kinda Lost (2013) [FLAC]\disc 06\18 - September Gurls [movie mix 2012].wav

Peak level 98.8 %
Extraction speed 9.8 X
Track quality 100.0 %
Test CRC 42127A5A
Copy CRC 42127A5A
Track not present in AccurateRip database
Copy OK

Track 19

Filename C:\downloads\Big Star - I Got Kinda Lost (2013) [FLAC]\disc 06\19 - Morpha Too [rough mix].wav

Peak level 48.7 %
Extraction speed 8.5 X
Track quality 100.0 %
Test CRC F54B8BBC
Copy CRC F54B8BBC
Track not present in AccurateRip database
Copy OK

Track 20

Filename C:\downloads\Big Star - I Got Kinda Lost (2013) [FLAC]\disc 06\20 - Morpha Too [alt mix].wav

Peak level 84.6 %
Extraction speed 5.4 X
Track quality 99.8 %
Test CRC 77C769D5
Copy CRC 77C769D5
Track not present in AccurateRip database
Copy OK


None of the tracks are present in the AccurateRip database

No errors occurred

End of status report

==== Log checksum 844E2904A55753D7C07A01496877B0789174171AB9C682E895299EF0EFEC3798 ====

–––––––––––-

Exact Audio Copy V1.0 beta 2 from 29. April 2011

EAC extraction logfile from 16. January 2016, 6:56

Big Star / I Got Kinda Lost [disc 07]

Used drive : ATAPI BD E DH12E3SH Adapter: 3 ID: 0

Read mode : Secure
Utilize accurate stream : Yes
Defeat audio cache : Yes
Make use of C2 pointers : No

Read offset correction : 702
Overread into Lead-In and Lead-Out : No
Fill up missing offset samples with silence : Yes
Delete leading and trailing silent blocks : No
Null samples used in CRC calculations : Yes
Used interface : Native Win32 interface for Win NT & 2000
Gap handling : Appended to previous track

Used output format : User Defined Encoder
Selected bitrate : 128 kBit/s
Quality : High
Add ID3 tag : No
Command line compressor : C:\Program Files (x86)\FLAC\flac.exe
Additional command line options : -8 -V -T "ARTIST=%artist%" -T "TITLE=%title%" -T "ALBUM=%albumtitle%" -T "DATE=%year%" -T "TRACKNUMBER=%tracknr%" -T "TOTALTRACKS=%numtracks%" -T "GENRE=%genre%" -T "ALBUMARTIST=%albumartist%" -T "ALBUM ARTIST=%albumartist%


TOC of the extracted CD

Track | Start | Length | Start sector | End sector
––––––––––––––––––––––––––––-
1 | 0:00.00 | 2:46.64 | 0 | 12513
2 | 2:46.64 | 2:46.64 | 12514 | 25027
3 | 5:33.53 | 3:08.09 | 25028 | 39136
4 | 8:41.62 | 3:07.65 | 39137 | 53226
5 | 11:49.52 | 0:46.06 | 53227 | 56682
6 | 12:35.58 | 2:28.70 | 56683 | 67852
7 | 15:04.53 | 2:28.70 | 67853 | 79022
8 | 17:33.48 | 2:50.74 | 79023 | 91846
9 | 20:24.47 | 4:41.12 | 91847 | 112933
10 | 25:05.59 | 4:35.03 | 112934 | 133561
11 | 29:40.62 | 3:40.23 | 133562 | 150084
12 | 33:21.10 | 3:36.20 | 150085 | 166304
13 | 36:57.30 | 3:36.20 | 166305 | 182524
14 | 40:33.50 | 3:48.51 | 182525 | 199675
15 | 44:22.26 | 4:11.69 | 199676 | 218569
16 | 48:34.20 | 3:51.06 | 218570 | 235900
17 | 52:25.26 | 0:25.31 | 235901 | 237806
18 | 52:50.57 | 2:43.06 | 237807 | 250037
19 | 55:33.63 | 2:43.33 | 250038 | 262295
20 | 58:17.21 | 2:13.44 | 262296 | 272314
21 | 60:30.65 | 2:13.44 | 272315 | 282333
22 | 62:44.34 | 2:08.34 | 282334 | 291967
23 | 64:52.68 | 1:36.00 | 291968 | 299167
24 | 66:28.68 | 1:36.00 | 299168 | 306367


Track 1

Filename C:\downloads\Big Star - I Got Kinda Lost (2013) [FLAC]\disc 07\01 - Thank You Friends [demo - prev unissued].wav

Pre-gap length 0:00:02.00

Peak level 98.8 %
Extraction speed 5.1 X
Track quality 100.0 %
Test CRC CD394DD0
Copy CRC CD394DD0
Track not present in AccurateRip database
Copy OK

Track 2

Filename C:\downloads\Big Star - I Got Kinda Lost (2013) [FLAC]\disc 07\02 - Thank You Friends [demo - alternate mix].wav

Peak level 98.8 %
Extraction speed 5.8 X
Track quality 100.0 %
Test CRC CEF60111
Copy CRC CEF60111
Track not present in AccurateRip database
Copy OK

Track 3

Filename C:\downloads\Big Star - I Got Kinda Lost (2013) [FLAC]\disc 07\03 - Thank You Friends [original acetate mix 2008].wav

Peak level 98.8 %
Extraction speed 6.2 X
Track quality 100.0 %
Test CRC EB947FBA
Copy CRC EB947FBA
Track not present in AccurateRip database
Copy OK

Track 4

Filename C:\downloads\Big Star - I Got Kinda Lost (2013) [FLAC]\disc 07\04 - Thank You Friends [TV Mix].wav

Peak level 89.9 %
Extraction speed 5.3 X
Track quality 99.9 %
Test CRC B6FDC07B
Copy CRC B6FDC07B
Track not present in AccurateRip database
Copy OK

Track 5

Filename C:\downloads\Big Star - I Got Kinda Lost (2013) [FLAC]\disc 07\05 - Manana [prev unissued].wav

Peak level 95.7 %
Extraction speed 4.5 X
Track quality 100.0 %
Test CRC 41A2E1D7
Copy CRC 41A2E1D7
Track not present in AccurateRip database
Copy OK

Track 6

Filename C:\downloads\Big Star - I Got Kinda Lost (2013) [FLAC]\disc 07\06 - Jesus Christ [demo - prev unissued].wav

Peak level 89.2 %
Extraction speed 6.4 X
Track quality 100.0 %
Test CRC 04AFAE7B
Copy CRC 04AFAE7B
Track not present in AccurateRip database
Copy OK

Track 7

Filename C:\downloads\Big Star - I Got Kinda Lost (2013) [FLAC]\disc 07\07 - Jesus Christ [demo - alternate mix].wav

Peak level 89.2 %
Extraction speed 6.9 X
Track quality 100.0 %
Test CRC F1EB5935
Copy CRC F1EB5935
Track not present in AccurateRip database
Copy OK

Track 8

Filename C:\downloads\Big Star - I Got Kinda Lost (2013) [FLAC]\disc 07\08 - Femme Fatale [demo - prev unissued].wav

Peak level 93.4 %
Extraction speed 5.9 X
Track quality 99.9 %
Test CRC C21E8217
Copy CRC C21E8217
Track not present in AccurateRip database
Copy OK

Track 9

Filename C:\downloads\Big Star - I Got Kinda Lost (2013) [FLAC]\disc 07\09 - Big Black Car [alternate demo - prev unissued].wav

Peak level 95.2 %
Extraction speed 7.1 X
Track quality 99.9 %
Test CRC B1541FA9
Copy CRC B1541FA9
Track not present in AccurateRip database
Copy OK

Track 10

Filename C:\downloads\Big Star - I Got Kinda Lost (2013) [FLAC]\disc 07\10 - Big Black Car [demo 2008 mix].wav

Peak level 98.8 %
Extraction speed 8.4 X
Track quality 100.0 %
Test CRC 73E84536
Copy CRC 73E84536
Track not present in AccurateRip database
Copy OK

Track 11

Filename C:\downloads\Big Star - I Got Kinda Lost (2013) [FLAC]\disc 07\11 - Big Black Car [rough mix 1974].wav

Peak level 98.8 %
Extraction speed 8.4 X
Track quality 100.0 %
Test CRC D1F1AD6B
Copy CRC D1F1AD6B
Track not present in AccurateRip database
Copy OK

Track 12

Filename C:\downloads\Big Star - I Got Kinda Lost (2013) [FLAC]\disc 07\12 - Holocaust [demo - prev unissued].wav

Peak level 92.1 %
Extraction speed 8.6 X
Track quality 100.0 %
Test CRC 20167B60
Copy CRC 20167B60
Track not present in AccurateRip database
Copy OK

Track 13

Filename C:\downloads\Big Star - I Got Kinda Lost (2013) [FLAC]\disc 07\13 - Holocaust [demo - alternate mix].wav

Peak level 92.1 %
Extraction speed 9.2 X
Track quality 100.0 %
Test CRC EA481A48
Copy CRC EA481A48
Track not present in AccurateRip database
Copy OK

Track 14

Filename C:\downloads\Big Star - I Got Kinda Lost (2013) [FLAC]\disc 07\14 - Holocaust [original acetate mix 2008].wav

Peak level 91.7 %
Extraction speed 9.2 X
Track quality 100.0 %
Test CRC E2B0B36B
Copy CRC E2B0B36B
Track not present in AccurateRip database
Copy OK

Track 15

Filename C:\downloads\Big Star - I Got Kinda Lost (2013) [FLAC]\disc 07\15 - Holocaust [rough mix 1974].wav

Peak level 98.8 %
Extraction speed 9.6 X
Track quality 100.0 %
Test CRC F5E67F24
Copy CRC F5E67F24
Track not present in AccurateRip database
Copy OK

Track 16

Filename C:\downloads\Big Star - I Got Kinda Lost (2013) [FLAC]\disc 07\16 - Kanga Roo [rough mix 1974].wav

Peak level 98.8 %
Extraction speed 8.0 X
Track quality 99.9 %
Test CRC FA64D0EB
Copy CRC FA64D0EB
Track not present in AccurateRip database
Copy OK

Track 17

Filename C:\downloads\Big Star - I Got Kinda Lost (2013) [FLAC]\disc 07\17 - Stroke It Noel [backward intro 1974].wav

Peak level 65.5 %
Extraction speed 2.8 X
Track quality 99.6 %
Test CRC 12A3E9A5
Copy CRC 12A3E9A5
Track not present in AccurateRip database
Copy OK

Track 18

Filename C:\downloads\Big Star - I Got Kinda Lost (2013) [FLAC]\disc 07\18 - For You [original acetate mix 2008].wav

Peak level 98.8 %
Extraction speed 9.2 X
Track quality 100.0 %
Test CRC A0AE8BFB
Copy CRC A0AE8BFB
Track not present in AccurateRip database
Copy OK

Track 19

Filename C:\downloads\Big Star - I Got Kinda Lost (2013) [FLAC]\disc 07\19 - Kizza Me [original acetate mix 2008].wav

Peak level 98.8 %
Extraction speed 9.9 X
Track quality 100.0 %
Test CRC A2761F3A
Copy CRC A2761F3A
Track not present in AccurateRip database
Copy OK

Track 20

Filename C:\downloads\Big Star - I Got Kinda Lost (2013) [FLAC]\disc 07\20 - Nightime [demo - prev unissued].wav

Peak level 93.5 %
Extraction speed 9.5 X
Track quality 100.0 %
Test CRC E2E40098
Copy CRC E2E40098
Track not present in AccurateRip database
Copy OK

Track 21

Filename C:\downloads\Big Star - I Got Kinda Lost (2013) [FLAC]\disc 07\21 - Nightime [demo - alternate mix].wav

Peak level 93.5 %
Extraction speed 9.6 X
Track quality 100.0 %
Test CRC C925B486
Copy CRC C925B486
Track not present in AccurateRip database
Copy OK

Track 22

Filename C:\downloads\Big Star - I Got Kinda Lost (2013) [FLAC]\disc 07\22 - Blue Moon [demo - prev unissued].wav

Peak level 90.5 %
Extraction speed 7.5 X
Track quality 99.9 %
Test CRC 97F4AAA1
Copy CRC 97F4AAA1
Track not present in AccurateRip database
Copy OK

Track 23

Filename C:\downloads\Big Star - I Got Kinda Lost (2013) [FLAC]\disc 07\23 - Take Care [demo - prev unissued].wav

Peak level 95.5 %
Extraction speed 9.1 X
Track quality 100.0 %
Test CRC 8D2DE234
Copy CRC 8D2DE234
Track not present in AccurateRip database
Copy OK

Track 24

Filename C:\downloads\Big Star - I Got Kinda Lost (2013) [FLAC]\disc 07\24 - Take Care [demo - alternate mix].wav

Peak level 95.5 %
Extraction speed 8.3 X
Track quality 100.0 %
Test CRC BDEC5D3A
Copy CRC BDEC5D3A
Track not present in AccurateRip database
Copy OK


None of the tracks are present in the AccurateRip database

No errors occurred

End of status report

==== Log checksum 1A13C154853E6AA16970A4BBC638BC5DB94B44950E7BFB4DA73C91724820A27B ====

––––––––––

Exact Audio Copy V1.0 beta 2 from 29. April 2011

EAC extraction logfile from 16. January 2016, 15:29

Big Star / I Got Kinda Lost [disc 08]

Used drive : ATAPI BD E DH12E3SH Adapter: 3 ID: 0

Read mode : Secure
Utilize accurate stream : Yes
Defeat audio cache : Yes
Make use of C2 pointers : No

Read offset correction : 702
Overread into Lead-In and Lead-Out : No
Fill up missing offset samples with silence : Yes
Delete leading and trailing silent blocks : No
Null samples used in CRC calculations : Yes
Used interface : Native Win32 interface for Win NT & 2000
Gap handling : Appended to previous track

Used output format : User Defined Encoder
Selected bitrate : 128 kBit/s
Quality : High
Add ID3 tag : No
Command line compressor : C:\Program Files (x86)\FLAC\flac.exe
Additional command line options : -8 -V -T "ARTIST=%artist%" -T "TITLE=%title%" -T "ALBUM=%albumtitle%" -T "DATE=%year%" -T "TRACKNUMBER=%tracknr%" -T "TOTALTRACKS=%numtracks%" -T "GENRE=%genre%" -T "ALBUMARTIST=%albumartist%" -T "ALBUM ARTIST=%albumartist%


TOC of the extracted CD

Track | Start | Length | Start sector | End sector
––––––––––––––––––––––––––––-
1 | 0:00.00 | 1:51.67 | 0 | 8391
2 | 1:51.67 | 1:51.67 | 8392 | 16783
3 | 3:43.59 | 1:46.69 | 16784 | 24802
4 | 5:30.53 | 1:51.45 | 24803 | 33172
5 | 7:22.23 | 2:07.48 | 33173 | 42745
6 | 9:29.71 | 1:26.48 | 42746 | 49243
7 | 10:56.44 | 1:27.63 | 49244 | 55831
8 | 12:24.32 | 2:38.62 | 55832 | 67743
9 | 15:03.19 | 2:13.35 | 67744 | 77753
10 | 17:16.54 | 2:13.35 | 77754 | 87763
11 | 19:30.14 | 4:17.53 | 87764 | 107091
12 | 23:47.67 | 3:42.00 | 107092 | 123741
13 | 27:29.67 | 3:56.33 | 123742 | 141474
14 | 31:26.25 | 5:18.17 | 141475 | 165341
15 | 36:44.42 | 4:18.09 | 165342 | 184700
16 | 41:02.51 | 4:11.66 | 184701 | 203591
17 | 45:14.42 | 5:13.29 | 203592 | 227095
18 | 50:27.71 | 4:03.33 | 227096 | 245353
19 | 54:31.29 | 4:20.40 | 245354 | 264893
20 | 58:51.69 | 4:43.19 | 264894 | 286137
21 | 63:35.13 | 2:54.43 | 286138 | 299230
22 | 66:29.56 | 2:58.00 | 299231 | 312580
23 | 69:27.56 | 3:55.36 | 312581 | 330241
24 | 73:23.17 | 2:28.50 | 330242 | 341391


Track 1

Filename C:\downloads\Big Star - I Got Kinda Lost (2013) [FLAC]\disc 08\01 - Lovely Day [demo].wav

Pre-gap length 0:00:02.00

Peak level 98.8 %
Extraction speed 3.0 X
Track quality 99.9 %
Test CRC B216BAE1
Copy CRC B216BAE1
Track not present in AccurateRip database
Copy OK

Track 2

Filename C:\downloads\Big Star - I Got Kinda Lost (2013) [FLAC]\disc 08\02 - Lovely Day [demo - alternate mix].wav

Peak level 98.8 %
Extraction speed 3.2 X
Track quality 99.9 %
Test CRC AC358728
Copy CRC AC358728
Track not present in AccurateRip database
Copy OK

Track 3

Filename C:\downloads\Big Star - I Got Kinda Lost (2013) [FLAC]\disc 08\03 - Lovely Day [demo 2008 mix].wav

Peak level 89.8 %
Extraction speed 4.4 X
Track quality 100.0 %
Test CRC 29B718C6
Copy CRC 29B718C6
Track not present in AccurateRip database
Copy OK

Track 4

Filename C:\downloads\Big Star - I Got Kinda Lost (2013) [FLAC]\disc 08\04 - Lovely Day [demo - prev unreleased].wav

Peak level 100.0 %
Extraction speed 4.7 X
Track quality 100.0 %
Test CRC CC128A2B
Copy CRC CC128A2B
Track not present in AccurateRip database
Copy OK

Track 5

Filename C:\downloads\Big Star - I Got Kinda Lost (2013) [FLAC]\disc 08\05 - Lovely Day [alternate take].wav

Peak level 97.4 %
Extraction speed 5.0 X
Track quality 100.0 %
Test CRC E184B6AB
Copy CRC E184B6AB
Track not present in AccurateRip database
Copy OK

Track 6

Filename C:\downloads\Big Star - I Got Kinda Lost (2013) [FLAC]\disc 08\06 - Downs [demo].wav

Peak level 86.4 %
Extraction speed 3.2 X
Track quality 99.8 %
Test CRC A50A337D
Copy CRC A50A337D
Track not present in AccurateRip database
Copy OK

Track 7

Filename C:\downloads\Big Star - I Got Kinda Lost (2013) [FLAC]\disc 08\07 - Downs [demo 2008 mix].wav

Peak level 92.5 %
Extraction speed 4.4 X
Track quality 100.0 %
Test CRC 787C155A
Copy CRC 787C155A
Track not present in AccurateRip database
Copy OK

Track 8

Filename C:\downloads\Big Star - I Got Kinda Lost (2013) [FLAC]\disc 08\08 - Nature Boy [alternate mix - prev unreleased].wav

Peak level 80.5 %
Extraction speed 5.4 X
Track quality 100.0 %
Test CRC 902384B1
Copy CRC 902384B1
Track not present in AccurateRip database
Copy OK

Track 9

Filename C:\downloads\Big Star - I Got Kinda Lost (2013) [FLAC]\disc 08\09 - Till The End Of The Day [alternate mix - prev unissued].wav

Peak level 92.2 %
Extraction speed 4.3 X
Track quality 99.9 %
Test CRC 648CC13D
Copy CRC 648CC13D
Track not present in AccurateRip database
Copy OK

Track 10

Filename C:\downloads\Big Star - I Got Kinda Lost (2013) [FLAC]\disc 08\10 - Till The End Of The Day [alternate mix].wav

Peak level 92.2 %
Extraction speed 4.4 X
Track quality 99.9 %
Test CRC 8A197FB2
Copy CRC 8A197FB2
Track not present in AccurateRip database
Copy OK

Track 11

Filename C:\downloads\Big Star - I Got Kinda Lost (2013) [FLAC]\disc 08\11 - Hot Thing [Ignition Records Sampler mix].wav

Peak level 100.0 %
Extraction speed 6.7 X
Track quality 100.0 %
Test CRC 432DB8FC
Copy CRC 432DB8FC
Track not present in AccurateRip database
Copy OK

Track 12

Filename C:\downloads\Big Star - I Got Kinda Lost (2013) [FLAC]\disc 08\12 - I Am The Cosmos [slow version].wav

Peak level 89.1 %
Extraction speed 6.9 X
Track quality 100.0 %
Test CRC 5A941D52
Copy CRC 5A941D52
Track not present in AccurateRip database
Copy OK

Track 13

Filename C:\downloads\Big Star - I Got Kinda Lost (2013) [FLAC]\disc 08\13 - I Am The Cosmos [movie mix 2012].wav

Peak level 98.8 %
Extraction speed 7.1 X
Track quality 100.0 %
Test CRC 293A5B2B
Copy CRC 293A5B2B
Track not present in AccurateRip database
Copy OK

Track 14

Filename C:\downloads\Big Star - I Got Kinda Lost (2013) [FLAC]\disc 08\14 - I Am The Cosmos [extended alt version].wav

Peak level 96.6 %
Extraction speed 7.3 X
Track quality 100.0 %
Test CRC C0CEF7FC
Copy CRC C0CEF7FC
Track not present in AccurateRip database
Copy OK

Track 15

Filename C:\downloads\Big Star - I Got Kinda Lost (2013) [FLAC]\disc 08\15 - I Don't Know [alt version].wav

Peak level 96.6 %
Extraction speed 8.0 X
Track quality 100.0 %
Test CRC 23957ED4
Copy CRC 23957ED4
Track not present in AccurateRip database
Copy OK

Track 16

Filename C:\downloads\Big Star - I Got Kinda Lost (2013) [FLAC]\disc 08\16 - Make A Scene [alt mix].wav

Peak level 96.6 %
Extraction speed 8.1 X
Track quality 100.0 %
Test CRC A156D74B
Copy CRC A156D74B
Track not present in AccurateRip database
Copy OK

Track 17

Filename C:\downloads\Big Star - I Got Kinda Lost (2013) [FLAC]\disc 08\17 - Speed Of Sound [alt version].wav

Peak level 96.6 %
Extraction speed 7.6 X
Track quality 99.9 %
Test CRC EFBB063E
Copy CRC EFBB063E
Track not present in AccurateRip database
Copy OK

Track 18

Filename C:\downloads\Big Star - I Got Kinda Lost (2013) [FLAC]\disc 08\18 - Fight At The Table [alt mix].wav

Peak level 96.6 %
Extraction speed 8.3 X
Track quality 100.0 %
Test CRC 12A27334
Copy CRC 12A27334
Track not present in AccurateRip database
Copy OK

Track 19

Filename C:\downloads\Big Star - I Got Kinda Lost (2013) [FLAC]\disc 08\19 - Get Away [alt version].wav

Peak level 96.6 %
Extraction speed 8.8 X
Track quality 100.0 %
Test CRC 9BE09901
Copy CRC 9BE09901
Track not present in AccurateRip database
Copy OK

Track 20

Filename C:\downloads\Big Star - I Got Kinda Lost (2013) [FLAC]\disc 08\20 - Better Save Yourself [movie mix 2012].wav

Peak level 98.8 %
Extraction speed 9.2 X
Track quality 100.0 %
Test CRC E0892E02
Copy CRC E0892E02
Track not present in AccurateRip database
Copy OK

Track 21

Filename C:\downloads\Big Star - I Got Kinda Lost (2013) [FLAC]\disc 08\21 - You And Your Sister [acoustic version].wav

Peak level 100.0 %
Extraction speed 8.9 X
Track quality 100.0 %
Test CRC 79868974
Copy CRC 79868974
Track not present in AccurateRip database
Copy OK

Track 22

Filename C:\downloads\Big Star - I Got Kinda Lost (2013) [FLAC]\disc 08\22 - You And Your Sister [country version].wav

Peak level 77.9 %
Extraction speed 9.1 X
Track quality 100.0 %
Test CRC 0F1F8770
Copy CRC 0F1F8770
Track not present in AccurateRip database
Copy OK

Track 23

Filename C:\downloads\Big Star - I Got Kinda Lost (2013) [FLAC]\disc 08\23 - Clacton Rag [prev unissued].wav

Peak level 79.4 %
Extraction speed 9.4 X
Track quality 100.0 %
Test CRC 65FFF1C8
Copy CRC 65FFF1C8
Track not present in AccurateRip database
Copy OK

Track 24

Filename C:\downloads\Big Star - I Got Kinda Lost (2013) [FLAC]\disc 08\24 - Untitled Electric Instrumental [rough mix].wav

Peak level 72.1 %
Extraction speed 9.0 X
Track quality 100.0 %
Test CRC EE7493D7
Copy CRC EE7493D7
Track not present in AccurateRip database
Copy OK


None of the tracks are present in the AccurateRip database

No errors occurred

End of status report

==== Log checksum 8CBBDCFD07F3A2266D06A076B7C20965BFFC7ACFE8153CF65C61EB23B76EA340 ====

––––––––-

Exact Audio Copy V1.0 beta 2 from 29. April 2011

EAC extraction logfile from 17. January 2016, 10:29

Big Star / Till The End Of The Day 1974

Used drive : ATAPI BD E DH12E3SH Adapter: 3 ID: 0

Read mode : Secure
Utilize accurate stream : Yes
Defeat audio cache : Yes
Make use of C2 pointers : No

Read offset correction : 702
Overread into Lead-In and Lead-Out : No
Fill up missing offset samples with silence : Yes
Delete leading and trailing silent blocks : No
Null samples used in CRC calculations : Yes
Used interface : Native Win32 interface for Win NT & 2000
Gap handling : Appended to previous track

Used output format : User Defined Encoder
Selected bitrate : 128 kBit/s
Quality : High
Add ID3 tag : No
Command line compressor : C:\Program Files (x86)\FLAC\flac.exe
Additional command line options : -8 -V -T "ARTIST=%artist%" -T "TITLE=%title%" -T "ALBUM=%albumtitle%" -T "DATE=%year%" -T "TRACKNUMBER=%tracknr%" -T "TOTALTRACKS=%numtracks%" -T "GENRE=%genre%" -T "ALBUMARTIST=%albumartist%" -T "ALBUM ARTIST=%albumartist%


TOC of the extracted CD

Track | Start | Length | Start sector | End sector
––––––––––––––––––––––––––––-
1 | 0:00.00 | 3:54.10 | 0 | 17559
2 | 3:54.10 | 3:55.20 | 17560 | 35204
3 | 7:49.30 | 3:49.30 | 35205 | 52409
4 | 11:38.60 | 4:14.33 | 52410 | 71492
5 | 15:53.18 | 2:21.65 | 71493 | 82132
6 | 18:15.08 | 6:00.45 | 82133 | 109177
7 | 24:15.53 | 3:13.73 | 109178 | 123725
8 | 27:29.51 | 3:36.12 | 123726 | 139937
9 | 31:05.63 | 3:07.33 | 139938 | 153995
10 | 34:13.21 | 2:58.60 | 153996 | 167405
11 | 37:12.06 | 2:09.11 | 167406 | 177091


Track 1

Filename C:\downloads\Big Star - I Got Kinda Lost (2013) [FLAC]\Big Star - Till The End OF The Day 1974 (1974) [FLAC] {2013 IGKL bonus disc}\01 - In The Street.wav

Pre-gap length 0:00:02.00

Peak level 77.7 %
Extraction speed 5.7 X
Track quality 100.0 %
Test CRC 2B28EDDB
Copy CRC 2B28EDDB
Track not present in AccurateRip database
Copy OK

Track 2

Filename C:\downloads\Big Star - I Got Kinda Lost (2013) [FLAC]\Big Star - Till The End OF The Day 1974 (1974) [FLAC] {2013 IGKL bonus disc}\02 - Baby Strange.wav

Peak level 78.2 %
Extraction speed 6.3 X
Track quality 100.0 %
Test CRC 4DD9B981
Copy CRC 4DD9B981
Track not present in AccurateRip database
Copy OK

Track 3

Filename C:\downloads\Big Star - I Got Kinda Lost (2013) [FLAC]\Big Star - Till The End OF The Day 1974 (1974) [FLAC] {2013 IGKL bonus disc}\03 - Mod Lang.wav

Peak level 75.0 %
Extraction speed 5.5 X
Track quality 99.9 %
Test CRC 0F822890
Copy CRC 0F822890
Track not present in AccurateRip database
Copy OK

Track 4

Filename C:\downloads\Big Star - I Got Kinda Lost (2013) [FLAC]\Big Star - Till The End OF The Day 1974 (1974) [FLAC] {2013 IGKL bonus disc}\04 - Candy Says.wav

Peak level 74.5 %
Extraction speed 7.1 X
Track quality 100.0 %
Test CRC 50E4F74D
Copy CRC 50E4F74D
Track not present in AccurateRip database
Copy OK

Track 5

Filename C:\downloads\Big Star - I Got Kinda Lost (2013) [FLAC]\Big Star - Till The End OF The Day 1974 (1974) [FLAC] {2013 IGKL bonus disc}\05 - Till The End Of The Day.wav

Peak level 72.9 %
Extraction speed 6.6 X
Track quality 100.0 %
Test CRC CACD1B91
Copy CRC CACD1B91
Track not present in AccurateRip database
Copy OK

Track 6

Filename C:\downloads\Big Star - I Got Kinda Lost (2013) [FLAC]\Big Star - Till The End OF The Day 1974 (1974) [FLAC] {2013 IGKL bonus disc}\06 - O My Soul.wav

Peak level 80.7 %
Extraction speed 8.1 X
Track quality 100.0 %
Test CRC E502287A
Copy CRC E502287A
Track not present in AccurateRip database
Copy OK

Track 7

Filename C:\downloads\Big Star - I Got Kinda Lost (2013) [FLAC]\Big Star - Till The End OF The Day 1974 (1974) [FLAC] {2013 IGKL bonus disc}\07 - Motel Blues.wav

Peak level 76.4 %
Extraction speed 7.3 X
Track quality 100.0 %
Test CRC 706B317E
Copy CRC 706B317E
Track not present in AccurateRip database
Copy OK

Track 8

Filename C:\downloads\Big Star - I Got Kinda Lost (2013) [FLAC]\Big Star - Till The End OF The Day 1974 (1974) [FLAC] {2013 IGKL bonus disc}\08 - Thirteen.wav

Peak level 80.8 %
Extraction speed 8.2 X
Track quality 100.0 %
Test CRC F3B1A2D9
Copy CRC F3B1A2D9
Track not present in AccurateRip database
Copy OK

Track 9

Filename C:\downloads\Big Star - I Got Kinda Lost (2013) [FLAC]\Big Star - Till The End OF The Day 1974 (1974) [FLAC] {2013 IGKL bonus disc}\09 - Way Out West.wav

Peak level 80.1 %
Extraction speed 8.2 X
Track quality 100.0 %
Test CRC 2DF7E3AC
Copy CRC 2DF7E3AC
Track not present in AccurateRip database
Copy OK

Track 10

Filename C:\downloads\Big Star - I Got Kinda Lost (2013) [FLAC]\Big Star - Till The End OF The Day 1974 (1974) [FLAC] {2013 IGKL bonus disc}\10 - September Gurls.wav

Peak level 74.0 %
Extraction speed 8.8 X
Track quality 100.0 %
Test CRC 5113705E
Copy CRC 5113705E
Track not present in AccurateRip database
Copy OK

Track 11

Filename C:\downloads\Big Star - I Got Kinda Lost (2013) [FLAC]\Big Star - Till The End OF The Day 1974 (1974) [FLAC] {2013 IGKL bonus disc}\11 - Come On Now.wav

Peak level 77.4 %
Extraction speed 6.3 X
Track quality 99.9 %
Test CRC 052CA6F8
Copy CRC 052CA6F8
Track not present in AccurateRip database
Copy OK


None of the tracks are present in the AccurateRip database

No errors occurred

End of status report

==== Log checksum E69A969654E4D147C2E907C110321E96166B542F0C366FB02F22AD853F121E72 ====



Big Star - I Got Kinda Lost - Fan Made Project (2013) {8CD set with bonus 9th disc, 2015 Upgrade rec 1965-1975}

Big Star - I Got Kinda Lost - Fan Made Project (2013) {8CD set with bonus 9th disc, 2015 Upgrade rec 1965-1975}

Big Star - I Got Kinda Lost - Fan Made Project (2013) {8CD set with bonus 9th disc, 2015 Upgrade rec 1965-1975}

Big Star - I Got Kinda Lost - Fan Made Project (2013) {8CD set with bonus 9th disc, 2015 Upgrade rec 1965-1975}

Big Star - I Got Kinda Lost - Fan Made Project (2013) {8CD set with bonus 9th disc, 2015 Upgrade rec 1965-1975}


see also:
Big Star - Complete Third (2016) {3CD Box Set Omnivore Recordings OVCD-192 rec 1974}
Big Star - #1 Record (1972) {Victor Entertainment Japan MiniLP VICP-62291 rel 2003}
Big Star - Radio City (1974) {Victor Entertainment Japan MiniLP VICP-62292 rel 2003}
Big Star - 3rd 'a.k.a Sister Lovers' (1975) {Video Arts-Rykodisc Japan MiniLP VACK-1298 rel 2005}



===