Subcategories

Black Box Recorder - Life Is Unfair (2018)

Posted By: delpotro
Black Box Recorder - Life Is Unfair (2018)

Black Box Recorder - Life Is Unfair (2018)
EAC Rip | FLAC (tracks+log+.cue) | 02:54:11 | 1,13 Gb
Indie Pop, Female Vocal | Label: One Little Indian

One Little Indian release a brand new CD boxset dedicated to the wonderful Black Box Recorder. The package includes previously unreleased material and a DVD containing live footage and official music videos. Sleeve note writers include John Moore, Sarah Nixey and Luke Haines. It includes the albums England Made Me, Facts of Life, Passionoia and a 16 Track Bonus CD of Unreleased material, BBC Sessions, Single versions, remixes etc plus DVD with Live The Forum on 27 October 2008 and 5 Videos.
Tracklist:
England Made Me

1. Girl Singing In The Wreckage
2. England Made Me
3. New Baby Boom
4. It’s Only The End Of The World
5. Ideal Home
6. Child Psychology
7. I. C. One Female
8. Up Town Top Ranking
9. Swinging
10. Kidnapping An Heiress
11. Wonderful Life
12 Hated Sunday

The Facts Of Life

1. The Art Of Driving
2. Weekend
3. The English Motorway System
4. May Queen
5. Sex Life
6. French Rock’n’Roll
7. The Facts Of Life
8. Straight Life
9. Gift Horse
10. The Deverell Twins
11. Goodnight Kiss

Passionoia

1. The School Song
2. GSOH Q.E.D.
3. British Racing Green
4. Being Number One
5. The New Diana
6. These Are The Things
7. Andrew Ridgley
8. When Britain Refused To Sing
9. Girls Guide For The Modern Diva
10. I Ran All The Way Home

Rarities Disc

1. Facts Of Life (single version)
2. Start As You Mean To Go On
3. Soul Boy
4. Facts of Life (Chocolate Layers remix)
5. Uptown Top Ranking
5. Brutality
6. Watch Angels Not The Wire
7. Rock N Roll Suicide (BBC session)
8. Art Of Driving (BBC session)
9. Straight Life (BBC session)
10. Goodnight Kiss (BBC session)
11. Land Of Our Fathers
12. 17 and Deadly
13. Passionoia mega mix
14. Lord Lucan
15. Keep It In The Family (unreleased)
16. Do You Believe in God? (unreleased)

Exact Audio Copy V1.1 from 23. June 2015

EAC extraction logfile from 9. June 2018, 0:30

Black Box Recorder / England Made Me

Used drive : HL-DT-STDVD+-RW GHB0N Adapter: 1 ID: 0

Read mode : Secure
Utilize accurate stream : Yes
Defeat audio cache : Yes
Make use of C2 pointers : No

Read offset correction : 6
Overread into Lead-In and Lead-Out : No
Fill up missing offset samples with silence : Yes
Delete leading and trailing silent blocks : No
Null samples used in CRC calculations : Yes
Used interface : Native Win32 interface for Win NT & 2000
Gap handling : Appended to previous track

Used output format : User Defined Encoder
Selected bitrate : 128 kBit/s
Quality : High
Add ID3 tag : No
Command line compressor : C:\Program Files (x86)\FLAC Frontend\tools\flac.exe
Additional command line options : -8 -e -V -T "ARTIST=%artist%" -T "TITLE=%title%" -T "ALBUM=%albumtitle%" -T "DATE=%year%" -T "TRACKNUMBER=%tracknr%" -T "GENRE=%genre%" -T "PERFORMER=%albuminterpret%" -T "COMPOSER=%composer%" %haslyrics%–tag-from-file=LYRICS="%lyricsfile%"%haslyrics% -T "ALBUMARTIST=%albumartist%" -T "DISCNUMBER=%cdnumber%" -T "TOTALDISCS=%totalcds%" -T "TOTALTRACKS=%numtracks%" -T "COMMENT=%comment%" %source% -o %dest%


TOC of the extracted CD

Track | Start | Length | Start sector | End sector
––––––––––––––––––––––––––––-
1 | 0:00.00 | 2:42.14 | 0 | 12163
2 | 2:42.14 | 4:00.10 | 12164 | 30173
3 | 6:42.24 | 2:10.72 | 30174 | 39995
4 | 8:53.21 | 5:21.65 | 39996 | 64135
5 | 14:15.11 | 2:39.45 | 64136 | 76105
6 | 16:54.56 | 4:08.20 | 76106 | 94725
7 | 21:03.01 | 2:19.58 | 94726 | 105208
8 | 23:22.59 | 3:57.45 | 105209 | 123028
9 | 27:20.29 | 3:52.62 | 123029 | 140490
10 | 31:13.16 | 2:46.33 | 140491 | 152973
11 | 33:59.49 | 2:16.72 | 152974 | 163245
12 | 36:16.46 | 3:16.70 | 163246 | 178015


Track 1

Filename Z:\FLAC archives\Black Box Recorder - Life Is Unfair (2018) [CD FLAC]\Black Box Recorder - England Made Me\01 - Girl Singing In The Wreckage.wav

Pre-gap length 0:00:02.00

Peak level 98.1 %
Extraction speed 0.9 X
Track quality 100.0 %
Test CRC 89E75EE3
Copy CRC 89E75EE3
Track not present in AccurateRip database
Copy OK

Track 2

Filename Z:\FLAC archives\Black Box Recorder - Life Is Unfair (2018) [CD FLAC]\Black Box Recorder - England Made Me\02 - England Made Me.wav

Peak level 98.1 %
Extraction speed 1.1 X
Track quality 100.0 %
Test CRC 9C70D169
Copy CRC 9C70D169
Track not present in AccurateRip database
Copy OK

Track 3

Filename Z:\FLAC archives\Black Box Recorder - Life Is Unfair (2018) [CD FLAC]\Black Box Recorder - England Made Me\03 - New Baby Boom.wav

Peak level 98.1 %
Extraction speed 1.0 X
Track quality 100.0 %
Test CRC 03D6C536
Copy CRC 03D6C536
Track not present in AccurateRip database
Copy OK

Track 4

Filename Z:\FLAC archives\Black Box Recorder - Life Is Unfair (2018) [CD FLAC]\Black Box Recorder - England Made Me\04 - It's Only The End Of The World.wav

Peak level 98.1 %
Extraction speed 1.3 X
Track quality 100.0 %
Test CRC 0806B8C9
Copy CRC 0806B8C9
Track not present in AccurateRip database
Copy OK

Track 5

Filename Z:\FLAC archives\Black Box Recorder - Life Is Unfair (2018) [CD FLAC]\Black Box Recorder - England Made Me\05 - Ideal Home.wav

Peak level 98.1 %
Extraction speed 1.3 X
Track quality 100.0 %
Test CRC 94E82AFB
Copy CRC 94E82AFB
Track not present in AccurateRip database
Copy OK

Track 6

Filename Z:\FLAC archives\Black Box Recorder - Life Is Unfair (2018) [CD FLAC]\Black Box Recorder - England Made Me\06 - Child Psychology.wav

Peak level 98.1 %
Extraction speed 1.5 X
Track quality 100.0 %
Test CRC 0A0C5433
Copy CRC 0A0C5433
Track not present in AccurateRip database
Copy OK

Track 7

Filename Z:\FLAC archives\Black Box Recorder - Life Is Unfair (2018) [CD FLAC]\Black Box Recorder - England Made Me\07 - I. C. One Female.wav

Peak level 98.1 %
Extraction speed 1.1 X
Track quality 99.9 %
Test CRC DF526315
Copy CRC DF526315
Track not present in AccurateRip database
Copy OK

Track 8

Filename Z:\FLAC archives\Black Box Recorder - Life Is Unfair (2018) [CD FLAC]\Black Box Recorder - England Made Me\08 - Up Town Top Ranking.wav

Peak level 98.1 %
Extraction speed 1.6 X
Track quality 100.0 %
Test CRC BA1EAE9E
Copy CRC BA1EAE9E
Track not present in AccurateRip database
Copy OK

Track 9

Filename Z:\FLAC archives\Black Box Recorder - Life Is Unfair (2018) [CD FLAC]\Black Box Recorder - England Made Me\09 - Swinging.wav

Peak level 98.1 %
Extraction speed 1.7 X
Track quality 100.0 %
Test CRC 2C9404F8
Copy CRC 2C9404F8
Track not present in AccurateRip database
Copy OK

Track 10

Filename Z:\FLAC archives\Black Box Recorder - Life Is Unfair (2018) [CD FLAC]\Black Box Recorder - England Made Me\10 - Kidnapping An Heiress.wav

Peak level 98.1 %
Extraction speed 1.6 X
Track quality 100.0 %
Test CRC C3DB92F3
Copy CRC C3DB92F3
Track not present in AccurateRip database
Copy OK

Track 11

Filename Z:\FLAC archives\Black Box Recorder - Life Is Unfair (2018) [CD FLAC]\Black Box Recorder - England Made Me\11 - Wonderful Life.wav

Peak level 98.1 %
Extraction speed 1.6 X
Track quality 100.0 %
Test CRC 010377C9
Copy CRC 010377C9
Track not present in AccurateRip database
Copy OK

Track 12

Filename Z:\FLAC archives\Black Box Recorder - Life Is Unfair (2018) [CD FLAC]\Black Box Recorder - England Made Me\12 - Hated Sunday.wav

Peak level 98.1 %
Extraction speed 1.8 X
Track quality 100.0 %
Test CRC 1AB11828
Copy CRC 1AB11828
Track not present in AccurateRip database
Copy OK


None of the tracks are present in the AccurateRip database

No errors occurred

End of status report

–– CUETools DB Plugin V2.1.6

[CTDB TOCID: Ec7xqU6g9tGbXYskIUu_K2qSfDE-] disk not present in database
Submit result: Ec7xqU6g9tGbXYskIUu_K2qSfDE- has been uploaded


==== Log checksum BA82C4E1F0617ACBE12032C82D3DC466B8A5AE80273DBCA7A94EB11CC0B9CB7E ====

Exact Audio Copy V1.1 from 23. June 2015

EAC extraction logfile from 9. June 2018, 10:30

Black Box Recorder / The Facts Of Life

Used drive : HL-DT-STDVD+-RW GHB0N Adapter: 1 ID: 0

Read mode : Secure
Utilize accurate stream : Yes
Defeat audio cache : Yes
Make use of C2 pointers : No

Read offset correction : 6
Overread into Lead-In and Lead-Out : No
Fill up missing offset samples with silence : Yes
Delete leading and trailing silent blocks : No
Null samples used in CRC calculations : Yes
Used interface : Native Win32 interface for Win NT & 2000
Gap handling : Appended to previous track

Used output format : User Defined Encoder
Selected bitrate : 128 kBit/s
Quality : High
Add ID3 tag : No
Command line compressor : C:\Program Files (x86)\FLAC Frontend\tools\flac.exe
Additional command line options : -8 -e -V -T "ARTIST=%artist%" -T "TITLE=%title%" -T "ALBUM=%albumtitle%" -T "DATE=%year%" -T "TRACKNUMBER=%tracknr%" -T "GENRE=%genre%" -T "PERFORMER=%albuminterpret%" -T "COMPOSER=%composer%" %haslyrics%–tag-from-file=LYRICS="%lyricsfile%"%haslyrics% -T "ALBUMARTIST=%albumartist%" -T "DISCNUMBER=%cdnumber%" -T "TOTALDISCS=%totalcds%" -T "TOTALTRACKS=%numtracks%" -T "COMMENT=%comment%" %source% -o %dest%


TOC of the extracted CD

Track | Start | Length | Start sector | End sector
––––––––––––––––––––––––––––-
1 | 0:00.00 | 4:25.42 | 0 | 19916
2 | 4:25.42 | 2:27.13 | 19917 | 30954
3 | 6:52.55 | 4:40.72 | 30955 | 52026
4 | 11:33.52 | 3:39.05 | 52027 | 68456
5 | 15:12.57 | 2:56.33 | 68457 | 81689
6 | 18:09.15 | 3:01.20 | 81690 | 95284
7 | 21:10.35 | 4:37.50 | 95285 | 116109
8 | 25:48.10 | 4:09.50 | 116110 | 134834
9 | 29:57.60 | 3:30.47 | 134835 | 150631
10 | 33:28.32 | 2:43.25 | 150632 | 162881
11 | 36:11.57 | 3:35.06 | 162882 | 179012


Track 1

Filename Z:\FLAC archives\Black Box Recorder - Life Is Unfair (2018) [CD FLAC]\Black Box Recorder - The Facts Of Life\01 - The Art Of Driving.wav

Pre-gap length 0:00:02.00

Peak level 98.1 %
Extraction speed 1.0 X
Track quality 100.0 %
Test CRC A454F07B
Copy CRC A454F07B
Track not present in AccurateRip database
Copy OK

Track 2

Filename Z:\FLAC archives\Black Box Recorder - Life Is Unfair (2018) [CD FLAC]\Black Box Recorder - The Facts Of Life\02 - Weekend.wav

Peak level 98.1 %
Extraction speed 1.0 X
Track quality 100.0 %
Test CRC A5F50E5A
Copy CRC A5F50E5A
Track not present in AccurateRip database
Copy OK

Track 3

Filename Z:\FLAC archives\Black Box Recorder - Life Is Unfair (2018) [CD FLAC]\Black Box Recorder - The Facts Of Life\03 - The English Motorway System.wav

Peak level 98.1 %
Extraction speed 1.2 X
Track quality 100.0 %
Test CRC 79AE27EB
Copy CRC 79AE27EB
Track not present in AccurateRip database
Copy OK

Track 4

Filename Z:\FLAC archives\Black Box Recorder - Life Is Unfair (2018) [CD FLAC]\Black Box Recorder - The Facts Of Life\04 - May Queen.wav

Peak level 98.1 %
Extraction speed 1.3 X
Track quality 100.0 %
Test CRC 76DC304D
Copy CRC 76DC304D
Track not present in AccurateRip database
Copy OK

Track 5

Filename Z:\FLAC archives\Black Box Recorder - Life Is Unfair (2018) [CD FLAC]\Black Box Recorder - The Facts Of Life\05 - Sex Life.wav

Peak level 98.1 %
Extraction speed 1.3 X
Track quality 100.0 %
Test CRC 6CA4D6ED
Copy CRC 6CA4D6ED
Track not present in AccurateRip database
Copy OK

Track 6

Filename Z:\FLAC archives\Black Box Recorder - Life Is Unfair (2018) [CD FLAC]\Black Box Recorder - The Facts Of Life\06 - French Rock'N'Roll.wav

Peak level 98.1 %
Extraction speed 1.2 X
Track quality 99.9 %
Test CRC C65234B5
Copy CRC C65234B5
Track not present in AccurateRip database
Copy OK

Track 7

Filename Z:\FLAC archives\Black Box Recorder - Life Is Unfair (2018) [CD FLAC]\Black Box Recorder - The Facts Of Life\07 - The Facts Of Life.wav

Peak level 98.1 %
Extraction speed 1.6 X
Track quality 100.0 %
Test CRC F1DF67DB
Copy CRC F1DF67DB
Track not present in AccurateRip database
Copy OK

Track 8

Filename Z:\FLAC archives\Black Box Recorder - Life Is Unfair (2018) [CD FLAC]\Black Box Recorder - The Facts Of Life\08 - Straight Life.wav

Peak level 98.1 %
Extraction speed 1.5 X
Track quality 99.9 %
Test CRC 8E00AD34
Copy CRC 8E00AD34
Track not present in AccurateRip database
Copy OK

Track 9

Filename Z:\FLAC archives\Black Box Recorder - Life Is Unfair (2018) [CD FLAC]\Black Box Recorder - The Facts Of Life\09 - Gift Horse.wav

Peak level 98.1 %
Extraction speed 1.7 X
Track quality 100.0 %
Test CRC D4F6AF5B
Copy CRC D4F6AF5B
Track not present in AccurateRip database
Copy OK

Track 10

Filename Z:\FLAC archives\Black Box Recorder - Life Is Unfair (2018) [CD FLAC]\Black Box Recorder - The Facts Of Life\10 - The Deverell Twins.wav

Peak level 98.1 %
Extraction speed 1.4 X
Track quality 99.9 %
Test CRC 4E61BECF
Copy CRC 4E61BECF
Track not present in AccurateRip database
Copy OK

Track 11

Filename Z:\FLAC archives\Black Box Recorder - Life Is Unfair (2018) [CD FLAC]\Black Box Recorder - The Facts Of Life\11 - Goodnight Kiss.wav

Peak level 98.1 %
Extraction speed 1.8 X
Track quality 100.0 %
Test CRC A6D649FB
Copy CRC A6D649FB
Track not present in AccurateRip database
Copy OK


None of the tracks are present in the AccurateRip database

No errors occurred

End of status report

–– CUETools DB Plugin V2.1.6

[CTDB TOCID: lZyVcJWV414iRA74YF9Yl7VKXOU-] disk not present in database
Submit result: lZyVcJWV414iRA74YF9Yl7VKXOU- has been uploaded


==== Log checksum 74CAA7AF2D7ADC71014A71986FCD3454CB68B972DD6E493741FEC060D67D02CA ====

Exact Audio Copy V1.1 from 23. June 2015

EAC extraction logfile from 10. June 2018, 22:19

Black Box Recorder / Passionoia

Used drive : HL-DT-STDVD+-RW GHB0N Adapter: 1 ID: 0

Read mode : Secure
Utilize accurate stream : Yes
Defeat audio cache : Yes
Make use of C2 pointers : No

Read offset correction : 6
Overread into Lead-In and Lead-Out : No
Fill up missing offset samples with silence : Yes
Delete leading and trailing silent blocks : No
Null samples used in CRC calculations : Yes
Used interface : Native Win32 interface for Win NT & 2000
Gap handling : Appended to previous track

Used output format : User Defined Encoder
Selected bitrate : 128 kBit/s
Quality : High
Add ID3 tag : No
Command line compressor : C:\Program Files (x86)\FLAC Frontend\tools\flac.exe
Additional command line options : -8 -e -V -T "ARTIST=%artist%" -T "TITLE=%title%" -T "ALBUM=%albumtitle%" -T "DATE=%year%" -T "TRACKNUMBER=%tracknr%" -T "GENRE=%genre%" -T "PERFORMER=%albuminterpret%" -T "COMPOSER=%composer%" %haslyrics%–tag-from-file=LYRICS="%lyricsfile%"%haslyrics% -T "ALBUMARTIST=%albumartist%" -T "DISCNUMBER=%cdnumber%" -T "TOTALDISCS=%totalcds%" -T "TOTALTRACKS=%numtracks%" -T "COMMENT=%comment%" %source% -o %dest%


TOC of the extracted CD

Track | Start | Length | Start sector | End sector
––––––––––––––––––––––––––––-
1 | 0:00.00 | 3:40.71 | 0 | 16570
2 | 3:40.71 | 3:46.06 | 16571 | 33526
3 | 7:27.02 | 4:34.11 | 33527 | 54087
4 | 12:01.13 | 3:26.25 | 54088 | 69562
5 | 15:27.38 | 2:49.26 | 69563 | 82263
6 | 18:16.64 | 3:58.12 | 82264 | 100125
7 | 22:15.01 | 3:47.49 | 100126 | 117199
8 | 26:02.50 | 3:14.25 | 117200 | 131774
9 | 29:17.00 | 4:09.08 | 131775 | 150457
10 | 33:26.08 | 4:27.05 | 150458 | 170487


Track 1

Filename Z:\FLAC archives\Black Box Recorder - Life Is Unfair (2018) [CD FLAC]\Black Box Recorder - Passionoia\01 - The School Song.wav

Pre-gap length 0:00:02.00

Peak level 97.4 %
Extraction speed 4.0 X
Track quality 100.0 %
Test CRC 693400E0
Copy CRC 693400E0
Track not present in AccurateRip database
Copy OK

Track 2

Filename Z:\FLAC archives\Black Box Recorder - Life Is Unfair (2018) [CD FLAC]\Black Box Recorder - Passionoia\02 - GSOH Q.E.D..wav

Peak level 97.4 %
Extraction speed 3.8 X
Track quality 99.9 %
Test CRC EA914D68
Copy CRC EA914D68
Track not present in AccurateRip database
Copy OK

Track 3

Filename Z:\FLAC archives\Black Box Recorder - Life Is Unfair (2018) [CD FLAC]\Black Box Recorder - Passionoia\03 - British Racing Green.wav

Peak level 97.4 %
Extraction speed 5.1 X
Track quality 100.0 %
Test CRC E318FFF0
Copy CRC E318FFF0
Track not present in AccurateRip database
Copy OK

Track 4

Filename Z:\FLAC archives\Black Box Recorder - Life Is Unfair (2018) [CD FLAC]\Black Box Recorder - Passionoia\04 - Being Number One.wav

Peak level 97.6 %
Extraction speed 5.3 X
Track quality 100.0 %
Test CRC ECA73BA3
Copy CRC ECA73BA3
Track not present in AccurateRip database
Copy OK

Track 5

Filename Z:\FLAC archives\Black Box Recorder - Life Is Unfair (2018) [CD FLAC]\Black Box Recorder - Passionoia\05 - The New Diana.wav

Peak level 97.4 %
Extraction speed 5.3 X
Track quality 100.0 %
Test CRC B83823E1
Copy CRC B83823E1
Track not present in AccurateRip database
Copy OK

Track 6

Filename Z:\FLAC archives\Black Box Recorder - Life Is Unfair (2018) [CD FLAC]\Black Box Recorder - Passionoia\06 - These Are The Things.wav

Peak level 97.4 %
Extraction speed 6.0 X
Track quality 100.0 %
Test CRC BA8FC64D
Copy CRC BA8FC64D
Track not present in AccurateRip database
Copy OK

Track 7

Filename Z:\FLAC archives\Black Box Recorder - Life Is Unfair (2018) [CD FLAC]\Black Box Recorder - Passionoia\07 - Andrew Ridgley.wav

Peak level 97.4 %
Extraction speed 6.3 X
Track quality 100.0 %
Test CRC 98B742EF
Copy CRC 98B742EF
Track not present in AccurateRip database
Copy OK

Track 8

Filename Z:\FLAC archives\Black Box Recorder - Life Is Unfair (2018) [CD FLAC]\Black Box Recorder - Passionoia\08 - When Britain Refused To Sing.wav

Peak level 97.4 %
Extraction speed 6.4 X
Track quality 100.0 %
Test CRC 5D412B4D
Copy CRC 5D412B4D
Track not present in AccurateRip database
Copy OK

Track 9

Filename Z:\FLAC archives\Black Box Recorder - Life Is Unfair (2018) [CD FLAC]\Black Box Recorder - Passionoia\09 - Girls Guide For The Modern Diva.wav

Peak level 97.4 %
Extraction speed 6.9 X
Track quality 100.0 %
Test CRC 0C5C47E4
Copy CRC 0C5C47E4
Track not present in AccurateRip database
Copy OK

Track 10

Filename Z:\FLAC archives\Black Box Recorder - Life Is Unfair (2018) [CD FLAC]\Black Box Recorder - Passionoia\10 - I Ran All The Way Home.wav

Peak level 97.4 %
Extraction speed 7.2 X
Track quality 100.0 %
Test CRC F6DEC6BC
Copy CRC F6DEC6BC
Track not present in AccurateRip database
Copy OK


None of the tracks are present in the AccurateRip database

No errors occurred

End of status report

–– CUETools DB Plugin V2.1.6

[CTDB TOCID: AkT_sEZD5Xze0USWJiZL_N7dbeU-] found
Submit result: already submitted
Track | CTDB Status
1 | (1/1) Accurately ripped
2 | (1/1) Accurately ripped
3 | (1/1) Accurately ripped
4 | (1/1) Accurately ripped
5 | (1/1) Accurately ripped
6 | (1/1) Accurately ripped
7 | (1/1) Accurately ripped
8 | (1/1) Accurately ripped
9 | (1/1) Accurately ripped
10 | (1/1) Accurately ripped


==== Log checksum 42B6AE9C9909E223D72380BFB293FA5A6826B9A5113DD6D12E3696B30B163D52 ====

Exact Audio Copy V1.1 from 23. June 2015

EAC extraction logfile from 9. June 2018, 17:58

Black Box Recorder / BBREXIT

Used drive : HL-DT-STDVD+-RW GHB0N Adapter: 1 ID: 0

Read mode : Secure
Utilize accurate stream : Yes
Defeat audio cache : Yes
Make use of C2 pointers : No

Read offset correction : 6
Overread into Lead-In and Lead-Out : No
Fill up missing offset samples with silence : Yes
Delete leading and trailing silent blocks : No
Null samples used in CRC calculations : Yes
Used interface : Native Win32 interface for Win NT & 2000
Gap handling : Appended to previous track

Used output format : User Defined Encoder
Selected bitrate : 128 kBit/s
Quality : High
Add ID3 tag : No
Command line compressor : C:\Program Files (x86)\FLAC Frontend\tools\flac.exe
Additional command line options : -8 -e -V -T "ARTIST=%artist%" -T "TITLE=%title%" -T "ALBUM=%albumtitle%" -T "DATE=%year%" -T "TRACKNUMBER=%tracknr%" -T "GENRE=%genre%" -T "PERFORMER=%albuminterpret%" -T "COMPOSER=%composer%" %haslyrics%–tag-from-file=LYRICS="%lyricsfile%"%haslyrics% -T "ALBUMARTIST=%albumartist%" -T "DISCNUMBER=%cdnumber%" -T "TOTALDISCS=%totalcds%" -T "TOTALTRACKS=%numtracks%" -T "COMMENT=%comment%" %source% -o %dest%


TOC of the extracted CD

Track | Start | Length | Start sector | End sector
––––––––––––––––––––––––––––-
1 | 0:00.00 | 3:11.44 | 0 | 14368
2 | 3:11.44 | 2:30.72 | 14369 | 25690
3 | 5:42.41 | 2:08.62 | 25691 | 35352
4 | 7:51.28 | 6:25.02 | 35353 | 64229
5 | 14:16.30 | 4:06.29 | 64230 | 82708
6 | 18:22.59 | 2:18.15 | 82709 | 93073
7 | 20:40.74 | 2:23.14 | 93074 | 103812
8 | 23:04.13 | 3:07.11 | 103813 | 117848
9 | 26:11.24 | 4:29.68 | 117849 | 138091
10 | 30:41.17 | 4:10.27 | 138092 | 156868
11 | 34:51.44 | 3:32.48 | 156869 | 172816
12 | 38:24.17 | 3:02.34 | 172817 | 186500
13 | 41:26.51 | 2:24.52 | 186501 | 197352
14 | 43:51.28 | 3:39.25 | 197353 | 213802
15 | 47:30.53 | 2:23.21 | 213803 | 224548
16 | 49:53.74 | 3:00.62 | 224549 | 238110
17 | 52:54.61 | 4:03.19 | 238111 | 256354


Track 1

Filename Z:\FLAC archives\Black Box Recorder - Life Is Unfair (2018) [CD FLAC]\Black Box Recorder - BBREXIT\01 - The Facts Of Life (Single Version).wav

Pre-gap length 0:00:02.00

Peak level 97.7 %
Extraction speed 0.8 X
Track quality 99.9 %
Test CRC AB2E1C29
Copy CRC AB2E1C29
Track not present in AccurateRip database
Copy OK

Track 2

Filename Z:\FLAC archives\Black Box Recorder - Life Is Unfair (2018) [CD FLAC]\Black Box Recorder - BBREXIT\02 - Start As You Mean To Go On.wav

Pre-gap length 0:00:01.00

Peak level 97.7 %
Extraction speed 1.0 X
Track quality 100.0 %
Test CRC 547C60F4
Copy CRC 547C60F4
Track not present in AccurateRip database
Copy OK

Track 3

Filename Z:\FLAC archives\Black Box Recorder - Life Is Unfair (2018) [CD FLAC]\Black Box Recorder - BBREXIT\03 - Soul Boy.wav

Pre-gap length 0:00:01.00

Peak level 97.7 %
Extraction speed 0.8 X
Track quality 99.9 %
Test CRC 1E42A3FC
Copy CRC 1E42A3FC
Track not present in AccurateRip database
Copy OK

Track 4

Filename Z:\FLAC archives\Black Box Recorder - Life Is Unfair (2018) [CD FLAC]\Black Box Recorder - BBREXIT\04 - The Facts Of Life (Chocolate Layers Remix).wav

Pre-gap length 0:00:01.00

Peak level 97.7 %
Extraction speed 1.3 X
Track quality 100.0 %
Test CRC EACE94AC
Copy CRC EACE94AC
Track not present in AccurateRip database
Copy OK

Track 5

Filename Z:\FLAC archives\Black Box Recorder - Life Is Unfair (2018) [CD FLAC]\Black Box Recorder - BBREXIT\05 - Uptown Top Ranking.wav

Pre-gap length 0:00:01.00

Peak level 98.1 %
Extraction speed 1.4 X
Track quality 100.0 %
Test CRC 350937C9
Copy CRC 350937C9
Track not present in AccurateRip database
Copy OK

Track 6

Filename Z:\FLAC archives\Black Box Recorder - Life Is Unfair (2018) [CD FLAC]\Black Box Recorder - BBREXIT\06 - Brutality.wav

Pre-gap length 0:00:01.00

Peak level 97.7 %
Extraction speed 1.3 X
Track quality 100.0 %
Test CRC 7F0D9191
Copy CRC 7F0D9191
Track not present in AccurateRip database
Copy OK

Track 7

Filename Z:\FLAC archives\Black Box Recorder - Life Is Unfair (2018) [CD FLAC]\Black Box Recorder - BBREXIT\07 - Watch The Angel Not The Wire.wav

Pre-gap length 0:00:01.00

Peak level 97.7 %
Extraction speed 1.4 X
Track quality 100.0 %
Test CRC 7772F098
Copy CRC 7772F098
Track not present in AccurateRip database
Copy OK

Track 8

Filename Z:\FLAC archives\Black Box Recorder - Life Is Unfair (2018) [CD FLAC]\Black Box Recorder - BBREXIT\08 - Rock 'n' Roll Suicide (BBC Session).wav

Pre-gap length 0:00:01.00

Peak level 97.7 %
Extraction speed 1.5 X
Track quality 100.0 %
Test CRC 0F922D2E
Copy CRC 0F922D2E
Track not present in AccurateRip database
Copy OK

Track 9

Filename Z:\FLAC archives\Black Box Recorder - Life Is Unfair (2018) [CD FLAC]\Black Box Recorder - BBREXIT\09 - The Art Of Driving (BBC Session).wav

Pre-gap length 0:00:01.00

Peak level 97.7 %
Extraction speed 1.5 X
Track quality 99.9 %
Test CRC 4677AA51
Copy CRC 4677AA51
Track not present in AccurateRip database
Copy OK

Track 10

Filename Z:\FLAC archives\Black Box Recorder - Life Is Unfair (2018) [CD FLAC]\Black Box Recorder - BBREXIT\10 - Straight Life (BBC Session).wav

Pre-gap length 0:00:01.00

Peak level 97.7 %
Extraction speed 1.7 X
Track quality 100.0 %
Test CRC B5826121
Copy CRC B5826121
Track not present in AccurateRip database
Copy OK

Track 11

Filename Z:\FLAC archives\Black Box Recorder - Life Is Unfair (2018) [CD FLAC]\Black Box Recorder - BBREXIT\11 - Goodnight Kiss (BBC Session).wav

Pre-gap length 0:00:01.00

Peak level 97.7 %
Extraction speed 1.8 X
Track quality 100.0 %
Test CRC 81BCB43B
Copy CRC 81BCB43B
Track not present in AccurateRip database
Copy OK

Track 12

Filename Z:\FLAC archives\Black Box Recorder - Life Is Unfair (2018) [CD FLAC]\Black Box Recorder - BBREXIT\12 - Land Of Our Fathers.wav

Pre-gap length 0:00:01.00

Peak level 100.0 %
Extraction speed 1.8 X
Track quality 100.0 %
Test CRC DF0BF2D0
Copy CRC DF0BF2D0
Track not present in AccurateRip database
Copy OK

Track 13

Filename Z:\FLAC archives\Black Box Recorder - Life Is Unfair (2018) [CD FLAC]\Black Box Recorder - BBREXIT\13 - 17 And Deadly.wav

Pre-gap length 0:00:01.00

Peak level 100.0 %
Extraction speed 1.8 X
Track quality 100.0 %
Test CRC C943F7BB
Copy CRC C943F7BB
Track not present in AccurateRip database
Copy OK

Track 14

Filename Z:\FLAC archives\Black Box Recorder - Life Is Unfair (2018) [CD FLAC]\Black Box Recorder - BBREXIT\14 - Passionoia Mega Mix.wav

Pre-gap length 0:00:01.00

Peak level 99.9 %
Extraction speed 1.9 X
Track quality 100.0 %
Test CRC 36DF65A1
Copy CRC 36DF65A1
Track not present in AccurateRip database
Copy OK

Track 15

Filename Z:\FLAC archives\Black Box Recorder - Life Is Unfair (2018) [CD FLAC]\Black Box Recorder - BBREXIT\15 - Lord Lucan Is Missing (Live).wav

Pre-gap length 0:00:01.00

Peak level 99.3 %
Extraction speed 1.8 X
Track quality 100.0 %
Test CRC 51F6F2C7
Copy CRC 51F6F2C7
Track not present in AccurateRip database
Copy OK

Track 16

Filename Z:\FLAC archives\Black Box Recorder - Life Is Unfair (2018) [CD FLAC]\Black Box Recorder - BBREXIT\16 - Keep It In The Family.wav

Pre-gap length 0:00:01.00

Peak level 97.7 %
Extraction speed 2.0 X
Track quality 100.0 %
Test CRC D2F7B12D
Copy CRC D2F7B12D
Track not present in AccurateRip database
Copy OK

Track 17

Filename Z:\FLAC archives\Black Box Recorder - Life Is Unfair (2018) [CD FLAC]\Black Box Recorder - BBREXIT\17 - Do You Believe In God.wav

Pre-gap length 0:00:01.00

Peak level 97.7 %
Extraction speed 2.1 X
Track quality 100.0 %
Test CRC 8AD95BA6
Copy CRC 8AD95BA6
Track not present in AccurateRip database
Copy OK


None of the tracks are present in the AccurateRip database

No errors occurred

End of status report

–– CUETools DB Plugin V2.1.6

[CTDB TOCID: fgmHSLITvzDb63SZWk3rNDBt8h4-] disk not present in database
Submit result: fgmHSLITvzDb63SZWk3rNDBt8h4- has been uploaded


==== Log checksum E03453637EBB92A5D887700666D5BF78B6186C5269F2428229D7BFFE44432492 ====

Thanks to the Original ripper lemmy !