Tags
Language
Tags

Bob Dylan - More Blood, More Tracks: The Bootleg Series Vol. 14 (Deluxe Edition) (6CD) (2018)

Posted By: Domestos
Bob Dylan - More Blood, More Tracks: The Bootleg Series Vol. 14 (Deluxe Edition) (6CD) (2018)

Bob Dylan - More Blood, More Tracks: The Bootleg Series Vol. 14 (Deluxe Edition) (6CD) (2018)
EAC Rip | FLAC (tracks+.cue, log) ~ 1,70 Gb | 04:14:14 | Cover
Folk-Rock | Country: USA | Label: Columbia - 19075858962

Strictly limited Deluxe 6 CD Set Includes every surviving take from Blood On The Tracks, including the complete New York sessions. Features alternate versions of Tangled Up In Blue , Simple Twist Of Fate and Shelter From The Storm Over 70 previously unreleased recordings Bonus hardcover book features original handwritten lyrics, photographs and more The latest chapter in the highly acclaimed Bootleg Series makes available the pivotal studio recordings made by Bob Dylan during six extraordinary sessions in 1974 that resulted in the artist's 1975 masterpiece, Blood On The Tracks. The 6CD full-length deluxe version includes the complete New York sessions in chronological order including outtakes, false starts and studio banter. The album's producers have worked from best sources available, in most cases utilizing the original multi-track session tapes.

The only recordings remaining from the Minneapolis sessions are the multi-track masters of the five performances included on the finished Blood On The Tracks album. Each of these has been remixed and remastered for the deluxe edition. The deluxe box set is a strictly limited edition. The set includes a hardcover photo book featuring liner notes by rock historian Jeff Slate and a complete reproduction of one of Dylan's legendary handwritten 57 page notebooks, where you can follow the lyrical development of the songs that would eventually comprise Blood On The Tracks.



Track List CD1:
01. If You See Her, Say Hello (Take 1) (03:58)
02. If You See Her, Say Hello (Take 2) (03:43)
03. You're a Big Girl Now (Take 1) (05:38)
04. You're a Big Girl Now (Take 2) (04:41)
05. Simple Twist of Fate (Take 1) (04:41)
06. Simple Twist of Fate (Take 2) (05:04)
07. You're a Big Girl Now (Take 3) (04:14)
08. Up to Me (Rehearsal) (00:20)
09. Up to Me (Take 1) (06:04)
10. Lily, Rosemary and the Jack of Hearts (Take 1) (03:15)
11. Lily, Rosemary and the Jack of Hearts (Take 2) (09:48)

Track List CD2:
01. Simple Twist of Fate (Take 1A) (04:57)
02. Simple Twist of Fate (Take 2A) (01:23)
03. Simple Twist of Fate (Take 3A) (04:22)
04. Call Letter Blues (Take 1) (04:42)
05. Meet Me in the Morning (Take 1) (05:43)
06. Call Letter Blues (Take 2) (04:28)
07. Idiot Wind (Take 1) (03:47)
08. Idiot Wind (Take 1, Remake) (05:28)
09. Idiot Wind (Take 3 with insert) (07:11)
10. Idiot Wind (Take 5) (00:29)
11. Idiot Wind (Take 6) (08:51)
12. You're Gonna Make Me Lonesome When You Go (Rehearsal and Take 1) (01:24)
13. You're Gonna Make Me Lonesome When You Go (Take 2) (00:46)
14. You're Gonna Make Me Lonesome When You Go (Take 3) (01:12)
15. You're Gonna Make Me Lonesome When You Go (Take 4) (03:11)
16. You're Gonna Make Me Lonesome When You Go (Take 5) (05:16)
17. You're Gonna Make Me Lonesome When You Go (Take 6) (01:03)
18. You're Gonna Make Me Lonesome When You Go (Take 6, Remake) (00:56)
19. You're Gonna Make Me Lonesome When You Go (Take 7) (00:58)
20. You're Gonna Make Me Lonesome When You Go (Take 8) (03:33)

Track List CD3:
01. Tangled Up in Blue (Take 1) (07:19)
02. You're a Big Girl Now (Take 1, Remake) (04:55)
03. You're a Big Girl Now (Take 2, Remake) (04:23)
04. Tangled Up in Blue (Rehearsal) (00:58)
05. Tangled Up in Blue (Take 2, Remake) (06:38)
06. Spanish Is the Loving Tongue (Take 1) (04:56)
07. Call Letter Blues (Rehearsal) (02:03)
08. You're Gonna Make Me Lonesome When You Go (Take 1, Remake) (03:11)
09. Shelter from the Storm (Take 1) (06:03)
10. Buckets of Rain (Take 1) (02:56)
11. Tangled Up in Blue (Take 3, Remake) (06:43)
12. Buckets of Rain (Take 2) (03:20)
13. Shelter from the Storm (Take 2) (04:38)
14. Shelter from the Storm (Take 3) (02:22)
15. Shelter from the Storm (Take 4) (05:02)

Track List CD4:
01. You're Gonna Make Me Lonesome When You Go (Take 1, Remake 2) (03:42)
02. You're Gonna Make Me Lonesome When You Go (Take 2, Remake 2) (03:25)
03. Buckets of Rain (Take 1, Remake) (03:18)
04. Buckets of Rain (Take 2, Remake) (03:02)
05. Buckets of Rain (Take 3, Remake) (00:53)
06. Buckets of Rain (Take 4, Remake) (02:36)
07. Up to Me (Take 1, Remake) (01:16)
08. Up to Me (Take 2, Remake) (06:47)
09. Buckets of Rain (Take 1, Remake 2) (03:08)
10. Buckets of Rain (Take 2, Remake 2) (01:02)
11. Buckets of Rain (Take 3, Remake 2) (01:54)
12. Buckets of Rain (Take 4, Remake 2) (03:23)
13. If You See Her, Say Hello (Take 1, Remake) (03:25)
14. Up to Me (Take 1, Remake 2) (00:56)
15. Up to Me (Take 2, Remake 2) (06:47)
16. Up to Me (Take 3, Remake 2) (06:37)
17. Buckets of Rain (Rehearsal) (00:53)
18. Meet Me in the Morning (Take 1, Remake) (04:56)
19. Meet Me in the Morning (Take 2, Remake) (04:14)
20. Buckets of Rain (Take 5, Remake 2) (03:27)

Track List CD5:
01. Tangled Up in Blue (Rehearsal and Take 1, Remake 2) (03:08)
02. Tangled Up in Blue (Take 2, Remake 2) (01:31)
03. Tangled Up in Blue (Take 3, Remake 2) (06:50)
04. Simple Twist of Fate (Take 2, Remake) (04:51)
05. Simple Twist of Fate (Take 3, Remake) (04:22)
06. Up to Me (Rehearsal and Take 1, Remake 3) (02:25)
07. Up to Me (Take 2, Remake 3) (06:23)
08. Idiot Wind (Rehearsal and Takes 1-3, Remake) (04:52)
09. Idiot Wind (Take 4, Remake) (09:14)
10. Idiot Wind (Take 4, Remake with organ overdub) (08:52)
11. You're a Big Girl Now (Take 1, Remake 2) (03:06)
12. Meet Me in the Morning (Take 1, Remake 2) (03:51)
13. Meet Me in the Morning (Takes 2-3, Remake 2) (01:42)

Track List CD6:
01. You're a Big Girl Now (Takes 3-6, Remake 2) (02:16)
02. Tangled Up in Blue (Rehearsal and Takes 1-2, Remake 3) (05:09)
03. Tangled Up in Blue (Take 3, Remake 3) (06:31)
04. Idiot Wind (07:53)
05. You're a Big Girl Now (04:38)
06. Tangled up in Blue (05:46)
07. Lily, Rosemary and the Jack of Hearts (08:58)
08. If You See Her, Say Hello (04:44)

Exact Audio Copy V1.3 from 2. September 2016

EAC extraction logfile from 2. November 2018, 13:28

Bob Dylan / More Blood, More Tracks: The Bootleg Series Vol. 14 (Deluxe Edition)

Used drive : PLDS DVD-RW DA8AESH Adapter: 1 ID: 0

Read mode : Secure
Utilize accurate stream : Yes
Defeat audio cache : Yes
Make use of C2 pointers : No

Read offset correction : 6
Overread into Lead-In and Lead-Out : No
Fill up missing offset samples with silence : Yes
Delete leading and trailing silent blocks : No
Null samples used in CRC calculations : Yes
Used interface : Native Win32 interface for Win NT & 2000
Gap handling : Appended to previous track

Used output format : User Defined Encoder
Selected bitrate : 1024 kBit/s
Quality : High
Add ID3 tag : No
Command line compressor : C:\Program Files (x86)\Exact Audio Copy\Flac\flac.exe
Additional command line options : -8 -e -p -V -T "ARTIST=%artist%" -T "TITLE=%title%" -T "ALBUM=%albumtitle%" -T "DATE=%year%" -T "TRACKNUMBER=%tracknr%" -T "GENRE=%genre%" -T "PERFORMER=%albuminterpret%" -T "COMPOSER=%composer%" %haslyrics%–tag-from-file=LYRICS="%lyricsfile%"%haslyrics% -T "ALBUMARTIST=%albumartist%" -T "DISCNUMBER=%cdnumber%" -T "TOTALDISCS=%totalcds%" -T "TOTALTRACKS=%numtracks%" -T "COMMENT=%comment%" %source% -o %dest%


TOC of the extracted CD

Track | Start | Length | Start sector | End sector
––––––––––––––––––––––––––––-
1 | 0:00.00 | 3:58.10 | 0 | 17859
2 | 3:58.10 | 3:43.55 | 17860 | 34639
3 | 7:41.65 | 5:38.16 | 34640 | 60005
4 | 13:20.06 | 4:41.14 | 60006 | 81094
5 | 18:01.20 | 4:41.29 | 81095 | 102198
6 | 22:42.49 | 5:04.61 | 102199 | 125059
7 | 27:47.35 | 4:14.37 | 125060 | 144146
8 | 32:01.72 | 0:20.26 | 144147 | 145672
9 | 32:22.23 | 6:04.03 | 145673 | 172975
10 | 38:26.26 | 3:15.07 | 172976 | 187607
11 | 41:41.33 | 9:48.49 | 187608 | 231756


Track 1

Filename C:\EAC Rips\Bob Dylan - More Blood, More Tracks The Bootleg Series Vol. 14 (Deluxe Edition) (2018) [FLAC]\Disc 1\01 - 1. If You See Her, Say Hello (Take 1).wav

Pre-gap length 0:00:02.00

Peak level 94.6 %
Extraction speed 2.1 X
Track quality 100.0 %
Test CRC 3D2A2B8C
Copy CRC 3D2A2B8C
Track not present in AccurateRip database
Copy OK

Track 2

Filename C:\EAC Rips\Bob Dylan - More Blood, More Tracks The Bootleg Series Vol. 14 (Deluxe Edition) (2018) [FLAC]\Disc 1\02 - 2. If You See Her, Say Hello (Album Version).wav

Peak level 78.4 %
Extraction speed 1.9 X
Track quality 99.9 %
Test CRC 6413D115
Copy CRC 6413D115
Track not present in AccurateRip database
Copy OK

Track 3

Filename C:\EAC Rips\Bob Dylan - More Blood, More Tracks The Bootleg Series Vol. 14 (Deluxe Edition) (2018) [FLAC]\Disc 1\03 - 3. You're a Big Girl Now (Take 1).wav

Peak level 77.7 %
Extraction speed 2.6 X
Track quality 100.0 %
Test CRC DBC71AA2
Copy CRC DBC71AA2
Track not present in AccurateRip database
Copy OK

Track 4

Filename C:\EAC Rips\Bob Dylan - More Blood, More Tracks The Bootleg Series Vol. 14 (Deluxe Edition) (2018) [FLAC]\Disc 1\04 - 4. You're a Big Girl Now (Take 2).wav

Peak level 88.0 %
Extraction speed 2.4 X
Track quality 99.9 %
Test CRC F4DFA053
Copy CRC F4DFA053
Track not present in AccurateRip database
Copy OK

Track 5

Filename C:\EAC Rips\Bob Dylan - More Blood, More Tracks The Bootleg Series Vol. 14 (Deluxe Edition) (2018) [FLAC]\Disc 1\05 - 5. Simple Twist of Fate (Take 1).wav

Peak level 87.2 %
Extraction speed 3.1 X
Track quality 100.0 %
Test CRC C2C52587
Copy CRC C2C52587
Track not present in AccurateRip database
Copy OK

Track 6

Filename C:\EAC Rips\Bob Dylan - More Blood, More Tracks The Bootleg Series Vol. 14 (Deluxe Edition) (2018) [FLAC]\Disc 1\06 - 6. Simple Twist of Fate (Take 2).wav

Peak level 89.2 %
Extraction speed 3.3 X
Track quality 100.0 %
Test CRC 6172FD9F
Copy CRC 6172FD9F
Track not present in AccurateRip database
Copy OK

Track 7

Filename C:\EAC Rips\Bob Dylan - More Blood, More Tracks The Bootleg Series Vol. 14 (Deluxe Edition) (2018) [FLAC]\Disc 1\07 - 7. You're a Big Girl Now (Take 3).wav

Peak level 66.9 %
Extraction speed 3.4 X
Track quality 100.0 %
Test CRC 8AB220FA
Copy CRC 8AB220FA
Track not present in AccurateRip database
Copy OK

Track 8

Filename C:\EAC Rips\Bob Dylan - More Blood, More Tracks The Bootleg Series Vol. 14 (Deluxe Edition) (2018) [FLAC]\Disc 1\08 - 8. Up to Me (Rehearsal).wav

Peak level 45.4 %
Extraction speed 1.3 X
Track quality 100.0 %
Test CRC BA229FDE
Copy CRC BA229FDE
Track not present in AccurateRip database
Copy OK

Track 9

Filename C:\EAC Rips\Bob Dylan - More Blood, More Tracks The Bootleg Series Vol. 14 (Deluxe Edition) (2018) [FLAC]\Disc 1\09 - 9. Up to Me (Take 1).wav

Peak level 75.8 %
Extraction speed 3.7 X
Track quality 100.0 %
Test CRC 45997454
Copy CRC 45997454
Track not present in AccurateRip database
Copy OK

Track 10

Filename C:\EAC Rips\Bob Dylan - More Blood, More Tracks The Bootleg Series Vol. 14 (Deluxe Edition) (2018) [FLAC]\Disc 1\10 - 10. Lily, Rosemary and the Jack of Hearts (Take 1).wav

Peak level 77.2 %
Extraction speed 3.6 X
Track quality 100.0 %
Test CRC C708BDC0
Copy CRC C708BDC0
Track not present in AccurateRip database
Copy OK

Track 11

Filename C:\EAC Rips\Bob Dylan - More Blood, More Tracks The Bootleg Series Vol. 14 (Deluxe Edition) (2018) [FLAC]\Disc 1\11 - 11. Lily, Rosemary and the Jack of Hearts (Take 2).wav

Peak level 82.4 %
Extraction speed 3.9 X
Track quality 99.9 %
Test CRC 0240CF88
Copy CRC 0240CF88
Track not present in AccurateRip database
Copy OK


None of the tracks are present in the AccurateRip database

No errors occurred

End of status report

–– CUETools DB Plugin V2.1.6

[CTDB TOCID: 4U2StBtHMwUFwYHgizI.lRFIDpg-] found
Submit result: 4U2StBtHMwUFwYHgizI.lRFIDpg- has been confirmed
Track | CTDB Status
1 | (16/16) Accurately ripped
2 | (16/16) Accurately ripped
3 | (16/16) Accurately ripped
4 | (16/16) Accurately ripped
5 | (16/16) Accurately ripped
6 | (16/16) Accurately ripped
7 | (16/16) Accurately ripped
8 | (16/16) Accurately ripped
9 | (16/16) Accurately ripped
10 | (16/16) Accurately ripped
11 | (16/16) Accurately ripped


==== Log checksum 29EC1EC6B5DDBF56C41E01C86800B28E0D7BBF2A1DC9ED4BFDD6251639CA6FC2 ====

Exact Audio Copy V1.3 from 2. September 2016

EAC extraction logfile from 2. November 2018, 15:03

Bob Dylan / More Blood, More Tracks The Bootleg Series Vol. 14 (Deluxe Edition)

Used drive : PLDS DVD-RW DA8AESH Adapter: 1 ID: 0

Read mode : Secure
Utilize accurate stream : Yes
Defeat audio cache : Yes
Make use of C2 pointers : No

Read offset correction : 6
Overread into Lead-In and Lead-Out : No
Fill up missing offset samples with silence : Yes
Delete leading and trailing silent blocks : No
Null samples used in CRC calculations : Yes
Used interface : Native Win32 interface for Win NT & 2000
Gap handling : Appended to previous track

Used output format : User Defined Encoder
Selected bitrate : 1024 kBit/s
Quality : High
Add ID3 tag : No
Command line compressor : C:\Program Files (x86)\Exact Audio Copy\Flac\flac.exe
Additional command line options : -8 -e -p -V -T "ARTIST=%artist%" -T "TITLE=%title%" -T "ALBUM=%albumtitle%" -T "DATE=%year%" -T "TRACKNUMBER=%tracknr%" -T "GENRE=%genre%" -T "PERFORMER=%albuminterpret%" -T "COMPOSER=%composer%" %haslyrics%–tag-from-file=LYRICS="%lyricsfile%"%haslyrics% -T "ALBUMARTIST=%albumartist%" -T "DISCNUMBER=%cdnumber%" -T "TOTALDISCS=%totalcds%" -T "TOTALTRACKS=%numtracks%" -T "COMMENT=%comment%" %source% -o %dest%


TOC of the extracted CD

Track | Start | Length | Start sector | End sector
––––––––––––––––––––––––––––-
1 | 0:00.00 | 4:57.57 | 0 | 22331
2 | 4:57.57 | 1:23.56 | 22332 | 28612
3 | 6:21.38 | 4:22.33 | 28613 | 48295
4 | 10:43.71 | 4:42.35 | 48296 | 69480
5 | 15:26.31 | 5:43.22 | 69481 | 95227
6 | 21:09.53 | 4:28.62 | 95228 | 115389
7 | 25:38.40 | 3:47.71 | 115390 | 132485
8 | 29:26.36 | 5:28.48 | 132486 | 157133
9 | 34:55.09 | 7:11.33 | 157134 | 189491
10 | 42:06.42 | 0:29.41 | 189492 | 191707
11 | 42:36.08 | 8:51.40 | 191708 | 231572
12 | 51:27.48 | 1:24.72 | 231573 | 237944
13 | 52:52.45 | 0:46.31 | 237945 | 241425
14 | 53:39.01 | 1:12.43 | 241426 | 246868
15 | 54:51.44 | 3:11.49 | 246869 | 261242
16 | 58:03.18 | 5:16.21 | 261243 | 284963
17 | 63:19.39 | 1:03.06 | 284964 | 289694
18 | 64:22.45 | 0:56.44 | 289695 | 293938
19 | 65:19.14 | 0:58.73 | 293939 | 298361
20 | 66:18.12 | 3:33.08 | 298362 | 314344


Track 1

Filename C:\EAC Rips\Bob Dylan - More Blood, More Tracks The Bootleg Series Vol. 14 (Deluxe Edition) (2018) [FLAC]\Disc 2\01 - Simple Twist of Fate (Take 1A) - with band.wav

Pre-gap length 0:00:02.00

Peak level 90.7 %
Extraction speed 1.3 X
Track quality 100.0 %
Test CRC CE4BE4A9
Copy CRC CE4BE4A9
Track not present in AccurateRip database
Copy OK

Track 2

Filename C:\EAC Rips\Bob Dylan - More Blood, More Tracks The Bootleg Series Vol. 14 (Deluxe Edition) (2018) [FLAC]\Disc 2\02 - Simple Twist of Fate (Take 2A) - with band.wav

Peak level 86.1 %
Extraction speed 1.0 X
Track quality 100.0 %
Test CRC F7B2D2DC
Copy CRC F7B2D2DC
Track not present in AccurateRip database
Copy OK

Track 3

Filename C:\EAC Rips\Bob Dylan - More Blood, More Tracks The Bootleg Series Vol. 14 (Deluxe Edition) (2018) [FLAC]\Disc 2\03 - Simple Twist of Fate (Take 3A) - with band.wav

Peak level 84.0 %
Extraction speed 1.4 X
Track quality 100.0 %
Test CRC 627011B2
Copy CRC 627011B2
Track not present in AccurateRip database
Copy OK

Track 4

Filename C:\EAC Rips\Bob Dylan - More Blood, More Tracks The Bootleg Series Vol. 14 (Deluxe Edition) (2018) [FLAC]\Disc 2\04 - Call Letter Blues (Take 1) - with band.wav

Peak level 85.1 %
Extraction speed 1.6 X
Track quality 100.0 %
Test CRC BE4FBAE1
Copy CRC BE4FBAE1
Track not present in AccurateRip database
Copy OK

Track 5

Filename C:\EAC Rips\Bob Dylan - More Blood, More Tracks The Bootleg Series Vol. 14 (Deluxe Edition) (2018) [FLAC]\Disc 2\05 - Meet Me in the Morning (Take 1) - with band.wav

Peak level 79.8 %
Extraction speed 1.6 X
Track quality 99.9 %
Test CRC B1DE859D
Copy CRC B1DE859D
Track not present in AccurateRip database
Copy OK

Track 6

Filename C:\EAC Rips\Bob Dylan - More Blood, More Tracks The Bootleg Series Vol. 14 (Deluxe Edition) (2018) [FLAC]\Disc 2\06 - Call Letter Blues (Take 2) - with band.wav

Peak level 79.3 %
Extraction speed 1.8 X
Track quality 100.0 %
Test CRC B444CEBC
Copy CRC B444CEBC
Track not present in AccurateRip database
Copy OK

Track 7

Filename C:\EAC Rips\Bob Dylan - More Blood, More Tracks The Bootleg Series Vol. 14 (Deluxe Edition) (2018) [FLAC]\Disc 2\07 - Idiot Wind (Take 1) - with bass.wav

Peak level 89.0 %
Extraction speed 1.8 X
Track quality 100.0 %
Test CRC AA984007
Copy CRC AA984007
Track not present in AccurateRip database
Copy OK

Track 8

Filename C:\EAC Rips\Bob Dylan - More Blood, More Tracks The Bootleg Series Vol. 14 (Deluxe Edition) (2018) [FLAC]\Disc 2\08 - Idiot Wind (Take 1, Remake) - with bass.wav

Peak level 79.5 %
Extraction speed 1.8 X
Track quality 99.9 %
Test CRC 0DC9B918
Copy CRC 0DC9B918
Track not present in AccurateRip database
Copy OK

Track 9

Filename C:\EAC Rips\Bob Dylan - More Blood, More Tracks The Bootleg Series Vol. 14 (Deluxe Edition) (2018) [FLAC]\Disc 2\09 - Idiot Wind (Take 3, with insert) - with bass.wav

Peak level 75.4 %
Extraction speed 2.2 X
Track quality 100.0 %
Test CRC D9F70A4A
Copy CRC D9F70A4A
Track not present in AccurateRip database
Copy OK

Track 10

Filename C:\EAC Rips\Bob Dylan - More Blood, More Tracks The Bootleg Series Vol. 14 (Deluxe Edition) (2018) [FLAC]\Disc 2\10 - Idiot Wind (Take 5) - with bass.wav

Peak level 38.5 %
Extraction speed 0.6 X
Track quality 99.6 %
Test CRC 1ADE931A
Copy CRC 1ADE931A
Track not present in AccurateRip database
Copy OK

Track 11

Filename C:\EAC Rips\Bob Dylan - More Blood, More Tracks The Bootleg Series Vol. 14 (Deluxe Edition) (2018) [FLAC]\Disc 2\11 - Idiot Wind (Take 6) - with bass.wav

Peak level 85.3 %
Extraction speed 2.3 X
Track quality 99.9 %
Test CRC D6C25523
Copy CRC D6C25523
Track not present in AccurateRip database
Copy OK

Track 12

Filename C:\EAC Rips\Bob Dylan - More Blood, More Tracks The Bootleg Series Vol. 14 (Deluxe Edition) (2018) [FLAC]\Disc 2\12 - You're Gonna Make Me Lonesome When You Go (Rehearsal and Take 1) - with band.wav

Peak level 88.8 %
Extraction speed 1.4 X
Track quality 99.8 %
Test CRC 22C87B0F
Copy CRC 22C87B0F
Track not present in AccurateRip database
Copy OK

Track 13

Filename C:\EAC Rips\Bob Dylan - More Blood, More Tracks The Bootleg Series Vol. 14 (Deluxe Edition) (2018) [FLAC]\Disc 2\13 - You're Gonna Make Me Lonesome When You Go (Take 2) - with band.wav

Peak level 87.2 %
Extraction speed 1.4 X
Track quality 100.0 %
Test CRC 17F9C0A9
Copy CRC 17F9C0A9
Track not present in AccurateRip database
Copy OK

Track 14

Filename C:\EAC Rips\Bob Dylan - More Blood, More Tracks The Bootleg Series Vol. 14 (Deluxe Edition) (2018) [FLAC]\Disc 2\14 - You're Gonna Make Me Lonesome When You Go (Take 3) - with band.wav

Peak level 69.9 %
Extraction speed 1.7 X
Track quality 100.0 %
Test CRC 3FFBE67B
Copy CRC 3FFBE67B
Track not present in AccurateRip database
Copy OK

Track 15

Filename C:\EAC Rips\Bob Dylan - More Blood, More Tracks The Bootleg Series Vol. 14 (Deluxe Edition) (2018) [FLAC]\Disc 2\15 - You're Gonna Make Me Loneseome When You Go (Take 4) - with bass.wav

Peak level 76.1 %
Extraction speed 2.3 X
Track quality 100.0 %
Test CRC 0E26E6CF
Copy CRC 0E26E6CF
Track not present in AccurateRip database
Copy OK

Track 16

Filename C:\EAC Rips\Bob Dylan - More Blood, More Tracks The Bootleg Series Vol. 14 (Deluxe Edition) (2018) [FLAC]\Disc 2\16 - You're Gonna Make Me Lonesome When You Go (Take 5) - with band.wav

Peak level 89.7 %
Extraction speed 2.5 X
Track quality 100.0 %
Test CRC 8681337F
Copy CRC 8681337F
Track not present in AccurateRip database
Copy OK

Track 17

Filename C:\EAC Rips\Bob Dylan - More Blood, More Tracks The Bootleg Series Vol. 14 (Deluxe Edition) (2018) [FLAC]\Disc 2\17 - You're Gonna Make Me Lonesome When You Go (Take 6) - with band.wav

Peak level 84.4 %
Extraction speed 1.3 X
Track quality 99.8 %
Test CRC 52164BBF
Copy CRC 52164BBF
Track not present in AccurateRip database
Copy OK

Track 18

Filename C:\EAC Rips\Bob Dylan - More Blood, More Tracks The Bootleg Series Vol. 14 (Deluxe Edition) (2018) [FLAC]\Disc 2\18 - You're Gonna Make Me Lonesome When You Go (Take 6, Remake) - with band.wav

Peak level 74.5 %
Extraction speed 1.7 X
Track quality 100.0 %
Test CRC 313B76CD
Copy CRC 313B76CD
Track not present in AccurateRip database
Copy OK

Track 19

Filename C:\EAC Rips\Bob Dylan - More Blood, More Tracks The Bootleg Series Vol. 14 (Deluxe Edition) (2018) [FLAC]\Disc 2\19 - You're Gonna Make Me Lonesome When You Go (Take 7) - with band.wav

Peak level 71.0 %
Extraction speed 1.7 X
Track quality 100.0 %
Test CRC 63ED740B
Copy CRC 63ED740B
Track not present in AccurateRip database
Copy OK

Track 20

Filename C:\EAC Rips\Bob Dylan - More Blood, More Tracks The Bootleg Series Vol. 14 (Deluxe Edition) (2018) [FLAC]\Disc 2\20 - You're Gonna Make Me Lonesome When You Go (Take 8) - with band.wav

Peak level 85.1 %
Extraction speed 2.1 X
Track quality 99.9 %
Test CRC 3C895548
Copy CRC 3C895548
Track not present in AccurateRip database
Copy OK


None of the tracks are present in the AccurateRip database

No errors occurred

End of status report

–– CUETools DB Plugin V2.1.6

[CTDB TOCID: Z2PThCSvIQ42xYlDWpzl5pi.6y8-] found
Submit result: Z2PThCSvIQ42xYlDWpzl5pi.6y8- has been confirmed
Track | CTDB Status
1 | (16/16) Accurately ripped
2 | (16/16) Accurately ripped
3 | (16/16) Accurately ripped
4 | (16/16) Accurately ripped
5 | (16/16) Accurately ripped
6 | (16/16) Accurately ripped
7 | (16/16) Accurately ripped
8 | (16/16) Accurately ripped
9 | (16/16) Accurately ripped
10 | (16/16) Accurately ripped
11 | (16/16) Accurately ripped
12 | (16/16) Accurately ripped
13 | (16/16) Accurately ripped
14 | (16/16) Accurately ripped
15 | (16/16) Accurately ripped
16 | (16/16) Accurately ripped
17 | (16/16) Accurately ripped
18 | (16/16) Accurately ripped
19 | (16/16) Accurately ripped
20 | (16/16) Accurately ripped


==== Log checksum FFAE4D0EB7CF980485FBED40AFFE1CE8CCDDA2AD8C2FAEA2591E014F893A2E15 ====

Exact Audio Copy V1.3 from 2. September 2016

EAC extraction logfile from 2. November 2018, 16:36

Bob Dylan / More Blood, More Tracks The Bootleg Series Vol. 14 (Deluxe Edition)

Used drive : PLDS DVD-RW DA8AESH Adapter: 1 ID: 0

Read mode : Secure
Utilize accurate stream : Yes
Defeat audio cache : Yes
Make use of C2 pointers : No

Read offset correction : 6
Overread into Lead-In and Lead-Out : No
Fill up missing offset samples with silence : Yes
Delete leading and trailing silent blocks : No
Null samples used in CRC calculations : Yes
Used interface : Native Win32 interface for Win NT & 2000
Gap handling : Appended to previous track

Used output format : User Defined Encoder
Selected bitrate : 1024 kBit/s
Quality : High
Add ID3 tag : No
Command line compressor : C:\Program Files (x86)\Exact Audio Copy\Flac\flac.exe
Additional command line options : -8 -e -p -V -T "ARTIST=%artist%" -T "TITLE=%title%" -T "ALBUM=%albumtitle%" -T "DATE=%year%" -T "TRACKNUMBER=%tracknr%" -T "GENRE=%genre%" -T "PERFORMER=%albuminterpret%" -T "COMPOSER=%composer%" %haslyrics%–tag-from-file=LYRICS="%lyricsfile%"%haslyrics% -T "ALBUMARTIST=%albumartist%" -T "DISCNUMBER=%cdnumber%" -T "TOTALDISCS=%totalcds%" -T "TOTALTRACKS=%numtracks%" -T "COMMENT=%comment%" %source% -o %dest%


TOC of the extracted CD

Track | Start | Length | Start sector | End sector
––––––––––––––––––––––––––––-
1 | 0:00.00 | 7:19.09 | 0 | 32933
2 | 7:19.09 | 4:55.05 | 32934 | 55063
3 | 12:14.14 | 4:23.30 | 55064 | 74818
4 | 16:37.44 | 0:58.55 | 74819 | 79223
5 | 17:36.24 | 6:38.36 | 79224 | 109109
6 | 24:14.60 | 4:56.36 | 109110 | 131345
7 | 29:11.21 | 2:03.36 | 131346 | 140606
8 | 31:14.57 | 3:11.29 | 140607 | 154960
9 | 34:26.11 | 6:03.33 | 154961 | 182218
10 | 40:29.44 | 2:56.41 | 182219 | 195459
11 | 43:26.10 | 6:43.49 | 195460 | 225733
12 | 50:09.59 | 3:20.30 | 225734 | 240763
13 | 53:30.14 | 4:38.54 | 240764 | 261667
14 | 58:08.68 | 2:22.41 | 261668 | 272358
15 | 60:31.34 | 5:02.20 | 272359 | 295028


Track 1

Filename C:\EAC Rips\Bob Dylan - More Blood, More Tracks The Bootleg Series Vol. 14 (Deluxe Edition) (2018) [FLAC]\Disc 3\01 - Tangled Up in Blue (Take 1) - Bass.wav

Pre-gap length 0:00:02.00

Peak level 86.6 %
Extraction speed 1.3 X
Track quality 100.0 %
Test CRC 6A3724B6
Copy CRC 6A3724B6
Track not present in AccurateRip database
Copy OK

Track 2

Filename C:\EAC Rips\Bob Dylan - More Blood, More Tracks The Bootleg Series Vol. 14 (Deluxe Edition) (2018) [FLAC]\Disc 3\02 - You're a Big Girl Now (Take 1, Remake) - with bass and organ.wav

Peak level 77.2 %
Extraction speed 1.4 X
Track quality 100.0 %
Test CRC B3F5F1C6
Copy CRC B3F5F1C6
Track not present in AccurateRip database
Copy OK

Track 3

Filename C:\EAC Rips\Bob Dylan - More Blood, More Tracks The Bootleg Series Vol. 14 (Deluxe Edition) (2018) [FLAC]\Disc 3\03 - You're a Big Girl Now (Take 2, Remake) - with bass, organ, and steel guitar.wav

Peak level 84.4 %
Extraction speed 1.5 X
Track quality 100.0 %
Test CRC F2880376
Copy CRC F2880376
Track not present in AccurateRip database
Copy OK

Track 4

Filename C:\EAC Rips\Bob Dylan - More Blood, More Tracks The Bootleg Series Vol. 14 (Deluxe Edition) (2018) [FLAC]\Disc 3\04 - Tangled Up in Blue (Rehearsal) - with bass and organ.wav

Peak level 41.8 %
Extraction speed 0.8 X
Track quality 99.8 %
Test CRC EEC983D3
Copy CRC EEC983D3
Track not present in AccurateRip database
Copy OK

Track 5

Filename C:\EAC Rips\Bob Dylan - More Blood, More Tracks The Bootleg Series Vol. 14 (Deluxe Edition) (2018) [FLAC]\Disc 3\05 - Tangled Up in Blue (Take 2, Remake) - with bass and organ.wav

Peak level 73.9 %
Extraction speed 1.7 X
Track quality 100.0 %
Test CRC 136EDCDF
Copy CRC 136EDCDF
Track not present in AccurateRip database
Copy OK

Track 6

Filename C:\EAC Rips\Bob Dylan - More Blood, More Tracks The Bootleg Series Vol. 14 (Deluxe Edition) (2018) [FLAC]\Disc 3\06 - Spanish Is the Loving Tongue (Take 1) - with bass and piano.wav

Peak level 82.8 %
Extraction speed 1.6 X
Track quality 99.9 %
Test CRC EF7F01DE
Copy CRC EF7F01DE
Track not present in AccurateRip database
Copy OK

Track 7

Filename C:\EAC Rips\Bob Dylan - More Blood, More Tracks The Bootleg Series Vol. 14 (Deluxe Edition) (2018) [FLAC]\Disc 3\07 - Call Letter Blues (Rehearsal) - with bass and piano.wav

Peak level 90.5 %
Extraction speed 1.3 X
Track quality 99.9 %
Test CRC 32C0D713
Copy CRC 32C0D713
Track not present in AccurateRip database
Copy OK

Track 8

Filename C:\EAC Rips\Bob Dylan - More Blood, More Tracks The Bootleg Series Vol. 14 (Deluxe Edition) (2018) [FLAC]\Disc 3\08 - You're Gonna Make Me Lonesome When You Go (Take 1, Remake) - with bass and piano.wav

Peak level 84.0 %
Extraction speed 1.8 X
Track quality 100.0 %
Test CRC 02F98AA4
Copy CRC 02F98AA4
Track not present in AccurateRip database
Copy OK

Track 9

Filename C:\EAC Rips\Bob Dylan - More Blood, More Tracks The Bootleg Series Vol. 14 (Deluxe Edition) (2018) [FLAC]\Disc 3\09 - Shelter from the Storm (Take 1) - with bass and piano.wav

Peak level 77.8 %
Extraction speed 2.1 X
Track quality 100.0 %
Test CRC 84AB8476
Copy CRC 84AB8476
Track not present in AccurateRip database
Copy OK

Track 10

Filename C:\EAC Rips\Bob Dylan - More Blood, More Tracks The Bootleg Series Vol. 14 (Deluxe Edition) (2018) [FLAC]\Disc 3\10 - Buckets of Rain (Take 1) - with bass.wav

Peak level 56.7 %
Extraction speed 1.9 X
Track quality 100.0 %
Test CRC D0C42F4F
Copy CRC D0C42F4F
Track not present in AccurateRip database
Copy OK

Track 11

Filename C:\EAC Rips\Bob Dylan - More Blood, More Tracks The Bootleg Series Vol. 14 (Deluxe Edition) (2018) [FLAC]\Disc 3\11 - Tangled Up in Blue (Take 3, Remake) - with bass.wav

Peak level 74.9 %
Extraction speed 2.3 X
Track quality 100.0 %
Test CRC 2C1E9E44
Copy CRC 2C1E9E44
Track not present in AccurateRip database
Copy OK

Track 12

Filename C:\EAC Rips\Bob Dylan - More Blood, More Tracks The Bootleg Series Vol. 14 (Deluxe Edition) (2018) [FLAC]\Disc 3\12 - Buckets of Rain (Take 2) - with bass.wav

Peak level 77.9 %
Extraction speed 2.1 X
Track quality 100.0 %
Test CRC B2C43A32
Copy CRC B2C43A32
Track not present in AccurateRip database
Copy OK

Track 13

Filename C:\EAC Rips\Bob Dylan - More Blood, More Tracks The Bootleg Series Vol. 14 (Deluxe Edition) (2018) [FLAC]\Disc 3\13 - Shelter from the Storm (Take 2) - with bass.wav

Peak level 76.8 %
Extraction speed 2.3 X
Track quality 100.0 %
Test CRC 53BF5A84
Copy CRC 53BF5A84
Track not present in AccurateRip database
Copy OK

Track 14

Filename C:\EAC Rips\Bob Dylan - More Blood, More Tracks The Bootleg Series Vol. 14 (Deluxe Edition) (2018) [FLAC]\Disc 3\14 - Shelter from the Storm (Take 3) - with bass.wav

Peak level 65.9 %
Extraction speed 2.1 X
Track quality 100.0 %
Test CRC 1D8E1071
Copy CRC 1D8E1071
Track not present in AccurateRip database
Copy OK

Track 15

Filename C:\EAC Rips\Bob Dylan - More Blood, More Tracks The Bootleg Series Vol. 14 (Deluxe Edition) (2018) [FLAC]\Disc 3\15 - Shelter from the Storm (Take 4) - with bass.wav

Peak level 74.2 %
Extraction speed 2.4 X
Track quality 100.0 %
Test CRC 7AD47751
Copy CRC 7AD47751
Track not present in AccurateRip database
Copy OK


None of the tracks are present in the AccurateRip database

No errors occurred

End of status report

–– CUETools DB Plugin V2.1.6

[CTDB TOCID: EReNBWmAHgHk8Q3S43cJ3XxokWM-] found
Submit result: EReNBWmAHgHk8Q3S43cJ3XxokWM- has been confirmed
Track | CTDB Status
1 | (15/15) Accurately ripped
2 | (15/15) Accurately ripped
3 | (15/15) Accurately ripped
4 | (15/15) Accurately ripped
5 | (15/15) Accurately ripped
6 | (15/15) Accurately ripped
7 | (15/15) Accurately ripped
8 | (15/15) Accurately ripped
9 | (15/15) Accurately ripped
10 | (15/15) Accurately ripped
11 | (15/15) Accurately ripped
12 | (15/15) Accurately ripped
13 | (15/15) Accurately ripped
14 | (15/15) Accurately ripped
15 | (15/15) Accurately ripped


==== Log checksum 42139571D52EF01C4EB1FF646BDC0409094E4401BD97BDBE1281EBB35BE8CD57 ====

Exact Audio Copy V1.3 from 2. September 2016

EAC extraction logfile from 2. November 2018, 18:25

Bob Dylan / More Blood, More Tracks The Bootleg Series Vol. 14 (Deluxe Edition)

Used drive : PLDS DVD-RW DA8AESH Adapter: 1 ID: 0

Read mode : Secure
Utilize accurate stream : Yes
Defeat audio cache : Yes
Make use of C2 pointers : No

Read offset correction : 6
Overread into Lead-In and Lead-Out : No
Fill up missing offset samples with silence : Yes
Delete leading and trailing silent blocks : No
Null samples used in CRC calculations : Yes
Used interface : Native Win32 interface for Win NT & 2000
Gap handling : Appended to previous track

Used output format : User Defined Encoder
Selected bitrate : 1024 kBit/s
Quality : High
Add ID3 tag : No
Command line compressor : C:\Program Files (x86)\Exact Audio Copy\Flac\flac.exe
Additional command line options : -8 -e -p -V -T "ARTIST=%artist%" -T "TITLE=%title%" -T "ALBUM=%albumtitle%" -T "DATE=%year%" -T "TRACKNUMBER=%tracknr%" -T "GENRE=%genre%" -T "PERFORMER=%albuminterpret%" -T "COMPOSER=%composer%" %haslyrics%–tag-from-file=LYRICS="%lyricsfile%"%haslyrics% -T "ALBUMARTIST=%albumartist%" -T "DISCNUMBER=%cdnumber%" -T "TOTALDISCS=%totalcds%" -T "TOTALTRACKS=%numtracks%" -T "COMMENT=%comment%" %source% -o %dest%


TOC of the extracted CD

Track | Start | Length | Start sector | End sector
––––––––––––––––––––––––––––-
1 | 0:00.00 | 3:42.44 | 0 | 16693
2 | 3:42.44 | 3:25.37 | 16694 | 32105
3 | 7:08.06 | 3:18.42 | 32106 | 46997
4 | 10:26.48 | 3:02.42 | 46998 | 60689
5 | 13:29.15 | 0:53.04 | 60690 | 64668
6 | 14:22.19 | 2:36.59 | 64669 | 76427
7 | 16:59.03 | 1:16.54 | 76428 | 82181
8 | 18:15.57 | 6:47.68 | 82182 | 112774
9 | 25:03.50 | 3:08.20 | 112775 | 126894
10 | 28:11.70 | 1:02.53 | 126895 | 131597
11 | 29:14.48 | 1:54.56 | 131598 | 140203
12 | 31:09.29 | 3:23.27 | 140204 | 155455
13 | 34:32.56 | 3:25.64 | 155456 | 170894
14 | 37:58.45 | 0:56.46 | 170895 | 175140
15 | 38:55.16 | 6:47.58 | 175141 | 205723
16 | 45:42.74 | 6:37.69 | 205724 | 235567
17 | 52:20.68 | 0:53.09 | 235568 | 239551
18 | 53:14.02 | 4:56.72 | 239552 | 261823
19 | 58:10.74 | 4:14.54 | 261824 | 280927
20 | 62:25.53 | 3:27.20 | 280928 | 296472


Track 1

Filename C:\EAC Rips\Bob Dylan - More Blood, More Tracks The Bootleg Series Vol. 14 (Deluxe Edition) (2018) [FLAC]\Disc 4\01 - 1. You're Gonna Make Me Lonesome When You Go (Take 1, Remake 2).wav

Pre-gap length 0:00:02.00

Peak level 65.7 %
Extraction speed 1.1 X
Track quality 100.0 %
Test CRC 256A2B0F
Copy CRC 256A2B0F
Track not present in AccurateRip database
Copy OK

Track 2

Filename C:\EAC Rips\Bob Dylan - More Blood, More Tracks The Bootleg Series Vol. 14 (Deluxe Edition) (2018) [FLAC]\Disc 4\02 - 2. You're Gonna Make Me Lonesome When You Go (Take 2, Remake 2).wav

Peak level 61.3 %
Extraction speed 1.0 X
Track quality 99.9 %
Test CRC F7C74A12
Copy CRC F7C74A12
Track not present in AccurateRip database
Copy OK

Track 3

Filename C:\EAC Rips\Bob Dylan - More Blood, More Tracks The Bootleg Series Vol. 14 (Deluxe Edition) (2018) [FLAC]\Disc 4\03 - 3. Buckets of Rain (Take 1, Remake).wav

Peak level 66.5 %
Extraction speed 1.1 X
Track quality 99.9 %
Test CRC 54B6B3AA
Copy CRC 54B6B3AA
Track not present in AccurateRip database
Copy OK

Track 4

Filename C:\EAC Rips\Bob Dylan - More Blood, More Tracks The Bootleg Series Vol. 14 (Deluxe Edition) (2018) [FLAC]\Disc 4\04 - 4. Buckets of Rain (Take 2, Remake).wav

Peak level 75.6 %
Extraction speed 1.2 X
Track quality 99.9 %
Test CRC 30EB5AC9
Copy CRC 30EB5AC9
Track not present in AccurateRip database
Copy OK

Track 5

Filename C:\EAC Rips\Bob Dylan - More Blood, More Tracks The Bootleg Series Vol. 14 (Deluxe Edition) (2018) [FLAC]\Disc 4\05 - 5. Buckets of Rain (Take 3, Remake).wav

Peak level 61.9 %
Extraction speed 1.0 X
Track quality 100.0 %
Test CRC C84D8D24
Copy CRC C84D8D24
Track not present in AccurateRip database
Copy OK

Track 6

Filename C:\EAC Rips\Bob Dylan - More Blood, More Tracks The Bootleg Series Vol. 14 (Deluxe Edition) (2018) [FLAC]\Disc 4\06 - 6. Buckets of Rain (Take 4, Remake).wav

Peak level 78.2 %
Extraction speed 1.4 X
Track quality 100.0 %
Test CRC CB2CE4BD
Copy CRC CB2CE4BD
Track not present in AccurateRip database
Copy OK

Track 7

Filename C:\EAC Rips\Bob Dylan - More Blood, More Tracks The Bootleg Series Vol. 14 (Deluxe Edition) (2018) [FLAC]\Disc 4\07 - 7. Up to Me (Take 1, Remake).wav

Peak level 59.5 %
Extraction speed 1.2 X
Track quality 100.0 %
Test CRC AC9F53B0
Copy CRC AC9F53B0
Track not present in AccurateRip database
Copy OK

Track 8

Filename C:\EAC Rips\Bob Dylan - More Blood, More Tracks The Bootleg Series Vol. 14 (Deluxe Edition) (2018) [FLAC]\Disc 4\08 - 8. Up to Me (Take 2, Remake).wav

Peak level 64.0 %
Extraction speed 1.8 X
Track quality 100.0 %
Test CRC A6A1523D
Copy CRC A6A1523D
Track not present in AccurateRip database
Copy OK

Track 9

Filename C:\EAC Rips\Bob Dylan - More Blood, More Tracks The Bootleg Series Vol. 14 (Deluxe Edition) (2018) [FLAC]\Disc 4\09 - 9. Buckets of Rain (Take 1, Remake 2).wav

Peak level 73.6 %
Extraction speed 1.7 X
Track quality 100.0 %
Test CRC 1821F6E7
Copy CRC 1821F6E7
Track not present in AccurateRip database
Copy OK

Track 10

Filename C:\EAC Rips\Bob Dylan - More Blood, More Tracks The Bootleg Series Vol. 14 (Deluxe Edition) (2018) [FLAC]\Disc 4\10 - 10. Buckets of Rain (Take 2, Remake 2).wav

Peak level 54.5 %
Extraction speed 0.9 X
Track quality 99.8 %
Test CRC 5345BAD4
Copy CRC 5345BAD4
Track not present in AccurateRip database
Copy OK

Track 11

Filename C:\EAC Rips\Bob Dylan - More Blood, More Tracks The Bootleg Series Vol. 14 (Deluxe Edition) (2018) [FLAC]\Disc 4\11 - 11. Buckets of Rain (Take 3, Remake 2).wav

Peak level 65.9 %
Extraction speed 1.6 X
Track quality 100.0 %
Test CRC 18340ACB
Copy CRC 18340ACB
Track not present in AccurateRip database
Copy OK

Track 12

Filename C:\EAC Rips\Bob Dylan - More Blood, More Tracks The Bootleg Series Vol. 14 (Deluxe Edition) (2018) [FLAC]\Disc 4\12 - 12. Buckets of Rain (Take 4, Remake 2).wav

Peak level 75.4 %
Extraction speed 1.8 X
Track quality 100.0 %
Test CRC 2CD7F01C
Copy CRC 2CD7F01C
Track not present in AccurateRip database
Copy OK

Track 13

Filename C:\EAC Rips\Bob Dylan - More Blood, More Tracks The Bootleg Series Vol. 14 (Deluxe Edition) (2018) [FLAC]\Disc 4\13 - 13. If You See Her, Say Hello (Take 1, Remake).wav

Peak level 67.0 %
Extraction speed 1.7 X
Track quality 99.9 %
Test CRC 45BC90D8
Copy CRC 45BC90D8
Track not present in AccurateRip database
Copy OK

Track 14

Filename C:\EAC Rips\Bob Dylan - More Blood, More Tracks The Bootleg Series Vol. 14 (Deluxe Edition) (2018) [FLAC]\Disc 4\14 - 14. Up to Me (Take 1, Remake 2).wav

Peak level 57.0 %
Extraction speed 1.3 X
Track quality 100.0 %
Test CRC 0E872275
Copy CRC 0E872275
Track not present in AccurateRip database
Copy OK

Track 15

Filename C:\EAC Rips\Bob Dylan - More Blood, More Tracks The Bootleg Series Vol. 14 (Deluxe Edition) (2018) [FLAC]\Disc 4\15 - 15. Up to Me (Take 2, Remake 2).wav

Peak level 68.5 %
Extraction speed 2.2 X
Track quality 100.0 %
Test CRC C0CA9969
Copy CRC C0CA9969
Track not present in AccurateRip database
Copy OK

Track 16

Filename C:\EAC Rips\Bob Dylan - More Blood, More Tracks The Bootleg Series Vol. 14 (Deluxe Edition) (2018) [FLAC]\Disc 4\16 - 16. Up to Me (Take 3, Remake 2).wav

Peak level 68.3 %
Extraction speed 2.3 X
Track quality 100.0 %
Test CRC ED50E582
Copy CRC ED50E582
Track not present in AccurateRip database
Copy OK

Track 17

Filename C:\EAC Rips\Bob Dylan - More Blood, More Tracks The Bootleg Series Vol. 14 (Deluxe Edition) (2018) [FLAC]\Disc 4\17 - 17. Buckets of Rain (Rehearsal).wav

Peak level 29.2 %
Extraction speed 1.0 X
Track quality 99.7 %
Test CRC 8840BA3D
Copy CRC 8840BA3D
Track not present in AccurateRip database
Copy OK

Track 18

Filename C:\EAC Rips\Bob Dylan - More Blood, More Tracks The Bootleg Series Vol. 14 (Deluxe Edition) (2018) [FLAC]\Disc 4\18 - 18. Meet Me in the Morning (Take 1, Remake).wav

Peak level 57.1 %
Extraction speed 2.3 X
Track quality 100.0 %
Test CRC 2AFC267F
Copy CRC 2AFC267F
Track not present in AccurateRip database
Copy OK

Track 19

Filename C:\EAC Rips\Bob Dylan - More Blood, More Tracks The Bootleg Series Vol. 14 (Deluxe Edition) (2018) [FLAC]\Disc 4\19 - 19. Meet Me in the Morning (Take 2, Remake).wav

Peak level 63.6 %
Extraction speed 2.4 X
Track quality 100.0 %
Test CRC 1A0CD622
Copy CRC 1A0CD622
Track not present in AccurateRip database
Copy OK

Track 20

Filename C:\EAC Rips\Bob Dylan - More Blood, More Tracks The Bootleg Series Vol. 14 (Deluxe Edition) (2018) [FLAC]\Disc 4\20 - 20. Buckets of Rain (Take 5, Remake 2).wav

Peak level 67.8 %
Extraction speed 2.3 X
Track quality 100.0 %
Test CRC 5C3DE168
Copy CRC 5C3DE168
Track not present in AccurateRip database
Copy OK


None of the tracks are present in the AccurateRip database

No errors occurred

End of status report

–– CUETools DB Plugin V2.1.6

[CTDB TOCID: FY4yiCWJFcR8wTBywB2V.nHvxRY-] found
Submit result: FY4yiCWJFcR8wTBywB2V.nHvxRY- has been confirmed
Track | CTDB Status
1 | (17/17) Accurately ripped
2 | (17/17) Accurately ripped
3 | (17/17) Accurately ripped
4 | (17/17) Accurately ripped
5 | (17/17) Accurately ripped
6 | (17/17) Accurately ripped
7 | (17/17) Accurately ripped
8 | (17/17) Accurately ripped
9 | (17/17) Accurately ripped
10 | (17/17) Accurately ripped
11 | (17/17) Accurately ripped
12 | (17/17) Accurately ripped
13 | (17/17) Accurately ripped
14 | (17/17) Accurately ripped
15 | (17/17) Accurately ripped
16 | (17/17) Accurately ripped
17 | (17/17) Accurately ripped
18 | (17/17) Accurately ripped
19 | (17/17) Accurately ripped
20 | (17/17) Accurately ripped


==== Log checksum 156F5436BDBEDE10E7E0CFC0F7594E9EE663D94F4996A81721C0152428548073 ====

Exact Audio Copy V1.3 from 2. September 2016

EAC extraction logfile from 2. November 2018, 21:36

Bob Dylan / More Blood, More Tracks - Disc 5

Used drive : PLDS DVD-RW DA8AESH Adapter: 1 ID: 0

Read mode : Secure
Utilize accurate stream : Yes
Defeat audio cache : Yes
Make use of C2 pointers : No

Read offset correction : 6
Overread into Lead-In and Lead-Out : No
Fill up missing offset samples with silence : Yes
Delete leading and trailing silent blocks : No
Null samples used in CRC calculations : Yes
Used interface : Native Win32 interface for Win NT & 2000
Gap handling : Appended to previous track

Used output format : User Defined Encoder
Selected bitrate : 1024 kBit/s
Quality : High
Add ID3 tag : No
Command line compressor : C:\Program Files (x86)\Exact Audio Copy\Flac\flac.exe
Additional command line options : -8 -e -p -V -T "ARTIST=%artist%" -T "TITLE=%title%" -T "ALBUM=%albumtitle%" -T "DATE=%year%" -T "TRACKNUMBER=%tracknr%" -T "GENRE=%genre%" -T "PERFORMER=%albuminterpret%" -T "COMPOSER=%composer%" %haslyrics%–tag-from-file=LYRICS="%lyricsfile%"%haslyrics% -T "ALBUMARTIST=%albumartist%" -T "DISCNUMBER=%cdnumber%" -T "TOTALDISCS=%totalcds%" -T "TOTALTRACKS=%numtracks%" -T "COMMENT=%comment%" %source% -o %dest%


TOC of the extracted CD

Track | Start | Length | Start sector | End sector
––––––––––––––––––––––––––––-
1 | 0:00.00 | 3:08.32 | 0 | 14131
2 | 3:08.32 | 1:31.54 | 14132 | 21010
3 | 4:40.11 | 6:50.43 | 21011 | 51803
4 | 11:30.54 | 4:51.26 | 51804 | 73654
5 | 16:22.05 | 4:22.27 | 73655 | 93331
6 | 20:44.32 | 2:25.25 | 93332 | 104231
7 | 23:09.57 | 6:23.51 | 104232 | 133007
8 | 29:33.33 | 4:52.60 | 133008 | 154967
9 | 34:26.18 | 9:14.36 | 154968 | 196553
10 | 43:40.54 | 8:52.28 | 196554 | 236481
11 | 52:33.07 | 3:06.09 | 236482 | 250440
12 | 55:39.16 | 3:51.45 | 250441 | 267810
13 | 59:30.61 | 1:42.64 | 267811 | 275524


Track 1

Filename C:\EAC Rips\Bob Dylan - More Blood, More Tracks The Bootleg Series Vol. 14 (Deluxe Edition) (2018) [FLAC]\Disc 5\01 - Tangled Up in Blue (Rehearsal and Take 1, Remake 2) – with bass.wav

Pre-gap length 0:00:02.00

Peak level 56.6 %
Extraction speed 1.0 X
Track quality 100.0 %
Test CRC 6F1485F7
Copy CRC 6F1485F7
Track not present in AccurateRip database
Copy OK

Track 2

Filename C:\EAC Rips\Bob Dylan - More Blood, More Tracks The Bootleg Series Vol. 14 (Deluxe Edition) (2018) [FLAC]\Disc 5\02 - Tangled Up in Blue (Take 2, Remake 2) – with bass.wav

Peak level 56.0 %
Extraction speed 0.9 X
Track quality 100.0 %
Test CRC CD909FA9
Copy CRC CD909FA9
Track not present in AccurateRip database
Copy OK

Track 3

Filename C:\EAC Rips\Bob Dylan - More Blood, More Tracks The Bootleg Series Vol. 14 (Deluxe Edition) (2018) [FLAC]\Disc 5\03 - Tangled Up in Blue (Take 3, Remake 2) – with bass.wav

Peak level 66.7 %
Extraction speed 1.3 X
Track quality 100.0 %
Test CRC 065FDEB1
Copy CRC 065FDEB1
Track not present in AccurateRip database
Copy OK

Track 4

Filename C:\EAC Rips\Bob Dylan - More Blood, More Tracks The Bootleg Series Vol. 14 (Deluxe Edition) (2018) [FLAC]\Disc 5\04 - Simple Twist of Fate (Take 2, Remake) – with bass.wav

Peak level 61.8 %
Extraction speed 1.4 X
Track quality 100.0 %
Test CRC 983726E3
Copy CRC 983726E3
Track not present in AccurateRip database
Copy OK

Track 5

Filename C:\EAC Rips\Bob Dylan - More Blood, More Tracks The Bootleg Series Vol. 14 (Deluxe Edition) (2018) [FLAC]\Disc 5\05 - Simple Twist of Fate (Take 3, Remake) – with bass.wav

Peak level 72.6 %
Extraction speed 1.5 X
Track quality 100.0 %
Test CRC 6E2DD9BF
Copy CRC 6E2DD9BF
Track not present in AccurateRip database
Copy OK

Track 6

Filename C:\EAC Rips\Bob Dylan - More Blood, More Tracks The Bootleg Series Vol. 14 (Deluxe Edition) (2018) [FLAC]\Disc 5\06 - Up to Me (Rehearsal and Take 1, Remake 3) – with bass.wav

Peak level 66.8 %
Extraction speed 1.4 X
Track quality 100.0 %
Test CRC 3922D337
Copy CRC 3922D337
Track not present in AccurateRip database
Copy OK

Track 7

Filename C:\EAC Rips\Bob Dylan - More Blood, More Tracks The Bootleg Series Vol. 14 (Deluxe Edition) (2018) [FLAC]\Disc 5\07 - Up to Me (Take 2, Remake 3) – with bass.wav

Peak level 67.0 %
Extraction speed 1.8 X
Track quality 100.0 %
Test CRC B5963ECE
Copy CRC B5963ECE
Track not present in AccurateRip database
Copy OK

Track 8

Filename C:\EAC Rips\Bob Dylan - More Blood, More Tracks The Bootleg Series Vol. 14 (Deluxe Edition) (2018) [FLAC]\Disc 5\08 - Idiot Wind (Rehearsal and Takes 1-3, Remake) – with bass.wav

Peak level 73.0 %
Extraction speed 1.6 X
Track quality 99.9 %
Test CRC 9C7E1CC5
Copy CRC 9C7E1CC5
Track not present in AccurateRip database
Copy OK

Track 9

Filename C:\EAC Rips\Bob Dylan - More Blood, More Tracks The Bootleg Series Vol. 14 (Deluxe Edition) (2018) [FLAC]\Disc 5\09 - Idiot Wind (Take 4, Remake) – with bass.wav

Peak level 73.5 %
Extraction speed 2.1 X
Track quality 100.0 %
Test CRC 6B384163
Copy CRC 6B384163
Track not present in AccurateRip database
Copy OK

Track 10

Filename C:\EAC Rips\Bob Dylan - More Blood, More Tracks The Bootleg Series Vol. 14 (Deluxe Edition) (2018) [FLAC]\Disc 5\10 - Idiot Wind (Take 4, Remake) – with organ overdub.wav

Peak level 73.3 %
Extraction speed 2.2 X
Track quality 100.0 %
Test CRC 9FD92365
Copy CRC 9FD92365
Track not present in AccurateRip database
Copy OK

Track 11

Filename C:\EAC Rips\Bob Dylan - More Blood, More Tracks The Bootleg Series Vol. 14 (Deluxe Edition) (2018) [FLAC]\Disc 5\11 - You’re a Big Girl Now (Take 1, Remake 2) – with bass.wav

Peak level 43.6 %
Extraction speed 2.1 X
Track quality 100.0 %
Test CRC 7A0BA07F
Copy CRC 7A0BA07F
Track not present in AccurateRip database
Copy OK

Track 12

Filename C:\EAC Rips\Bob Dylan - More Blood, More Tracks The Bootleg Series Vol. 14 (Deluxe Edition) (2018) [FLAC]\Disc 5\12 - Meet Me in the Morning (Take 1, Remake 2) – with bass.wav

Peak level 62.1 %
Extraction speed 2.2 X
Track quality 100.0 %
Test CRC AA8A7873
Copy CRC AA8A7873
Track not present in AccurateRip database
Copy OK

Track 13

Filename C:\EAC Rips\Bob Dylan - More Blood, More Tracks The Bootleg Series Vol. 14 (Deluxe Edition) (2018) [FLAC]\Disc 5\13 - Meet Me in the Morning (Takes 2-3, Remake 2) – with bass.wav

Peak level 64.6 %
Extraction speed 1.9 X
Track quality 100.0 %
Test CRC CE0FD6E4
Copy CRC CE0FD6E4
Track not present in AccurateRip database
Copy OK


None of the tracks are present in the AccurateRip database

No errors occurred

End of status report

–– CUETools DB Plugin V2.1.6

[CTDB TOCID: 26LLpof4ImXKEv9.grYjC4sqGW4-] found
Submit result: 26LLpof4ImXKEv9.grYjC4sqGW4- has been confirmed
Track | CTDB Status
1 | (16/16) Accurately ripped
2 | (16/16) Accurately ripped
3 | (16/16) Accurately ripped
4 | (16/16) Accurately ripped
5 | (16/16) Accurately ripped
6 | (16/16) Accurately ripped
7 | (16/16) Accurately ripped
8 | (16/16) Accurately ripped
9 | (16/16) Accurately ripped
10 | (16/16) Accurately ripped
11 | (16/16) Accurately ripped
12 | (16/16) Accurately ripped
13 | (16/16) Accurately ripped


==== Log checksum AAC1BA426D34C346276C70D666D14B118C9702ADFB245FC87E92E1FA4216CA4B ====

Exact Audio Copy V1.3 from 2. September 2016

EAC extraction logfile from 2. November 2018, 19:43

Bob Dylan / More Blood, More Tracks - Disc 6

Used drive : PLDS DVD-RW DA8AESH Adapter: 1 ID: 0

Read mode : Secure
Utilize accurate stream : Yes
Defeat audio cache : Yes
Make use of C2 pointers : No

Read offset correction : 6
Overread into Lead-In and Lead-Out : No
Fill up missing offset samples with silence : Yes
Delete leading and trailing silent blocks : No
Null samples used in CRC calculations : Yes
Used interface : Native Win32 interface for Win NT & 2000
Gap handling : Appended to previous track

Used output format : User Defined Encoder
Selected bitrate : 1024 kBit/s
Quality : High
Add ID3 tag : No
Command line compressor : C:\Program Files (x86)\Exact Audio Copy\Flac\flac.exe
Additional command line options : -8 -e -p -V -T "ARTIST=%artist%" -T "TITLE=%title%" -T "ALBUM=%albumtitle%" -T "DATE=%year%" -T "TRACKNUMBER=%tracknr%" -T "GENRE=%genre%" -T "PERFORMER=%albuminterpret%" -T "COMPOSER=%composer%" %haslyrics%–tag-from-file=LYRICS="%lyricsfile%"%haslyrics% -T "ALBUMARTIST=%albumartist%" -T "DISCNUMBER=%cdnumber%" -T "TOTALDISCS=%totalcds%" -T "TOTALTRACKS=%numtracks%" -T "COMMENT=%comment%" %source% -o %dest%


TOC of the extracted CD

Track | Start | Length | Start sector | End sector
––––––––––––––––––––––––––––-
1 | 0:00.00 | 2:16.48 | 0 | 10247
2 | 2:16.48 | 5:09.29 | 10248 | 33451
3 | 7:26.02 | 6:31.54 | 33452 | 62830
4 | 13:57.56 | 7:53.02 | 62831 | 98307
5 | 21:50.58 | 4:38.23 | 98308 | 119180
6 | 26:29.06 | 5:46.60 | 119181 | 145190
7 | 32:15.66 | 8:58.65 | 145191 | 185605
8 | 41:14.56 | 4:44.30 | 185606 | 206935


Track 1

Filename C:\EAC Rips\Bob Dylan - More Blood, More Tracks The Bootleg Series Vol. 14 (Deluxe Edition) (2018) [FLAC]\Disc 6\01 - You’re a Big Girl Now (Takes 3-6, Remake 2) – with bass.wav

Pre-gap length 0:00:02.00

Peak level 61.2 %
Extraction speed 0.9 X
Track quality 100.0 %
Test CRC E3ABCF08
Copy CRC E3ABCF08
Track not present in AccurateRip database
Copy OK

Track 2

Filename C:\EAC Rips\Bob Dylan - More Blood, More Tracks The Bootleg Series Vol. 14 (Deluxe Edition) (2018) [FLAC]\Disc 6\02 - Tangled Up in Blue (Rehearsal and Takes 1-2, Remake 3) – with bass.wav

Peak level 56.8 %
Extraction speed 1.1 X
Track quality 99.9 %
Test CRC 0731FD93
Copy CRC 0731FD93
Track not present in AccurateRip database
Copy OK

Track 3

Filename C:\EAC Rips\Bob Dylan - More Blood, More Tracks The Bootleg Series Vol. 14 (Deluxe Edition) (2018) [FLAC]\Disc 6\03 - Tangled Up in Blue (Take 3, Remake 3) – with bass.wav

Peak level 77.9 %
Extraction speed 1.4 X
Track quality 100.0 %
Test CRC BD56FDCF
Copy CRC BD56FDCF
Track not present in AccurateRip database
Copy OK

Track 4

Filename C:\EAC Rips\Bob Dylan - More Blood, More Tracks The Bootleg Series Vol. 14 (Deluxe Edition) (2018) [FLAC]\Disc 6\04 - Idiot Wind – with band.wav

Peak level 81.2 %
Extraction speed 1.6 X
Track quality 100.0 %
Test CRC 91CF5C2D
Copy CRC 91CF5C2D
Track not present in AccurateRip database
Copy OK

Track 5

Filename C:\EAC Rips\Bob Dylan - More Blood, More Tracks The Bootleg Series Vol. 14 (Deluxe Edition) (2018) [FLAC]\Disc 6\05 - You’re a Big Girl Now – with band.wav

Peak level 74.5 %
Extraction speed 1.7 X
Track quality 100.0 %
Test CRC C8052091
Copy CRC C8052091
Track not present in AccurateRip database
Copy OK

Track 6

Filename C:\EAC Rips\Bob Dylan - More Blood, More Tracks The Bootleg Series Vol. 14 (Deluxe Edition) (2018) [FLAC]\Disc 6\06 - Tangled Up in Blue – with band.wav

Peak level 95.0 %
Extraction speed 1.8 X
Track quality 100.0 %
Test CRC F04ED338
Copy CRC F04ED338
Track not present in AccurateRip database
Copy OK

Track 7

Filename C:\EAC Rips\Bob Dylan - More Blood, More Tracks The Bootleg Series Vol. 14 (Deluxe Edition) (2018) [FLAC]\Disc 6\07 - Lily, Rosemary and the Jack of Hearts – with band.wav

Peak level 76.0 %
Extraction speed 2.0 X
Track quality 100.0 %
Test CRC 01975C1E
Copy CRC 01975C1E
Track not present in AccurateRip database
Copy OK

Track 8

Filename C:\EAC Rips\Bob Dylan - More Blood, More Tracks The Bootleg Series Vol. 14 (Deluxe Edition) (2018) [FLAC]\Disc 6\08 - If You See Her, Say Hello – with band.wav

Peak level 71.8 %
Extraction speed 2.0 X
Track quality 100.0 %
Test CRC 6005C7A9
Copy CRC 6005C7A9
Track not present in AccurateRip database
Copy OK


None of the tracks are present in the AccurateRip database

No errors occurred

End of status report

–– CUETools DB Plugin V2.1.6

[CTDB TOCID: L7WCjTBgIaeWqTiRLaqiniCD7C0-] found
Submit result: L7WCjTBgIaeWqTiRLaqiniCD7C0- has been confirmed
Track | CTDB Status
1 | (17/17) Accurately ripped
2 | (17/17) Accurately ripped
3 | (17/17) Accurately ripped
4 | (17/17) Accurately ripped
5 | (17/17) Accurately ripped
6 | (17/17) Accurately ripped
7 | (17/17) Accurately ripped
8 | (17/17) Accurately ripped


==== Log checksum 795D119E9D93C058FB20C961310B489050A6119328B77189C891DC8702CB3BD9 ====

All thanks go to the After what.cd

More Music in My Blog
Follow My RSS Channel