Subcategories

Bobby Hatfield - The Other Brother: A Solo Anthology 1965-1970 (2017)

Posted By: delpotro
Bobby Hatfield - The Other Brother: A Solo Anthology 1965-1970 (2017)

Bobby Hatfield - The Other Brother: A Solo Anthology 1965-1970 (2017)
EAC Rip | FLAC (tracks+log+.cue) - 421 Mb | MP3 CBR 320 kbps - 177 Mb | Scans included | 01:11:32
Soul | Label: Ace Records

The blue-eyed soul brother’s Verve and MGM recordings anthologised on CD for the first time, including seven previously unissued masters.

With his partner Bill Medley, Bobby Hatfield lit up the radio airwaves and the charts throughout the 1960s. In collaboration with maverick genius Phil Spector, the Righteous Brothers gave the world one of the greatest records of the decade in ‘You’ve Lost That Lovin’ Feelin’’, a 1965 chart-topper that became the most broadcast record of all time. Several of the tracks issued in the duo’s name during their Spector tenure were actually Bobby Hatfield solo recordings, including ‘Ebb Tide’, ‘(I Love You) For Sentimental Reasons’ and ‘Unchained Melody’. Nevertheless, many people will recall Bill’s name much more readily than Bobby’s. Ace’s new compilation, “The Other Brother”, strives to rectify that by bringing together 24 solo performances from “the high-voiced one”.

Bobby and Bill had both been in other groups before teaming up, and both had issued solo 45s as early as 1963, but it wasn’t until the duo joined Verve Records, post-Spector, that they began their solo careers in earnest, originally running parallel with recording as the Righteous Brothers. Bobby never had an album issued during the 60s. One was recorded and given a catalogue number, but it didn’t reach the pressing plant. His versions of ‘Crying In The Chapel’, Gerry Goffin & Carole King’s ‘So Much Love’ and Barry Mann & Cynthia Weil’s ‘See That Girl’ from that shelved LP debut here, along with four more previously unissued tracks, some mixed for the first time especially for this CD. The collection also includes Bobby’s 1970 album “Messin’ In Muscle Shoals” in its entirety.

Bobby’s solo career never took off in the way Bill Medley’s did, but his lack of hits is in no way a reflection of musical quality. “The Other Brother” is a fabulous summation of his solo work that will improve any collection of great American music, particularly of the blue-eyed soul variety.
Tracklist:
1. Bobby Hatfield – Hang-Ups (02:47)
2. The Righteous Brothers – Ebb Tide (02:47)
3. Bobby Hatfield – Soul Cafe (02:31)
4. Bobby Hatfield – Crying In The Chapel (02:44)
5. Bobby Hatfield – In My Mind (02:13)
6. The Righteous Brothers – (I Love You) For Sentimental Reasons (02:46)
7. Bobby Hatfield – What's The Matter Baby (03:12)
8. Bobby Hatfield – Paradise (03:16)
9. The Righteous Brothers – Unchained Melody (03:35)
10. Bobby Hatfield – What You Want (03:04)
11. Bobby Hatfield – So Much Love (03:49)
12. Bobby Hatfield – See That Girl (02:38)
13. Bobby Hatfield – Brothers (02:21)
14. Bobby Hatfield – You Left The Water Running (02:56)
15. Bobby Hatfield – Let It Be (04:37)
16. Bobby Hatfield – If I Asked You (02:32)
17. Bobby Hatfield – The Promised Land (02:56)
18. Bobby Hatfield – Shuckin' And Jivin' (02:21)
19. Bobby Hatfield – I Saw A Lark (03:20)
20. Bobby Hatfield – You Get A Lot To Like (02:50)
21. Bobby Hatfield – Show Me The Sunshine (04:03)
22. Bobby Hatfield – The Feeling Is Right (02:24)
23. Bobby Hatfield – Messin' In Muscle Shoals (02:34)
24. Bobby Hatfield – Woman You Got No Soul (02:24)

Exact Audio Copy V1.3 from 2. September 2016

EAC extraction logfile from 15. March 2019, 16:39

Bobby Hatfield / The Other Brother: A Solo Anthology 1965-1970

Used drive : PLEXTOR PX-891SAF Adapter: 1 ID: 0

Read mode : Secure
Utilize accurate stream : Yes
Defeat audio cache : Yes
Make use of C2 pointers : No

Read offset correction : 6
Overread into Lead-In and Lead-Out : No
Fill up missing offset samples with silence : Yes
Delete leading and trailing silent blocks : No
Null samples used in CRC calculations : Yes
Used interface : Native Win32 interface for Win NT & 2000
Gap handling : Appended to previous track

Used output format : User Defined Encoder
Selected bitrate : 1024 kBit/s
Quality : High
Add ID3 tag : No
Command line compressor : C:\Program Files (x86)\Exact Audio Copy\Flac\flac.exe
Additional command line options : -8 -V -T "ARTIST=%artist%" -T "TITLE=%title%" -T "ALBUM=%albumtitle%" -T "DATE=%year%" -T "TRACKNUMBER=%tracknr%" -T "GENRE=%genre%" -T "PERFORMER=%albuminterpret%" -T "COMPOSER=%composer%" %haslyrics%–tag-from-file=LYRICS="%lyricsfile%"%haslyrics% -T "ALBUMARTIST=%albumartist%" -T "DISCNUMBER=%cdnumber%" -T "TOTALDISCS=%totalcds%" -T "TOTALTRACKS=%numtracks%" -T "COMMENT=%comment%" %source% -o %dest%


TOC of the extracted CD

Track | Start | Length | Start sector | End sector
––––––––––––––––––––––––––––-
1 | 0:00.00 | 2:49.11 | 0 | 12685
2 | 2:49.11 | 2:49.25 | 12686 | 25385
3 | 5:38.36 | 2:33.36 | 25386 | 36896
4 | 8:11.72 | 2:46.07 | 36897 | 49353
5 | 10:58.04 | 2:15.05 | 49354 | 59483
6 | 13:13.09 | 2:47.59 | 59484 | 72067
7 | 16:00.68 | 3:14.41 | 72068 | 86658
8 | 19:15.34 | 3:18.19 | 86659 | 101527
9 | 22:33.53 | 3:37.18 | 101528 | 117820
10 | 26:10.71 | 3:06.25 | 117821 | 131795
11 | 29:17.21 | 3:51.30 | 131796 | 149150
12 | 33:08.51 | 2:39.39 | 149151 | 161114
13 | 35:48.15 | 2:23.06 | 161115 | 171845
14 | 38:11.21 | 2:58.69 | 171846 | 185264
15 | 41:10.15 | 4:38.57 | 185265 | 206171
16 | 45:48.72 | 2:34.06 | 206172 | 217727
17 | 48:23.03 | 2:58.46 | 217728 | 231123
18 | 51:21.49 | 2:23.04 | 231124 | 241852
19 | 53:44.53 | 3:22.06 | 241853 | 257008
20 | 57:06.59 | 2:52.41 | 257009 | 269949
21 | 59:59.25 | 4:05.25 | 269950 | 288349
22 | 64:04.50 | 2:26.28 | 288350 | 299327
23 | 66:31.03 | 2:36.65 | 299328 | 311092
24 | 69:07.68 | 2:24.37 | 311093 | 321929


Track 1

Filename D:\#New wav + flac II\Bobby Hatfield - The Other Brother A Solo Anthology\01. Bobby Hatfield - Hang Ups.wav

Pre-gap length 0:00:02.00

Peak level 95.5 %
Extraction speed 5.5 X
Track quality 100.0 %
Test CRC E296E2B4
Copy CRC E296E2B4
Accurately ripped (confidence 3) [0971CAFD] (AR v2)
Copy OK

Track 2

Filename D:\#New wav + flac II\Bobby Hatfield - The Other Brother A Solo Anthology\02. Bobby Hatfield - Ebb Tide.wav

Pre-gap length 0:00:01.88

Peak level 95.5 %
Extraction speed 4.6 X
Track quality 99.9 %
Test CRC FA7B0B2B
Copy CRC FA7B0B2B
Accurately ripped (confidence 3) [868CBD3F] (AR v2)
Copy OK

Track 3

Filename D:\#New wav + flac II\Bobby Hatfield - The Other Brother A Solo Anthology\03. Bobby Hatfield - Soul Cafe.wav

Pre-gap length 0:00:02.02

Peak level 82.1 %
Extraction speed 6.0 X
Track quality 100.0 %
Test CRC 57ECBE57
Copy CRC 57ECBE57
Accurately ripped (confidence 3) [7052FCB9] (AR v2)
Copy OK

Track 4

Filename D:\#New wav + flac II\Bobby Hatfield - The Other Brother A Solo Anthology\04. Bobby Hatfield - Crying in the Chapel.wav

Pre-gap length 0:00:02.04

Peak level 95.5 %
Extraction speed 6.5 X
Track quality 100.0 %
Test CRC 4B8CA61C
Copy CRC 4B8CA61C
Accurately ripped (confidence 3) [B2376F9B] (AR v2)
Copy OK

Track 5

Filename D:\#New wav + flac II\Bobby Hatfield - The Other Brother A Solo Anthology\05. Bobby Hatfield - In My Mind.wav

Pre-gap length 0:00:01.54

Peak level 95.5 %
Extraction speed 6.4 X
Track quality 100.0 %
Test CRC B4392ADF
Copy CRC B4392ADF
Accurately ripped (confidence 3) [CE29CD0C] (AR v2)
Copy OK

Track 6

Filename D:\#New wav + flac II\Bobby Hatfield - The Other Brother A Solo Anthology\06. Bobby Hatfield - (I Love You) for Sentimental Reasons- The Righteous Brothers.wav

Pre-gap length 0:00:01.76

Peak level 95.4 %
Extraction speed 7.0 X
Track quality 100.0 %
Test CRC 7DA6F13A
Copy CRC 7DA6F13A
Accurately ripped (confidence 3) [6940A2F9] (AR v2)
Copy OK

Track 7

Filename D:\#New wav + flac II\Bobby Hatfield - The Other Brother A Solo Anthology\07. Bobby Hatfield - What's the Matter Baby (Is It Hurtin' You).wav

Pre-gap length 0:00:01.54

Peak level 89.7 %
Extraction speed 6.1 X
Track quality 99.9 %
Test CRC 7F8D9B8E
Copy CRC 7F8D9B8E
Accurately ripped (confidence 3) [11CCF171] (AR v2)
Copy OK

Track 8

Filename D:\#New wav + flac II\Bobby Hatfield - The Other Brother A Solo Anthology\08. Bobby Hatfield - Paradise.wav

Pre-gap length 0:00:01.74

Peak level 94.1 %
Extraction speed 7.9 X
Track quality 100.0 %
Test CRC C2A5F2D6
Copy CRC C2A5F2D6
Accurately ripped (confidence 3) [6B1BB914] (AR v2)
Copy OK

Track 9

Filename D:\#New wav + flac II\Bobby Hatfield - The Other Brother A Solo Anthology\09. Bobby Hatfield,The Righteous Brothers - Unchained Melody.wav

Pre-gap length 0:00:02.25

Peak level 95.5 %
Extraction speed 8.4 X
Track quality 100.0 %
Test CRC A2AC9285
Copy CRC A2AC9285
Accurately ripped (confidence 3) [047E55CC] (AR v2)
Copy OK

Track 10

Filename D:\#New wav + flac II\Bobby Hatfield - The Other Brother A Solo Anthology\10. Bobby Hatfield - What You Want.wav

Pre-gap length 0:00:01.98

Peak level 87.9 %
Extraction speed 8.1 X
Track quality 100.0 %
Test CRC DD41ABA2
Copy CRC DD41ABA2
Accurately ripped (confidence 3) [475CC085] (AR v2)
Copy OK

Track 11

Filename D:\#New wav + flac II\Bobby Hatfield - The Other Brother A Solo Anthology\11. Bobby Hatfield - So Much Love.wav

Pre-gap length 0:00:02.05

Peak level 95.5 %
Extraction speed 7.5 X
Track quality 99.9 %
Test CRC A8F28A2F
Copy CRC A8F28A2F
Accurately ripped (confidence 3) [50A5F06F] (AR v2)
Copy OK

Track 12

Filename D:\#New wav + flac II\Bobby Hatfield - The Other Brother A Solo Anthology\12. Bobby Hatfield - See That Girl.wav

Pre-gap length 0:00:01.54

Peak level 95.5 %
Extraction speed 8.9 X
Track quality 100.0 %
Test CRC 2F09750A
Copy CRC 2F09750A
Accurately ripped (confidence 3) [AD26C479] (AR v2)
Copy OK

Track 13

Filename D:\#New wav + flac II\Bobby Hatfield - The Other Brother A Solo Anthology\13. Bobby Hatfield - Brothers.wav

Pre-gap length 0:00:01.38

Peak level 86.9 %
Extraction speed 6.6 X
Track quality 99.9 %
Test CRC FCDCE1D4
Copy CRC FCDCE1D4
Accurately ripped (confidence 3) [3FA48A0E] (AR v2)
Copy OK

Track 14

Filename D:\#New wav + flac II\Bobby Hatfield - The Other Brother A Solo Anthology\14. Bobby Hatfield - You Left the Water Running.wav

Pre-gap length 0:00:01.89

Peak level 95.5 %
Extraction speed 7.3 X
Track quality 99.9 %
Test CRC 6ECA8251
Copy CRC 6ECA8251
Accurately ripped (confidence 3) [4B24FE9E] (AR v2)
Copy OK

Track 15

Filename D:\#New wav + flac II\Bobby Hatfield - The Other Brother A Solo Anthology\15. Bobby Hatfield - Let It Be.wav

Pre-gap length 0:00:02.10

Peak level 95.5 %
Extraction speed 10.2 X
Track quality 100.0 %
Test CRC 0A070275
Copy CRC 0A070275
Accurately ripped (confidence 3) [10C87B2D] (AR v2)
Copy OK

Track 16

Filename D:\#New wav + flac II\Bobby Hatfield - The Other Brother A Solo Anthology\16. Bobby Hatfield - If I Asked You.wav

Pre-gap length 0:00:01.62

Peak level 92.1 %
Extraction speed 9.2 X
Track quality 100.0 %
Test CRC 8B320F49
Copy CRC 8B320F49
Accurately ripped (confidence 3) [D525EB43] (AR v2)
Copy OK

Track 17

Filename D:\#New wav + flac II\Bobby Hatfield - The Other Brother A Solo Anthology\17. Bobby Hatfield - The Promised Land.wav

Pre-gap length 0:00:01.65

Peak level 95.5 %
Extraction speed 7.6 X
Track quality 99.9 %
Test CRC 11DB2F6F
Copy CRC 11DB2F6F
Accurately ripped (confidence 3) [A46F4750] (AR v2)
Copy OK

Track 18

Filename D:\#New wav + flac II\Bobby Hatfield - The Other Brother A Solo Anthology\18. Bobby Hatfield - Shuckin' and Jivin'.wav

Pre-gap length 0:00:02.01

Peak level 95.5 %
Extraction speed 7.2 X
Track quality 99.9 %
Test CRC 43B63403
Copy CRC 43B63403
Accurately ripped (confidence 3) [484408F3] (AR v2)
Copy OK

Track 19

Filename D:\#New wav + flac II\Bobby Hatfield - The Other Brother A Solo Anthology\19. Bobby Hatfield - I Saw a Lark.wav

Pre-gap length 0:00:01.92

Peak level 95.5 %
Extraction speed 10.2 X
Track quality 100.0 %
Test CRC 085265B7
Copy CRC 085265B7
Accurately ripped (confidence 3) [6A1B58C6] (AR v2)
Copy OK

Track 20

Filename D:\#New wav + flac II\Bobby Hatfield - The Other Brother A Solo Anthology\20. Bobby Hatfield - You Get a Lot to Like.wav

Pre-gap length 0:00:02.06

Peak level 95.5 %
Extraction speed 10.3 X
Track quality 100.0 %
Test CRC 723A95F2
Copy CRC 723A95F2
Accurately ripped (confidence 3) [AB10F4B7] (AR v2)
Copy OK

Track 21

Filename D:\#New wav + flac II\Bobby Hatfield - The Other Brother A Solo Anthology\21. Bobby Hatfield - Show Me the Sunshine.wav

Pre-gap length 0:00:02.01

Peak level 95.5 %
Extraction speed 9.3 X
Track quality 99.9 %
Test CRC 7511AA50
Copy CRC 7511AA50
Accurately ripped (confidence 3) [70FE9D1C] (AR v2)
Copy OK

Track 22

Filename D:\#New wav + flac II\Bobby Hatfield - The Other Brother A Solo Anthology\22. Bobby Hatfield - The Feeling Is Right.wav

Pre-gap length 0:00:01.80

Peak level 95.5 %
Extraction speed 10.4 X
Track quality 100.0 %
Test CRC C22152C0
Copy CRC C22152C0
Accurately ripped (confidence 3) [C5F80677] (AR v2)
Copy OK

Track 23

Filename D:\#New wav + flac II\Bobby Hatfield - The Other Brother A Solo Anthology\23. Bobby Hatfield - Messin' in Muscle Shoals.wav

Pre-gap length 0:00:02.14

Peak level 95.5 %
Extraction speed 10.7 X
Track quality 100.0 %
Test CRC 0B8F2154
Copy CRC 0B8F2154
Accurately ripped (confidence 3) [7B992180] (AR v2)
Copy OK

Track 24

Filename D:\#New wav + flac II\Bobby Hatfield - The Other Brother A Solo Anthology\24. Bobby Hatfield - Woman You Got No Soul.wav

Pre-gap length 0:00:02.00

Peak level 95.5 %
Extraction speed 10.4 X
Track quality 100.0 %
Test CRC 51279B18
Copy CRC 51279B18
Accurately ripped (confidence 3) [2BAE28CA] (AR v2)
Copy OK


All tracks accurately ripped

No errors occurred

End of status report

–– CUETools DB Plugin V2.1.6

[CTDB TOCID: plseLs.kMfRYYmCHmmOZELb0Dtc-] found
Submit result: plseLs.kMfRYYmCHmmOZELb0Dtc- has been confirmed
Track | CTDB Status
1 | (4/4) Accurately ripped
2 | (4/4) Accurately ripped
3 | (4/4) Accurately ripped
4 | (4/4) Accurately ripped
5 | (4/4) Accurately ripped
6 | (4/4) Accurately ripped
7 | (4/4) Accurately ripped
8 | (4/4) Accurately ripped
9 | (4/4) Accurately ripped
10 | (4/4) Accurately ripped
11 | (4/4) Accurately ripped
12 | (4/4) Accurately ripped
13 | (4/4) Accurately ripped
14 | (4/4) Accurately ripped
15 | (4/4) Accurately ripped
16 | (4/4) Accurately ripped
17 | (4/4) Accurately ripped
18 | (4/4) Accurately ripped
19 | (4/4) Accurately ripped
20 | (4/4) Accurately ripped
21 | (4/4) Accurately ripped
22 | (4/4) Accurately ripped
23 | (4/4) Accurately ripped
24 | (4/4) Accurately ripped


==== Log checksum 566E27EF183E641E13DDB60993803F979C0C36377FE5CCD0C3C932D6ABE1268C ====

––––––––––––––––––––––––––––––

Exact Audio Copy V1.3 from 2. September 2016

EAC extraction logfile from 15. March 2019, 16:39

Bobby Hatfield / The Other Brother: A Solo Anthology 1965-1970

Used drive : PLEXTOR PX-891SAF Adapter: 1 ID: 0

Read mode : Secure
Utilize accurate stream : Yes
Defeat audio cache : Yes
Make use of C2 pointers : No

Read offset correction : 6
Overread into Lead-In and Lead-Out : No
Fill up missing offset samples with silence : Yes
Delete leading and trailing silent blocks : No
Null samples used in CRC calculations : Yes
Used interface : Native Win32 interface for Win NT & 2000
Gap handling : Appended to previous track

Used output format : User Defined Encoder
Selected bitrate : 1024 kBit/s
Quality : High
Add ID3 tag : No
Command line compressor : C:\Program Files (x86)\Exact Audio Copy\Flac\flac.exe
Additional command line options : -8 -V -T "ARTIST=%artist%" -T "TITLE=%title%" -T "ALBUM=%albumtitle%" -T "DATE=%year%" -T "TRACKNUMBER=%tracknr%" -T "GENRE=%genre%" -T "PERFORMER=%albuminterpret%" -T "COMPOSER=%composer%" %haslyrics%–tag-from-file=LYRICS="%lyricsfile%"%haslyrics% -T "ALBUMARTIST=%albumartist%" -T "DISCNUMBER=%cdnumber%" -T "TOTALDISCS=%totalcds%" -T "TOTALTRACKS=%numtracks%" -T "COMMENT=%comment%" %source% -o %dest%


TOC of the extracted CD

Track | Start | Length | Start sector | End sector
––––––––––––––––––––––––––––-
1 | 0:00.00 | 2:49.11 | 0 | 12685
2 | 2:49.11 | 2:49.25 | 12686 | 25385
3 | 5:38.36 | 2:33.36 | 25386 | 36896
4 | 8:11.72 | 2:46.07 | 36897 | 49353
5 | 10:58.04 | 2:15.05 | 49354 | 59483
6 | 13:13.09 | 2:47.59 | 59484 | 72067
7 | 16:00.68 | 3:14.41 | 72068 | 86658
8 | 19:15.34 | 3:18.19 | 86659 | 101527
9 | 22:33.53 | 3:37.18 | 101528 | 117820
10 | 26:10.71 | 3:06.25 | 117821 | 131795
11 | 29:17.21 | 3:51.30 | 131796 | 149150
12 | 33:08.51 | 2:39.39 | 149151 | 161114
13 | 35:48.15 | 2:23.06 | 161115 | 171845
14 | 38:11.21 | 2:58.69 | 171846 | 185264
15 | 41:10.15 | 4:38.57 | 185265 | 206171
16 | 45:48.72 | 2:34.06 | 206172 | 217727
17 | 48:23.03 | 2:58.46 | 217728 | 231123
18 | 51:21.49 | 2:23.04 | 231124 | 241852
19 | 53:44.53 | 3:22.06 | 241853 | 257008
20 | 57:06.59 | 2:52.41 | 257009 | 269949
21 | 59:59.25 | 4:05.25 | 269950 | 288349
22 | 64:04.50 | 2:26.28 | 288350 | 299327
23 | 66:31.03 | 2:36.65 | 299328 | 311092
24 | 69:07.68 | 2:24.37 | 311093 | 321929


Track 1

Filename D:\#New wav + flac II\Bobby Hatfield - The Other Brother A Solo Anthology\01. Bobby Hatfield - Hang Ups.wav

Pre-gap length 0:00:02.00

Peak level 95.5 %
Extraction speed 5.5 X
Track quality 100.0 %
Test CRC E296E2B4
Copy CRC E296E2B4
Accurately ripped (confidence 3) [0971CAFD] (AR v2)
Copy OK

Track 2

Filename D:\#New wav + flac II\Bobby Hatfield - The Other Brother A Solo Anthology\02. Bobby Hatfield - Ebb Tide.wav

Pre-gap length 0:00:01.88

Peak level 95.5 %
Extraction speed 4.6 X
Track quality 99.9 %
Test CRC FA7B0B2B
Copy CRC FA7B0B2B
Accurately ripped (confidence 3) [868CBD3F] (AR v2)
Copy OK

Track 3

Filename D:\#New wav + flac II\Bobby Hatfield - The Other Brother A Solo Anthology\03. Bobby Hatfield - Soul Cafe.wav

Pre-gap length 0:00:02.02

Peak level 82.1 %
Extraction speed 6.0 X
Track quality 100.0 %
Test CRC 57ECBE57
Copy CRC 57ECBE57
Accurately ripped (confidence 3) [7052FCB9] (AR v2)
Copy OK

Track 4

Filename D:\#New wav + flac II\Bobby Hatfield - The Other Brother A Solo Anthology\04. Bobby Hatfield - Crying in the Chapel.wav

Pre-gap length 0:00:02.04

Peak level 95.5 %
Extraction speed 6.5 X
Track quality 100.0 %
Test CRC 4B8CA61C
Copy CRC 4B8CA61C
Accurately ripped (confidence 3) [B2376F9B] (AR v2)
Copy OK

Track 5

Filename D:\#New wav + flac II\Bobby Hatfield - The Other Brother A Solo Anthology\05. Bobby Hatfield - In My Mind.wav

Pre-gap length 0:00:01.54

Peak level 95.5 %
Extraction speed 6.4 X
Track quality 100.0 %
Test CRC B4392ADF
Copy CRC B4392ADF
Accurately ripped (confidence 3) [CE29CD0C] (AR v2)
Copy OK

Track 6

Filename D:\#New wav + flac II\Bobby Hatfield - The Other Brother A Solo Anthology\06. Bobby Hatfield - (I Love You) for Sentimental Reasons- The Righteous Brothers.wav

Pre-gap length 0:00:01.76

Peak level 95.4 %
Extraction speed 7.0 X
Track quality 100.0 %
Test CRC 7DA6F13A
Copy CRC 7DA6F13A
Accurately ripped (confidence 3) [6940A2F9] (AR v2)
Copy OK

Track 7

Filename D:\#New wav + flac II\Bobby Hatfield - The Other Brother A Solo Anthology\07. Bobby Hatfield - What's the Matter Baby (Is It Hurtin' You).wav

Pre-gap length 0:00:01.54

Peak level 89.7 %
Extraction speed 6.1 X
Track quality 99.9 %
Test CRC 7F8D9B8E
Copy CRC 7F8D9B8E
Accurately ripped (confidence 3) [11CCF171] (AR v2)
Copy OK

Track 8

Filename D:\#New wav + flac II\Bobby Hatfield - The Other Brother A Solo Anthology\08. Bobby Hatfield - Paradise.wav

Pre-gap length 0:00:01.74

Peak level 94.1 %
Extraction speed 7.9 X
Track quality 100.0 %
Test CRC C2A5F2D6
Copy CRC C2A5F2D6
Accurately ripped (confidence 3) [6B1BB914] (AR v2)
Copy OK

Track 9

Filename D:\#New wav + flac II\Bobby Hatfield - The Other Brother A Solo Anthology\09. Bobby Hatfield,The Righteous Brothers - Unchained Melody.wav

Pre-gap length 0:00:02.25

Peak level 95.5 %
Extraction speed 8.4 X
Track quality 100.0 %
Test CRC A2AC9285
Copy CRC A2AC9285
Accurately ripped (confidence 3) [047E55CC] (AR v2)
Copy OK

Track 10

Filename D:\#New wav + flac II\Bobby Hatfield - The Other Brother A Solo Anthology\10. Bobby Hatfield - What You Want.wav

Pre-gap length 0:00:01.98

Peak level 87.9 %
Extraction speed 8.1 X
Track quality 100.0 %
Test CRC DD41ABA2
Copy CRC DD41ABA2
Accurately ripped (confidence 3) [475CC085] (AR v2)
Copy OK

Track 11

Filename D:\#New wav + flac II\Bobby Hatfield - The Other Brother A Solo Anthology\11. Bobby Hatfield - So Much Love.wav

Pre-gap length 0:00:02.05

Peak level 95.5 %
Extraction speed 7.5 X
Track quality 99.9 %
Test CRC A8F28A2F
Copy CRC A8F28A2F
Accurately ripped (confidence 3) [50A5F06F] (AR v2)
Copy OK

Track 12

Filename D:\#New wav + flac II\Bobby Hatfield - The Other Brother A Solo Anthology\12. Bobby Hatfield - See That Girl.wav

Pre-gap length 0:00:01.54

Peak level 95.5 %
Extraction speed 8.9 X
Track quality 100.0 %
Test CRC 2F09750A
Copy CRC 2F09750A
Accurately ripped (confidence 3) [AD26C479] (AR v2)
Copy OK

Track 13

Filename D:\#New wav + flac II\Bobby Hatfield - The Other Brother A Solo Anthology\13. Bobby Hatfield - Brothers.wav

Pre-gap length 0:00:01.38

Peak level 86.9 %
Extraction speed 6.6 X
Track quality 99.9 %
Test CRC FCDCE1D4
Copy CRC FCDCE1D4
Accurately ripped (confidence 3) [3FA48A0E] (AR v2)
Copy OK

Track 14

Filename D:\#New wav + flac II\Bobby Hatfield - The Other Brother A Solo Anthology\14. Bobby Hatfield - You Left the Water Running.wav

Pre-gap length 0:00:01.89

Peak level 95.5 %
Extraction speed 7.3 X
Track quality 99.9 %
Test CRC 6ECA8251
Copy CRC 6ECA8251
Accurately ripped (confidence 3) [4B24FE9E] (AR v2)
Copy OK

Track 15

Filename D:\#New wav + flac II\Bobby Hatfield - The Other Brother A Solo Anthology\15. Bobby Hatfield - Let It Be.wav

Pre-gap length 0:00:02.10

Peak level 95.5 %
Extraction speed 10.2 X
Track quality 100.0 %
Test CRC 0A070275
Copy CRC 0A070275
Accurately ripped (confidence 3) [10C87B2D] (AR v2)
Copy OK

Track 16

Filename D:\#New wav + flac II\Bobby Hatfield - The Other Brother A Solo Anthology\16. Bobby Hatfield - If I Asked You.wav

Pre-gap length 0:00:01.62

Peak level 92.1 %
Extraction speed 9.2 X
Track quality 100.0 %
Test CRC 8B320F49
Copy CRC 8B320F49
Accurately ripped (confidence 3) [D525EB43] (AR v2)
Copy OK

Track 17

Filename D:\#New wav + flac II\Bobby Hatfield - The Other Brother A Solo Anthology\17. Bobby Hatfield - The Promised Land.wav

Pre-gap length 0:00:01.65

Peak level 95.5 %
Extraction speed 7.6 X
Track quality 99.9 %
Test CRC 11DB2F6F
Copy CRC 11DB2F6F
Accurately ripped (confidence 3) [A46F4750] (AR v2)
Copy OK

Track 18

Filename D:\#New wav + flac II\Bobby Hatfield - The Other Brother A Solo Anthology\18. Bobby Hatfield - Shuckin' and Jivin'.wav

Pre-gap length 0:00:02.01

Peak level 95.5 %
Extraction speed 7.2 X
Track quality 99.9 %
Test CRC 43B63403
Copy CRC 43B63403
Accurately ripped (confidence 3) [484408F3] (AR v2)
Copy OK

Track 19

Filename D:\#New wav + flac II\Bobby Hatfield - The Other Brother A Solo Anthology\19. Bobby Hatfield - I Saw a Lark.wav

Pre-gap length 0:00:01.92

Peak level 95.5 %
Extraction speed 10.2 X
Track quality 100.0 %
Test CRC 085265B7
Copy CRC 085265B7
Accurately ripped (confidence 3) [6A1B58C6] (AR v2)
Copy OK

Track 20

Filename D:\#New wav + flac II\Bobby Hatfield - The Other Brother A Solo Anthology\20. Bobby Hatfield - You Get a Lot to Like.wav

Pre-gap length 0:00:02.06

Peak level 95.5 %
Extraction speed 10.3 X
Track quality 100.0 %
Test CRC 723A95F2
Copy CRC 723A95F2
Accurately ripped (confidence 3) [AB10F4B7] (AR v2)
Copy OK

Track 21

Filename D:\#New wav + flac II\Bobby Hatfield - The Other Brother A Solo Anthology\21. Bobby Hatfield - Show Me the Sunshine.wav

Pre-gap length 0:00:02.01

Peak level 95.5 %
Extraction speed 9.3 X
Track quality 99.9 %
Test CRC 7511AA50
Copy CRC 7511AA50
Accurately ripped (confidence 3) [70FE9D1C] (AR v2)
Copy OK

Track 22

Filename D:\#New wav + flac II\Bobby Hatfield - The Other Brother A Solo Anthology\22. Bobby Hatfield - The Feeling Is Right.wav

Pre-gap length 0:00:01.80

Peak level 95.5 %
Extraction speed 10.4 X
Track quality 100.0 %
Test CRC C22152C0
Copy CRC C22152C0
Accurately ripped (confidence 3) [C5F80677] (AR v2)
Copy OK

Track 23

Filename D:\#New wav + flac II\Bobby Hatfield - The Other Brother A Solo Anthology\23. Bobby Hatfield - Messin' in Muscle Shoals.wav

Pre-gap length 0:00:02.14

Peak level 95.5 %
Extraction speed 10.7 X
Track quality 100.0 %
Test CRC 0B8F2154
Copy CRC 0B8F2154
Accurately ripped (confidence 3) [7B992180] (AR v2)
Copy OK

Track 24

Filename D:\#New wav + flac II\Bobby Hatfield - The Other Brother A Solo Anthology\24. Bobby Hatfield - Woman You Got No Soul.wav

Pre-gap length 0:00:02.00

Peak level 95.5 %
Extraction speed 10.4 X
Track quality 100.0 %
Test CRC 51279B18
Copy CRC 51279B18
Accurately ripped (confidence 3) [2BAE28CA] (AR v2)
Copy OK


All tracks accurately ripped

No errors occurred

End of status report

–– CUETools DB Plugin V2.1.6

[CTDB TOCID: plseLs.kMfRYYmCHmmOZELb0Dtc-] found
Submit result: plseLs.kMfRYYmCHmmOZELb0Dtc- has been confirmed
Track | CTDB Status
1 | (4/4) Accurately ripped
2 | (4/4) Accurately ripped
3 | (4/4) Accurately ripped
4 | (4/4) Accurately ripped
5 | (4/4) Accurately ripped
6 | (4/4) Accurately ripped
7 | (4/4) Accurately ripped
8 | (4/4) Accurately ripped
9 | (4/4) Accurately ripped
10 | (4/4) Accurately ripped
11 | (4/4) Accurately ripped
12 | (4/4) Accurately ripped
13 | (4/4) Accurately ripped
14 | (4/4) Accurately ripped
15 | (4/4) Accurately ripped
16 | (4/4) Accurately ripped
17 | (4/4) Accurately ripped
18 | (4/4) Accurately ripped
19 | (4/4) Accurately ripped
20 | (4/4) Accurately ripped
21 | (4/4) Accurately ripped
22 | (4/4) Accurately ripped
23 | (4/4) Accurately ripped
24 | (4/4) Accurately ripped


==== Log checksum 566E27EF183E641E13DDB60993803F979C0C36377FE5CCD0C3C932D6ABE1268C ====

Thanks to the Original ripper !