Subcategories
Tags
Language
Tags

Bow Wow Wow - See Jungle! See Jungle! Go Join Your Gang (1981) {2CD Set, Cherry Red Remaster CDBRED452 rel 2010}

Posted By: ruskaval
Bow Wow Wow - See Jungle! See Jungle! Go Join Your Gang (1981) {2CD Set, Cherry Red Remaster CDBRED452 rel 2010}

Bow Wow Wow - See Jungle! See Jungle! Go Join Your Gang (1981) {2CD Set, Cherry Red Remaster CDBRED452 rel 2010}
EAC rip (secure mode) | FLAC (tracks)+CUE+LOG -> 464 Mb | MP3 @320 -> 171 Mb
Full Artwork @ 600 dpi (png) -> 294 Mb | 5% repair rar
© 1981, 2010 Cherry Red Records / Sony Music | CDBRED452
Rock / New Wave / Dance Rock

Malcolm McLaren, of Sex Pistols fame, made teenager Annabella Lwin the centerpiece of his next creation. Backing her with members of Adam & the Ants, they were dubbed Bow Wow Wow and released See Jungle! See Jungle! in 1981. The focus was on style and the music was a mix of dance and new wave always with a heavy nod toward percussion. The results are mixed and you sometimes have the feeling that you are hearing the same song repeated. However, it's difficult not to find yourself drumming your fingers to the frantic beats. Lwin makes sure that you never forget that she's only 15, either through her vocal delivery or her outright declarations (as on "Chihuahua"). The band also serves up an interesting spaghetti Western instrumental on "Orang-outang" and everything falls into place on "Go Wild in the Country," with Lwin's uninhibited shrieks touting the merits of getting away from it all.
Bow Wow Wow - See Jungle! See Jungle! Go Join Your Gang (1981) {2CD Set, Cherry Red Remaster CDBRED452 rel 2010}

Bow Wow Wow was Malcolm McLaren's (RIP Bless him) first big project after the Sex Pistols imploded, and the erstwhile media manipulator made sure his new band bounded onto the scene with a whole gaggle of gimmicks. The first was Annabella Lwin, a 14-year-old Burmese immigrant McLaren found working in a laundry and decided to remake into a post punk goddess. Then there was what used to be Adam's Ants, the trio of Matthew Ashman (guitar), Leroy Gorman (bass), and Dave Barbarossa (drums), whom McLaren introduced to African music – specifically, the sound of Burundi tribal drumming – then induced to dump Adam and follow him.

But it was the product that ultimately pulled the package together. Bow Wow Wow's cassette-only first single, a home-taping anthem called C-30, C-60, C-90 Go! . RCA turned the Bows over to a proven hit-maker: Kenny Laguna, who converted the band's Burundi beat into a jazzy Bo Diddley groove and gave it a near-hit with a remake of the Strangeloves' I Want Candy . This collection brings together the best cuts from the BMG years with b-sides and rare recordings, Sleeve notes by Mojo s Daryl Easlea provide a great insight into the history of the band and with the passing of their manager Malcolm McLaren there is no better time to revisit the great recordings by this band.
Bow Wow Wow - See Jungle! See Jungle! Go Join Your Gang (1981) {2CD Set, Cherry Red Remaster CDBRED452 rel 2010}


tracklist:

CD1

01. Jungle Boy
02. Chihuahua
03. Prince Of Darkness (Sinner! Sinner! Sinner!) (Instrumental)
04. Mickey Put It Down
05. (I'm a) TV Savage
06. Elimination Dancing
07. Golly! Golly! Go Buddy!
08. King Kong
09. Go Wild In The Country
10. I'm Not A Know It All
11. Why Are Babies So Wise?
12. Orang-Outang
13. Hello, Hello Daddy (I'll Sacrifice You)

CD2
01. Prince Of Darkness (Sinner! Sinner! Sinner!)
02. El Bosso Dicho
03. I Want Candy
04. Louis Quatorze
05. Mile High Club
06. Louis Quatorze
07. Mile High Club
08. Teenage Queen
09. Joy Of Eating Raw Flesh
10. Cowboy

Exact Audio Copy V0.99 prebeta 5 from 4. May 2009

EAC extraction logfile from 17. November 2010, 16:21

Bow Wow Wow / See Jungle! See Jungle! Go Join The Gang (2010 Cherry Red Reissue) [Disc 1]

Used drive : HL-DT-STDVD-ROM DH10N Adapter: 5 ID: 0

Read mode : Secure
Utilize accurate stream : Yes
Defeat audio cache : Yes
Make use of C2 pointers : No

Read offset correction : 102
Overread into Lead-In and Lead-Out : No
Fill up missing offset samples with silence : Yes
Delete leading and trailing silent blocks : No
Null samples used in CRC calculations : Yes
Used interface : Installed external ASPI interface
Gap handling : Appended to previous track

Used output format : User Defined Encoder
Selected bitrate : 128 kBit/s
Quality : High
Add ID3 tag : No
Command line compressor : C:\Program Files (x86)\Exact Audio Copy\Flac\flac.exe
Additional command line options : -8 -V -T "Artist=%a" -T "Title=%t" -T "Album=%g" -T "Date=%y" -T "Tracknumber=%n" -T "Total Tracks=%x" -T "Genre=%m" -T "Albumartist=%v" -T "Album Artist=%v" -T "Comment=EAC Secure Mode, Test & Copy, AccurateRip, FLAC -8" %


TOC of the extracted CD

Track | Start | Length | Start sector | End sector
––––––––––––––––––––––––––––-
1 | 0:00.00 | 2:46.58 | 0 | 12507
2 | 2:46.58 | 4:15.24 | 12508 | 31656
3 | 7:02.07 | 2:21.59 | 31657 | 42290
4 | 9:23.66 | 3:03.70 | 42291 | 56085
5 | 12:27.61 | 2:40.40 | 56086 | 68125
6 | 15:08.26 | 3:04.55 | 68126 | 81980
7 | 18:13.06 | 2:38.20 | 81981 | 93850
8 | 20:51.26 | 2:20.08 | 93851 | 104358
9 | 23:11.34 | 2:44.47 | 104359 | 116705
10 | 25:56.06 | 2:54.61 | 116706 | 129816
11 | 28:50.67 | 2:55.39 | 129817 | 142980
12 | 31:46.31 | 2:44.03 | 142981 | 155283
13 | 34:30.34 | 4:29.58 | 155284 | 175516


Track 1

Filename F:\Exact Audio Copy (Secure Rip)\01 - Jungle Boy.wav

Pre-gap length 0:00:02.00

Peak level 97.7 %
Track quality 100.0 %
Test CRC A9C31BF4
Copy CRC A9C31BF4
Track not present in AccurateRip database
Copy OK

Track 2

Filename F:\Exact Audio Copy (Secure Rip)\02 - Chihuahua.wav

Pre-gap length 0:00:02.04

Peak level 81.5 %
Track quality 100.0 %
Test CRC D1F7FF31
Copy CRC D1F7FF31
Track not present in AccurateRip database
Copy OK

Track 3

Filename F:\Exact Audio Copy (Secure Rip)\03 - Prince Of Darkness (Sinner! Sinner! Sinner!) (Instrumental Version).wav

Pre-gap length 0:00:01.36

Peak level 97.7 %
Track quality 99.9 %
Test CRC 0FF6D73A
Copy CRC 0FF6D73A
Track not present in AccurateRip database
Copy OK

Track 4

Filename F:\Exact Audio Copy (Secure Rip)\04 - Mickey Put It Down.wav

Pre-gap length 0:00:01.66

Peak level 97.7 %
Track quality 99.9 %
Test CRC A4E14C9F
Copy CRC A4E14C9F
Track not present in AccurateRip database
Copy OK

Track 5

Filename F:\Exact Audio Copy (Secure Rip)\05 - (I'm A) T.V. Savage.wav

Pre-gap length 0:00:01.57

Peak level 97.7 %
Track quality 100.0 %
Test CRC A935EB8D
Copy CRC A935EB8D
Track not present in AccurateRip database
Copy OK

Track 6

Filename F:\Exact Audio Copy (Secure Rip)\06 - Elimination Dancing.wav

Pre-gap length 0:00:01.32

Peak level 97.7 %
Track quality 100.0 %
Test CRC EDDC4C71
Copy CRC EDDC4C71
Track not present in AccurateRip database
Copy OK

Track 7

Filename F:\Exact Audio Copy (Secure Rip)\07 - Golly! Golly! Go Buddy!.wav

Pre-gap length 0:00:00.84

Peak level 97.7 %
Track quality 100.0 %
Test CRC F7A22E98
Copy CRC F7A22E98
Track not present in AccurateRip database
Copy OK

Track 8

Filename F:\Exact Audio Copy (Secure Rip)\08 - King Kong.wav

Pre-gap length 0:00:02.13

Peak level 97.7 %
Track quality 99.9 %
Test CRC 16E5F6E4
Copy CRC 16E5F6E4
Track not present in AccurateRip database
Copy OK

Track 9

Filename F:\Exact Audio Copy (Secure Rip)\09 - Go Wild In The Country.wav

Pre-gap length 0:00:02.24

Peak level 97.7 %
Track quality 100.0 %
Test CRC 2A5EE13D
Copy CRC 2A5EE13D
Track not present in AccurateRip database
Copy OK

Track 10

Filename F:\Exact Audio Copy (Secure Rip)\10 - I'm Not A Know It All.wav

Pre-gap length 0:00:00.86

Peak level 97.7 %
Track quality 99.9 %
Test CRC 66D58533
Copy CRC 66D58533
Track not present in AccurateRip database
Copy OK

Track 11

Filename F:\Exact Audio Copy (Secure Rip)\11 - Why Are Babies So Wise.wav

Pre-gap length 0:00:01.68

Peak level 97.7 %
Track quality 100.0 %
Test CRC 81974CD6
Copy CRC 81974CD6
Track not present in AccurateRip database
Copy OK

Track 12

Filename F:\Exact Audio Copy (Secure Rip)\12 - Orang-Outang.wav

Pre-gap length 0:00:02.20

Peak level 97.7 %
Track quality 99.9 %
Test CRC 24192043
Copy CRC 24192043
Track not present in AccurateRip database
Copy OK

Track 13

Filename F:\Exact Audio Copy (Secure Rip)\13 - Hello, Hello Daddy (I'll Sacrifice You).wav

Pre-gap length 0:00:01.24

Peak level 97.7 %
Track quality 100.0 %
Test CRC 8AC7EFE8
Copy CRC 8AC7EFE8
Track not present in AccurateRip database
Copy OK


None of the tracks are present in the AccurateRip database

No errors occurred

End of status report

Exact Audio Copy V0.99 prebeta 5 from 4. May 2009

EAC extraction logfile from 17. November 2010, 17:19

Bow Wow Wow / See Jungle! See Jungle! Go Join The Gang (2010 Cherry Red Reissue) [Disc 2]

Used drive : HL-DT-STDVD-ROM DH10N Adapter: 5 ID: 0

Read mode : Secure
Utilize accurate stream : Yes
Defeat audio cache : Yes
Make use of C2 pointers : No

Read offset correction : 102
Overread into Lead-In and Lead-Out : No
Fill up missing offset samples with silence : Yes
Delete leading and trailing silent blocks : No
Null samples used in CRC calculations : Yes
Used interface : Installed external ASPI interface
Gap handling : Appended to previous track

Used output format : User Defined Encoder
Selected bitrate : 128 kBit/s
Quality : High
Add ID3 tag : No
Command line compressor : C:\Program Files (x86)\Exact Audio Copy\Flac\flac.exe
Additional command line options : -8 -V -T "Artist=%a" -T "Title=%t" -T "Album=%g" -T "Date=%y" -T "Tracknumber=%n" -T "Total Tracks=%x" -T "Genre=%m" -T "Albumartist=%v" -T "Album Artist=%v" -T "Comment=EAC Secure Mode, Test & Copy, AccurateRip, FLAC -8" %


TOC of the extracted CD

Track | Start | Length | Start sector | End sector
––––––––––––––––––––––––––––-
1 | 0:00.00 | 2:25.56 | 0 | 10930
2 | 2:25.56 | 2:13.25 | 10931 | 20930
3 | 4:39.06 | 2:46.67 | 20931 | 33447
4 | 7:25.73 | 2:51.42 | 33448 | 46314
5 | 10:17.40 | 3:30.12 | 46315 | 62076
6 | 13:47.52 | 2:41.13 | 62077 | 74164
7 | 16:28.65 | 4:03.48 | 74165 | 92437
8 | 20:32.38 | 3:25.41 | 92438 | 107853
9 | 23:58.04 | 3:26.06 | 107854 | 123309
10 | 27:24.10 | 3:32.20 | 123310 | 139229


Track 1

Filename F:\Exact Audio Copy (Secure Rip)\01 - Prince Of Darkness (Sinner! Sinner! Sinner!).wav

Pre-gap length 0:00:02.00

Peak level 97.7 %
Track quality 100.0 %
Test CRC ED5F1BA3
Copy CRC ED5F1BA3
Track not present in AccurateRip database
Copy OK

Track 2

Filename F:\Exact Audio Copy (Secure Rip)\02 - El Bosso Dicho.wav

Pre-gap length 0:00:02.69

Peak level 97.4 %
Track quality 100.0 %
Test CRC 650F6FF3
Copy CRC 650F6FF3
Track not present in AccurateRip database
Copy OK

Track 3

Filename F:\Exact Audio Copy (Secure Rip)\03 - I Want Candy.wav

Pre-gap length 0:00:02.93

Peak level 97.7 %
Track quality 100.0 %
Test CRC 3A15DC82
Copy CRC 3A15DC82
Track not present in AccurateRip database
Copy OK

Track 4

Filename F:\Exact Audio Copy (Secure Rip)\04 - Louis Quatorze.wav

Pre-gap length 0:00:03.16

Peak level 97.7 %
Track quality 100.0 %
Test CRC 31900C33
Copy CRC 31900C33
Track not present in AccurateRip database
Copy OK

Track 5

Filename F:\Exact Audio Copy (Secure Rip)\05 - Mile High Club.wav

Pre-gap length 0:00:03.01

Peak level 97.7 %
Track quality 99.9 %
Test CRC 8384B10D
Copy CRC 8384B10D
Track not present in AccurateRip database
Copy OK

Track 6

Filename F:\Exact Audio Copy (Secure Rip)\06 - Louis Quatorze.wav

Pre-gap length 0:00:02.93

Peak level 87.0 %
Track quality 100.0 %
Test CRC 71C87229
Copy CRC 71C87229
Track not present in AccurateRip database
Copy OK

Track 7

Filename F:\Exact Audio Copy (Secure Rip)\07 - Mile High Club.wav

Pre-gap length 0:00:03.10

Peak level 97.7 %
Track quality 100.0 %
Test CRC 0259323C
Copy CRC 0259323C
Track not present in AccurateRip database
Copy OK

Track 8

Filename F:\Exact Audio Copy (Secure Rip)\08 - Teenage Queen.wav

Pre-gap length 0:00:03.16

Peak level 97.7 %
Track quality 99.9 %
Test CRC DEE464C0
Copy CRC DEE464C0
Track not present in AccurateRip database
Copy OK

Track 9

Filename F:\Exact Audio Copy (Secure Rip)\09 - Joy Of Eating Raw Flesh.wav

Pre-gap length 0:00:02.92

Peak level 97.7 %
Track quality 100.0 %
Test CRC FDB71E6F
Copy CRC FDB71E6F
Track not present in AccurateRip database
Copy OK

Track 10

Filename F:\Exact Audio Copy (Secure Rip)\10 - Cowboy.wav

Pre-gap length 0:00:02.96

Peak level 97.7 %
Track quality 100.0 %
Test CRC 07BEFCA1
Copy CRC 07BEFCA1
Track not present in AccurateRip database
Copy OK


None of the tracks are present in the AccurateRip database

No errors occurred

End of status report


Bow Wow Wow - See Jungle! See Jungle! Go Join Your Gang (1981) {2CD Set, Cherry Red Remaster CDBRED452 rel 2010}

Bow Wow Wow - See Jungle! See Jungle! Go Join Your Gang (1981) {2CD Set, Cherry Red Remaster CDBRED452 rel 2010}



===