Tags
Language
Tags

Bruce Springsteen - The Album Collection Vol. 2, 1987-1996 (2018) {7CD Box Set Sony Music Japan Mini LP SICP 5791~7}

Posted By:
Bruce Springsteen - The Album Collection Vol. 2, 1987-1996 (2018) {7CD Box Set Sony Music Japan Mini LP SICP 5791~7}

Bruce Springsteen - The Album Collection Vol. 2, 1987-1996 (2018) {7CD Box Set Sony Music Japan Mini LP SICP 5791~7}
EAC rip (secure mode) | FLAC (tracks)+CUE+LOG -> 1.98 Gb | MP3 @320 -> 730 Mb
Full Artwork @ 600 dpi (jpg) -> 1.29 Gb | 5% repair rar
© 1987-96, 2018 Columbia / Sony Music Japan | SICP 5791~7
Rock / Contemporary Rock / Heartland Rock

Cardboard sleeve box set release from Bruce Springsteen contains five albums released from "Tunnel of Love" (1987) through "The Ghost of Tom Joad" (1995) as well as two EP works "Chimes Of Freedom" & "Blood Brothers." All albums are remastered for this release by Bob Ludwig and Toby Scott. Comes with a deluxe booklet. Each mini LP faithfully replicates it's original vinyl design. Contains 60-page booklet with rare photos, memorabilia and newspaper clippings from the years 1987-1996.
Bruce Springsteen - The Album Collection Vol. 2, 1987-1996 (2018) {7CD Box Set Sony Music Japan Mini LP SICP 5791~7}

The reason for the higher prices on this box set is because it’s a limited edition import from Japan and is not available in the US. I wanted to wait and see if this was going to be available here in the US (as volume one was) either on CD or digitally, but I haven’t heard anything, which leads me to suspect that it won’t.

All that being said, this box set is gorgeous. Each CD is packaged like the original CD or vinyl album, with artwork and lyric inserts. Being a Japanese issue, all have the OBIs as well. There’s also a fantastic booklet spanning the releases and the press involved with each.

Bruce Springsteen - The Album Collection Vol. 2, 1987-1996 (2018) {7CD Box Set Sony Music Japan Mini LP SICP 5791~7}


And this is a 7 disc release, not 5, including: Tunnel of Love, Human Touch, Lucky Town, Mtv Plugged, The Ghost of Tom Joad, Chimes of Freedom EP, and Blood Brothers EP.

The most important reason for purchasing this is that all the above albums have (finally!) been remastered! Tunnel has always been in need of remastering, and Human Touch and Lucky Town both benefit from the tweaking as well. Finally, the EPs sound incredible as well.
Bruce Springsteen - The Album Collection Vol. 2, 1987-1996 (2018) {7CD Box Set Sony Music Japan Mini LP SICP 5791~7}

For 'The Album Collection Vol. 2,' remastered albums from acclaimed engineer Bob Ludwig and Springsteen's longtime engineer Toby Scott have been pressed on vinyl for the first time. The albums were transferred from the original analogue masters using the Plangent Process playback system.

Bruce Springsteen - The Album Collection Vol. 2, 1987-1996 (2018) {7CD Box Set Sony Music Japan Mini LP SICP 5791~7}


All of Bruce Springsteen's studio albums from this period were certified gold, platinumor multiplatinum by the RIAA, with three reaching the Top 5 of the Billboard 200. The ‘Vol. 2’ collection follows the 2014 release of 'Bruce Springsteen: The Album Collection Vol. 1, 1973-1984,’ which included newly remastered editions of the first seven Bruce Springsteen studio albums.
Bruce Springsteen - The Album Collection Vol. 2, 1987-1996 (2018) {7CD Box Set Sony Music Japan Mini LP SICP 5791~7}


aquariumdrunkard.com INFO

TRACKLIST:

Disc 1: Tunnel Of Love (1987)

1-1 Ain't Got You
1-2 Tougher Than The Rest
1-3 All That Heaven Will Allow
1-4 Spare Parts
1-5 Cautious Man
1-6 Walk Like A Man
1-7 Tunnel Of Love
1-8 Two Faces
1-9 Brilliant Disguise
1-10 One Step Up
1-11 When You're Alone
1-12 Valentine's Day

Disc 2: Human Touch (1992)
2-1 Human Touch
2-2 Soul Driver
2-3 57 Channels (And Nothin' On)
2-4 Cross My Heart
2-5 Gloria's Eyes
2-6 With Every Wish
2-7 Roll Of The Dice
2-8 Real World
2-9 All Or Nothin' At All
2-10 Man's Job
2-11 I Wish I Were Blind
2-12 The Long Goodbye
2-13 Real Man
2-14 Pony Boy

Disc 3: Lucky Town (1992)
3-1 Better Days
3-2 Lucky Town
3-3 Local Hero
3-4 If I Should Fall Behind
3-5 Leap Of Faith
3-6 The Big Muddy
3-7 Living Proof
3-8 Book Of Dreams
3-9 Souls Of The Departed
3-10 My Beautiful Reward

Disc 4: In Concert - Mtv Plugged (1992)
4-1 Red Headed Woman
4-2 Better Days
4-3 Atlantic City
4-4 Darkness On The Edge Of Town
4-5 Man's Job
4-6 Human Touch
4-7 Lucky Town
4-8 I Wish I Were Blind
4-9 Thunder Road
4-10 Light Of Day
4-11 If I Should Fall Behind
4-12 Living Proof
4-13 My Beautiful Reward

Disc 5: The Ghost Of Tom Joad (1995)
5-1 The Ghost Of Tom Joad
5-2 Straight Time
5-3 Highway 29
5-4 Youngstown
5-5 Sinaloa Cowboys
5-6 The Line
5-7 Balboa Park
5-8 Dry Lightning
5-9 The New Timer
5-10 Across The Border
5-11 Galveston Bay
5-12 My Best Was Never Good Enough

Disc 6: Chimes Of Freedom EP (1988)
6-1 Tougher Than The Rest (Live)
6-2 Be True (Live)
6-3 Chimes Of Freedom (Live)
6-4 Born To Run (Live - Acoustic)

Disc 7: Blood Brothers EP (1996)
7-1 Blood Brothers (Alternate Version)
7-2 High Hopes
7-3 Murder Incorporated (Live From Tramps)
7-4 Secret Garden (With Strings)
7-5 Without You

Exact Audio Copy V1.3 from 2. September 2016

EAC extraction logfile from 8. October 2018, 22:19

Bruce Springsteen / Tunnel Of Love (The Album Collection Vol 2 1987-1996 Disc 1of7) [Japan]

Used drive : ASUS DRW-24F1ST a Adapter: 1 ID: 0

Read mode : Secure
Utilize accurate stream : Yes
Defeat audio cache : Yes
Make use of C2 pointers : No

Read offset correction : 6
Overread into Lead-In and Lead-Out : No
Fill up missing offset samples with silence : Yes
Delete leading and trailing silent blocks : No
Null samples used in CRC calculations : Yes
Used interface : Native Win32 interface for Win NT & 2000
Gap handling : Appended to previous track

Used output format : User Defined Encoder
Selected bitrate : 128 kBit/s
Quality : High
Add ID3 tag : No
Command line compressor : C:\Program Files (x86)\Exact Audio Copy\FLAC\FLAC.EXE
Additional command line options : -8 -V -T "ARTIST=%artist%" -T "TITLE=%title%" -T "ALBUM=%albumtitle%" -T "DATE=%year%" -T "TRACKNUMBER=%tracknr%" -T "TOTALTRACKS=%numtracks%" -T "GENRE=%genre%" -T "ALBUMARTIST=%albumartist%" -T "ALBUM ARTIST=%albumartist%" -T "COMMENT=EAC Secure Mode, Test & Copy, AccurateRip, FLAC -8" %source%


TOC of the extracted CD

Track | Start | Length | Start sector | End sector
––––––––––––––––––––––––––––-
1 | 0:00.00 | 2:10.65 | 0 | 9814
2 | 2:10.65 | 4:35.40 | 9815 | 30479
3 | 6:46.30 | 2:39.70 | 30480 | 42474
4 | 9:26.25 | 3:44.33 | 42475 | 59307
5 | 13:10.58 | 3:58.30 | 59308 | 77187
6 | 17:09.13 | 3:45.22 | 77188 | 94084
7 | 20:54.35 | 5:12.55 | 94085 | 117539
8 | 26:07.15 | 3:03.28 | 117540 | 131292
9 | 29:10.43 | 4:17.07 | 131293 | 150574
10 | 33:27.50 | 4:22.23 | 150575 | 170247
11 | 37:49.73 | 3:24.05 | 170248 | 185552
12 | 41:14.03 | 5:12.73 | 185553 | 209025


Track 1

Filename L:\EAC\01 - Ain't Got You.wav

Pre-gap length 0:00:02.00

Peak level 99.0 %
Extraction speed 3.7 X
Track quality 100.0 %
Test CRC 743FA4FE
Copy CRC 743FA4FE
Accurately ripped (confidence 2) [CD189C34] (AR v2)
Copy OK

Track 2

Filename L:\EAC\02 - Tougher Than The Rest.wav

Pre-gap length 0:00:03.27

Peak level 100.0 %
Extraction speed 4.1 X
Track quality 99.9 %
Test CRC 7F755D10
Copy CRC 7F755D10
Accurately ripped (confidence 2) [7816C115] (AR v2)
Copy OK

Track 3

Filename L:\EAC\03 - All That Heaven Will Allow.wav

Peak level 100.0 %
Extraction speed 4.5 X
Track quality 100.0 %
Test CRC 6183CB02
Copy CRC 6183CB02
Accurately ripped (confidence 2) [22B77177] (AR v2)
Copy OK

Track 4

Filename L:\EAC\04 - Spare Parts.wav

Peak level 99.9 %
Extraction speed 4.4 X
Track quality 99.9 %
Test CRC DB2925BB
Copy CRC DB2925BB
Accurately ripped (confidence 2) [E7367710] (AR v2)
Copy OK

Track 5

Filename L:\EAC\05 - Cautious Man.wav

Pre-gap length 0:00:04.10

Peak level 98.8 %
Extraction speed 4.8 X
Track quality 99.9 %
Test CRC EA1E9571
Copy CRC EA1E9571
Accurately ripped (confidence 2) [92E2187B] (AR v2)
Copy OK

Track 6

Filename L:\EAC\06 - Walk Like A Man.wav

Peak level 98.9 %
Extraction speed 5.7 X
Track quality 100.0 %
Test CRC 4FDA691F
Copy CRC 4FDA691F
Accurately ripped (confidence 2) [67413DA0] (AR v2)
Copy OK

Track 7

Filename L:\EAC\07 - Tunnel Of Love.wav

Pre-gap length 0:00:06.00

Peak level 98.9 %
Extraction speed 5.8 X
Track quality 99.9 %
Test CRC A300FC99
Copy CRC A300FC99
Accurately ripped (confidence 2) [45F25572] (AR v2)
Copy OK

Track 8

Filename L:\EAC\08 - Two Faces.wav

Peak level 98.8 %
Extraction speed 6.0 X
Track quality 100.0 %
Test CRC A51337B7
Copy CRC A51337B7
Accurately ripped (confidence 2) [1BDC72D1] (AR v2)
Copy OK

Track 9

Filename L:\EAC\09 - Brilliant Disguise.wav

Peak level 99.0 %
Extraction speed 6.4 X
Track quality 100.0 %
Test CRC C6279E1D
Copy CRC C6279E1D
Accurately ripped (confidence 2) [985D8C41] (AR v2)
Copy OK

Track 10

Filename L:\EAC\10 - One Step Up.wav

Peak level 98.8 %
Extraction speed 6.9 X
Track quality 100.0 %
Test CRC 5CE5FBE5
Copy CRC 5CE5FBE5
Accurately ripped (confidence 2) [7E81E058] (AR v2)
Copy OK

Track 11

Filename L:\EAC\11 - When You're Alone.wav

Peak level 98.8 %
Extraction speed 6.9 X
Track quality 100.0 %
Test CRC 9F023AD1
Copy CRC 9F023AD1
Accurately ripped (confidence 2) [4E08D789] (AR v2)
Copy OK

Track 12

Filename L:\EAC\12 - Valentine's Day.wav

Peak level 98.8 %
Extraction speed 7.5 X
Track quality 100.0 %
Test CRC 6DF22DE7
Copy CRC 6DF22DE7
Accurately ripped (confidence 2) [1061AF65] (AR v2)
Copy OK


All tracks accurately ripped

No errors occurred

End of status report

–– CUETools DB Plugin V2.1.6

[CTDB TOCID: 4dlZYFe8sQeZ9S9SWXWPb8OIqVA-] found
Submit result: 4dlZYFe8sQeZ9S9SWXWPb8OIqVA- has been confirmed
Track | CTDB Status
1 | (8/8) Accurately ripped
2 | (8/8) Accurately ripped
3 | (8/8) Accurately ripped
4 | (8/8) Accurately ripped
5 | (8/8) Accurately ripped
6 | (8/8) Accurately ripped
7 | (8/8) Accurately ripped
8 | (8/8) Accurately ripped
9 | (8/8) Accurately ripped
10 | (8/8) Accurately ripped
11 | (8/8) Accurately ripped
12 | (8/8) Accurately ripped


==== Log checksum 6820BE7A4E04265256E0CC0EC31B2552DCC055B60485A68F70E9B859CE495896 ====

–––––––-

Exact Audio Copy V1.3 from 2. September 2016

EAC extraction logfile from 9. October 2018, 0:41

Bruce Springsteen / Human Touch (The Album Collection Vol 2 1987-1996 Disc 2of7) [Japan]

Used drive : ASUS DRW-24F1ST a Adapter: 1 ID: 0

Read mode : Secure
Utilize accurate stream : Yes
Defeat audio cache : Yes
Make use of C2 pointers : No

Read offset correction : 6
Overread into Lead-In and Lead-Out : No
Fill up missing offset samples with silence : Yes
Delete leading and trailing silent blocks : No
Null samples used in CRC calculations : Yes
Used interface : Native Win32 interface for Win NT & 2000
Gap handling : Appended to previous track

Used output format : User Defined Encoder
Selected bitrate : 128 kBit/s
Quality : High
Add ID3 tag : No
Command line compressor : C:\Program Files (x86)\Exact Audio Copy\FLAC\FLAC.EXE
Additional command line options : -8 -V -T "ARTIST=%artist%" -T "TITLE=%title%" -T "ALBUM=%albumtitle%" -T "DATE=%year%" -T "TRACKNUMBER=%tracknr%" -T "TOTALTRACKS=%numtracks%" -T "GENRE=%genre%" -T "ALBUMARTIST=%albumartist%" -T "ALBUM ARTIST=%albumartist%" -T "COMMENT=EAC Secure Mode, Test & Copy, AccurateRip, FLAC -8" %source%


TOC of the extracted CD

Track | Start | Length | Start sector | End sector
––––––––––––––––––––––––––––-
1 | 0:00.00 | 6:31.50 | 0 | 29374
2 | 6:31.50 | 4:39.30 | 29375 | 50329
3 | 11:11.05 | 2:28.45 | 50330 | 61474
4 | 13:39.50 | 3:51.52 | 61475 | 78851
5 | 17:31.27 | 3:46.11 | 78852 | 95812
6 | 21:17.38 | 4:39.27 | 95813 | 116764
7 | 25:56.65 | 4:17.68 | 116765 | 136107
8 | 30:14.58 | 5:26.70 | 136108 | 160627
9 | 35:41.53 | 3:23.27 | 160628 | 175879
10 | 39:05.05 | 4:37.70 | 175880 | 196724
11 | 43:43.00 | 4:48.58 | 196725 | 218382
12 | 48:31.58 | 3:30.15 | 218383 | 234147
13 | 52:01.73 | 4:33.10 | 234148 | 254632
14 | 56:35.08 | 2:14.23 | 254633 | 264705


Track 1

Filename L:\EAC\01 - Human Touch.wav

Pre-gap length 0:00:02.00

Peak level 100.0 %
Extraction speed 4.6 X
Track quality 100.0 %
Test CRC B2150425
Copy CRC B2150425
Accurately ripped (confidence 2) [5F27FCE9] (AR v2)
Copy OK

Track 2

Filename L:\EAC\02 - Soul Driver.wav

Pre-gap length 0:00:01.53

Peak level 99.5 %
Extraction speed 5.0 X
Track quality 100.0 %
Test CRC 9959FB70
Copy CRC 9959FB70
Accurately ripped (confidence 2) [D835279B] (AR v2)
Copy OK

Track 3

Filename L:\EAC\03 - 57 Channels (And Nothin' On).wav

Pre-gap length 0:00:01.70

Peak level 98.8 %
Extraction speed 4.7 X
Track quality 100.0 %
Test CRC 78D725DB
Copy CRC 78D725DB
Accurately ripped (confidence 2) [A761F4A6] (AR v2)
Copy OK

Track 4

Filename L:\EAC\04 - Cross My Heart.wav

Pre-gap length 0:00:01.60

Peak level 99.7 %
Extraction speed 5.4 X
Track quality 100.0 %
Test CRC 3CFAA879
Copy CRC 3CFAA879
Accurately ripped (confidence 2) [9A048B89] (AR v2)
Copy OK

Track 5

Filename L:\EAC\05 - Gloria's Eyes.wav

Pre-gap length 0:00:01.59

Peak level 100.0 %
Extraction speed 5.6 X
Track quality 100.0 %
Test CRC E187CC0E
Copy CRC E187CC0E
Accurately ripped (confidence 2) [9B389A82] (AR v2)
Copy OK

Track 6

Filename L:\EAC\06 - With Every Wish.wav

Pre-gap length 0:00:02.58

Peak level 75.8 %
Extraction speed 6.1 X
Track quality 100.0 %
Test CRC 9D889C46
Copy CRC 9D889C46
Accurately ripped (confidence 2) [9B54A62D] (AR v2)
Copy OK

Track 7

Filename L:\EAC\07 - Roll Of The Dice.wav

Pre-gap length 0:00:02.05

Peak level 99.8 %
Extraction speed 6.4 X
Track quality 100.0 %
Test CRC 7F415382
Copy CRC 7F415382
Accurately ripped (confidence 2) [C9F5A026] (AR v2)
Copy OK

Track 8

Filename L:\EAC\08 - Real World.wav

Pre-gap length 0:00:01.20

Peak level 100.0 %
Extraction speed 6.8 X
Track quality 100.0 %
Test CRC 7E9D3E08
Copy CRC 7E9D3E08
Accurately ripped (confidence 2) [B499E2BE] (AR v2)
Copy OK

Track 9

Filename L:\EAC\09 - All Or Nothin' At All.wav

Pre-gap length 0:00:01.15

Peak level 100.0 %
Extraction speed 6.7 X
Track quality 100.0 %
Test CRC FDF6F859
Copy CRC FDF6F859
Accurately ripped (confidence 2) [DD1EE0F0] (AR v2)
Copy OK

Track 10

Filename L:\EAC\10 - Man's Job.wav

Pre-gap length 0:00:02.46

Peak level 100.0 %
Extraction speed 7.2 X
Track quality 100.0 %
Test CRC AC2CD611
Copy CRC AC2CD611
Accurately ripped (confidence 2) [E7D7E941] (AR v2)
Copy OK

Track 11

Filename L:\EAC\11 - I Wish I Were Blind.wav

Pre-gap length 0:00:01.37

Peak level 100.0 %
Extraction speed 7.5 X
Track quality 100.0 %
Test CRC 65A390FB
Copy CRC 65A390FB
Accurately ripped (confidence 2) [972C599F] (AR v2)
Copy OK

Track 12

Filename L:\EAC\12 - The Long Goodbye.wav

Pre-gap length 0:00:01.35

Peak level 99.7 %
Extraction speed 7.3 X
Track quality 100.0 %
Test CRC F67C1445
Copy CRC F67C1445
Accurately ripped (confidence 2) [8CEE566D] (AR v2)
Copy OK

Track 13

Filename L:\EAC\13 - Real Man.wav

Pre-gap length 0:00:02.05

Peak level 99.7 %
Extraction speed 4.9 X
Track quality 100.0 %
Test CRC B404277D
Copy CRC B404277D
Accurately ripped (confidence 2) [E9995089] (AR v2)
Copy OK

Track 14

Filename L:\EAC\14 - Pony Boy.wav

Pre-gap length 0:00:03.03

Peak level 77.2 %
Extraction speed 4.4 X
Track quality 100.0 %
Test CRC 92649FA7
Copy CRC 92649FA7
Accurately ripped (confidence 2) [CCDDEC99] (AR v2)
Copy OK


All tracks accurately ripped

No errors occurred

End of status report

–– CUETools DB Plugin V2.1.6

[CTDB TOCID: yNesYkPWO6qz6PSMErFy3ulyTjg-] found
Submit result: yNesYkPWO6qz6PSMErFy3ulyTjg- has been confirmed
Track | CTDB Status
1 | (9/9) Accurately ripped
2 | (9/9) Accurately ripped
3 | (9/9) Accurately ripped
4 | (9/9) Accurately ripped
5 | (9/9) Accurately ripped
6 | (9/9) Accurately ripped
7 | (9/9) Accurately ripped
8 | (9/9) Accurately ripped
9 | (9/9) Accurately ripped
10 | (9/9) Accurately ripped
11 | (9/9) Accurately ripped
12 | (9/9) Accurately ripped
13 | (9/9) Accurately ripped
14 | (9/9) Accurately ripped


==== Log checksum 8B6F8E7FF996EB0B7EBDB3AC6E505972CEF4979A0A38753849A23D7CB6338486 ====

–––––––-

Exact Audio Copy V1.3 from 2. September 2016

EAC extraction logfile from 9. October 2018, 1:23

Bruce Springsteen / Lucky Town (The Album Collection Vol 2 1987-1996 Disc 3of7) [Japan]

Used drive : ASUS DRW-24F1ST a Adapter: 1 ID: 0

Read mode : Secure
Utilize accurate stream : Yes
Defeat audio cache : Yes
Make use of C2 pointers : No

Read offset correction : 6
Overread into Lead-In and Lead-Out : No
Fill up missing offset samples with silence : Yes
Delete leading and trailing silent blocks : No
Null samples used in CRC calculations : Yes
Used interface : Native Win32 interface for Win NT & 2000
Gap handling : Appended to previous track

Used output format : User Defined Encoder
Selected bitrate : 128 kBit/s
Quality : High
Add ID3 tag : No
Command line compressor : C:\Program Files (x86)\Exact Audio Copy\FLAC\FLAC.EXE
Additional command line options : -8 -V -T "ARTIST=%artist%" -T "TITLE=%title%" -T "ALBUM=%albumtitle%" -T "DATE=%year%" -T "TRACKNUMBER=%tracknr%" -T "TOTALTRACKS=%numtracks%" -T "GENRE=%genre%" -T "ALBUMARTIST=%albumartist%" -T "ALBUM ARTIST=%albumartist%" -T "COMMENT=EAC Secure Mode, Test & Copy, AccurateRip, FLAC -8" %source%


TOC of the extracted CD

Track | Start | Length | Start sector | End sector
––––––––––––––––––––––––––––-
1 | 0:00.00 | 4:08.18 | 0 | 18617
2 | 4:08.18 | 3:27.15 | 18618 | 34157
3 | 7:35.33 | 4:04.50 | 34158 | 52507
4 | 11:40.08 | 2:57.60 | 52508 | 65842
5 | 14:37.68 | 3:27.32 | 65843 | 81399
6 | 18:05.25 | 4:06.00 | 81400 | 99849
7 | 22:11.25 | 4:49.15 | 99850 | 121539
8 | 27:00.40 | 4:24.65 | 121540 | 141404
9 | 31:25.30 | 4:18.03 | 141405 | 160757
10 | 35:43.33 | 3:56.60 | 160758 | 178517


Track 1

Filename L:\EAC\01 - Better Days.wav

Pre-gap length 0:00:02.00

Peak level 100.0 %
Extraction speed 1.7 X
Track quality 100.0 %
Test CRC D543141F
Copy CRC D543141F
Accurately ripped (confidence 2) [D1BEA8FD] (AR v2)
Copy OK

Track 2

Filename L:\EAC\02 - Lucky Town.wav

Peak level 100.0 %
Extraction speed 1.8 X
Track quality 100.0 %
Test CRC B021F179
Copy CRC B021F179
Accurately ripped (confidence 2) [D7BE095F] (AR v2)
Copy OK

Track 3

Filename L:\EAC\03 - Local Hero.wav

Peak level 99.9 %
Extraction speed 1.8 X
Track quality 99.9 %
Test CRC ED8C16B7
Copy CRC ED8C16B7
Accurately ripped (confidence 2) [662A42BE] (AR v2)
Copy OK

Track 4

Filename L:\EAC\04 - If I Should Fall Behind.wav

Peak level 98.9 %
Extraction speed 2.1 X
Track quality 100.0 %
Test CRC 2A99F03F
Copy CRC 2A99F03F
Accurately ripped (confidence 2) [E403024F] (AR v2)
Copy OK

Track 5

Filename L:\EAC\05 - Leap Of Faith.wav

Peak level 100.0 %
Extraction speed 2.2 X
Track quality 100.0 %
Test CRC D20B1590
Copy CRC D20B1590
Accurately ripped (confidence 2) [3FBADEF6] (AR v2)
Copy OK

Track 6

Filename L:\EAC\06 - The Big Muddy.wav

Pre-gap length 0:00:02.67

Peak level 100.0 %
Extraction speed 2.1 X
Track quality 99.9 %
Test CRC 153EEA40
Copy CRC 153EEA40
Accurately ripped (confidence 2) [A772638E] (AR v2)
Copy OK

Track 7

Filename L:\EAC\07 - Living Proof.wav

Peak level 100.0 %
Extraction speed 2.6 X
Track quality 100.0 %
Test CRC 7725AF2B
Copy CRC 7725AF2B
Accurately ripped (confidence 2) [D5EB399F] (AR v2)
Copy OK

Track 8

Filename L:\EAC\08 - Book Of Dreams.wav

Pre-gap length 0:00:03.07

Peak level 95.1 %
Extraction speed 2.7 X
Track quality 100.0 %
Test CRC F9DD5502
Copy CRC F9DD5502
Accurately ripped (confidence 2) [4341579F] (AR v2)
Copy OK

Track 9

Filename L:\EAC\09 - Souls Of The Departed.wav

Pre-gap length 0:00:03.32

Peak level 99.6 %
Extraction speed 2.9 X
Track quality 100.0 %
Test CRC DCA490EE
Copy CRC DCA490EE
Accurately ripped (confidence 2) [C6C1580C] (AR v2)
Copy OK

Track 10

Filename L:\EAC\10 - My Beautiful Reward.wav

Peak level 98.8 %
Extraction speed 2.9 X
Track quality 100.0 %
Test CRC D9C18905
Copy CRC D9C18905
Accurately ripped (confidence 2) [E1491F9C] (AR v2)
Copy OK


All tracks accurately ripped

No errors occurred

End of status report

–– CUETools DB Plugin V2.1.6

[CTDB TOCID: N9mIICrWIw1mGF3PRbeAvkT0s6M-] found
Submit result: N9mIICrWIw1mGF3PRbeAvkT0s6M- has been confirmed
Track | CTDB Status
1 | (8/8) Accurately ripped
2 | (8/8) Accurately ripped
3 | (8/8) Accurately ripped
4 | (8/8) Accurately ripped
5 | (8/8) Accurately ripped
6 | (8/8) Accurately ripped
7 | (8/8) Accurately ripped
8 | (8/8) Accurately ripped
9 | (8/8) Accurately ripped
10 | (8/8) Accurately ripped


==== Log checksum 6E4790500DEAD78E036CEF8B2FD9199E20E361500767A12B3F5DF288D1BE979B ====

–––––––-

Exact Audio Copy V1.3 from 2. September 2016

EAC extraction logfile from 9. October 2018, 22:56

Bruce Springsteen / In Concert-MTV (Un)Plugged (The Album Collection Vol 2 1987-1996 Disc of7) [Japan]

Used drive : ASUS DRW-24F1ST a Adapter: 1 ID: 0

Read mode : Secure
Utilize accurate stream : Yes
Defeat audio cache : Yes
Make use of C2 pointers : No

Read offset correction : 6
Overread into Lead-In and Lead-Out : No
Fill up missing offset samples with silence : Yes
Delete leading and trailing silent blocks : No
Null samples used in CRC calculations : Yes
Used interface : Native Win32 interface for Win NT & 2000
Gap handling : Appended to previous track

Used output format : User Defined Encoder
Selected bitrate : 128 kBit/s
Quality : High
Add ID3 tag : No
Command line compressor : C:\Program Files (x86)\Exact Audio Copy\FLAC\FLAC.EXE
Additional command line options : -8 -V -T "ARTIST=%artist%" -T "TITLE=%title%" -T "ALBUM=%albumtitle%" -T "DATE=%year%" -T "TRACKNUMBER=%tracknr%" -T "TOTALTRACKS=%numtracks%" -T "GENRE=%genre%" -T "ALBUMARTIST=%albumartist%" -T "ALBUM ARTIST=%albumartist%" -T "COMMENT=EAC Secure Mode, Test & Copy, AccurateRip, FLAC -8" %source%


TOC of the extracted CD

Track | Start | Length | Start sector | End sector
––––––––––––––––––––––––––––-
1 | 0:00.00 | 2:51.05 | 0 | 12829
2 | 2:51.05 | 4:27.05 | 12830 | 32859
3 | 7:18.10 | 5:37.58 | 32860 | 58192
4 | 12:55.68 | 4:40.20 | 58193 | 79212
5 | 17:36.13 | 5:43.25 | 79213 | 104962
6 | 23:19.38 | 7:29.60 | 104963 | 138697
7 | 30:49.23 | 5:00.74 | 138698 | 161271
8 | 35:50.22 | 5:19.00 | 161272 | 185196
9 | 41:09.22 | 5:28.37 | 185197 | 209833
10 | 46:37.59 | 8:13.29 | 209834 | 246837
11 | 54:51.13 | 4:45.11 | 246838 | 268223
12 | 59:36.24 | 6:04.62 | 268224 | 295585
13 | 65:41.11 | 5:57.13 | 295586 | 322373


Track 1

Filename L:\EAC\01 - Red Headed Woman.wav

Pre-gap length 0:00:02.00

Peak level 99.3 %
Extraction speed 1.8 X
Track quality 100.0 %
Test CRC DF85916E
Copy CRC DF85916E
Accurately ripped (confidence 2) [5A188185] (AR v2)
Copy OK

Track 2

Filename L:\EAC\02 - Better Days.wav

Peak level 100.0 %
Extraction speed 2.1 X
Track quality 100.0 %
Test CRC 3BA1E13E
Copy CRC 3BA1E13E
Accurately ripped (confidence 2) [D03C0B29] (AR v2)
Copy OK

Track 3

Filename L:\EAC\03 - Atlantic City.wav

Peak level 100.0 %
Extraction speed 2.4 X
Track quality 100.0 %
Test CRC 8C5D29E6
Copy CRC 8C5D29E6
Accurately ripped (confidence 2) [EDE45150] (AR v2)
Copy OK

Track 4

Filename L:\EAC\04 - Darkness On The Edge Of Town.wav

Peak level 100.0 %
Extraction speed 2.5 X
Track quality 100.0 %
Test CRC 6421B513
Copy CRC 6421B513
Accurately ripped (confidence 2) [3C784DAB] (AR v2)
Copy OK

Track 5

Filename L:\EAC\05 - Man's Job.wav

Peak level 100.0 %
Extraction speed 2.8 X
Track quality 100.0 %
Test CRC A7ECC6F9
Copy CRC A7ECC6F9
Accurately ripped (confidence 2) [5D8B7AE2] (AR v2)
Copy OK

Track 6

Filename L:\EAC\06 - Human Touch.wav

Peak level 100.0 %
Extraction speed 3.1 X
Track quality 100.0 %
Test CRC 5AD65251
Copy CRC 5AD65251
Accurately ripped (confidence 2) [15F05B6E] (AR v2)
Copy OK

Track 7

Filename L:\EAC\07 - Lucky Town.wav

Peak level 100.0 %
Extraction speed 3.2 X
Track quality 100.0 %
Test CRC 30985BD9
Copy CRC 30985BD9
Accurately ripped (confidence 2) [65A7D708] (AR v2)
Copy OK

Track 8

Filename L:\EAC\08 - I Wish I Were Blind.wav

Peak level 100.0 %
Extraction speed 3.3 X
Track quality 100.0 %
Test CRC 6D15BDED
Copy CRC 6D15BDED
Accurately ripped (confidence 2) [C13F06F6] (AR v2)
Copy OK

Track 9

Filename L:\EAC\09 - Thunder Road.wav

Peak level 98.8 %
Extraction speed 3.5 X
Track quality 100.0 %
Test CRC 92C6555C
Copy CRC 92C6555C
Accurately ripped (confidence 2) [BEF04D8A] (AR v2)
Copy OK

Track 10

Filename L:\EAC\10 - Light Of Day.wav

Peak level 100.0 %
Extraction speed 3.8 X
Track quality 100.0 %
Test CRC 77559BCB
Copy CRC 77559BCB
Accurately ripped (confidence 2) [6117D2B9] (AR v2)
Copy OK

Track 11

Filename L:\EAC\11 - If I Should Fall Behind.wav

Peak level 98.9 %
Extraction speed 3.8 X
Track quality 100.0 %
Test CRC 8758C632
Copy CRC 8758C632
Accurately ripped (confidence 2) [B315FD27] (AR v2)
Copy OK

Track 12

Filename L:\EAC\12 - Living Proof.wav

Peak level 100.0 %
Extraction speed 3.9 X
Track quality 100.0 %
Test CRC C7AE7DE0
Copy CRC C7AE7DE0
Accurately ripped (confidence 2) [585AAA6B] (AR v2)
Copy OK

Track 13

Filename L:\EAC\13 - My Beautiful Reward.wav

Peak level 99.4 %
Extraction speed 4.1 X
Track quality 100.0 %
Test CRC 9BC01DA7
Copy CRC 9BC01DA7
Accurately ripped (confidence 2) [BF9136CF] (AR v2)
Copy OK


All tracks accurately ripped

No errors occurred

End of status report

–– CUETools DB Plugin V2.1.6

[CTDB TOCID: _woH7JYObx4I7cja2qOYqIXPJzE-] found
Submit result: _woH7JYObx4I7cja2qOYqIXPJzE- has been confirmed
Track | CTDB Status
1 | (8/8) Accurately ripped
2 | (8/8) Accurately ripped
3 | (8/8) Accurately ripped
4 | (8/8) Accurately ripped
5 | (8/8) Accurately ripped
6 | (8/8) Accurately ripped
7 | (8/8) Accurately ripped
8 | (8/8) Accurately ripped
9 | (8/8) Accurately ripped
10 | (8/8) Accurately ripped
11 | (8/8) Accurately ripped
12 | (8/8) Accurately ripped
13 | (8/8) Accurately ripped


==== Log checksum 77F65C2B076B8E82A8005234D28E26391173085077402975BBCB2C0081730CD2 ====

––––––––––

Exact Audio Copy V1.3 from 2. September 2016

EAC extraction logfile from 9. October 2018, 23:28

Bruce Springsteen / The Ghost of Tom Joad (The Album Collection Vol 2 1987-1996 Disc 5of7) [Japan]

Used drive : ASUS DRW-24F1ST a Adapter: 1 ID: 0

Read mode : Secure
Utilize accurate stream : Yes
Defeat audio cache : Yes
Make use of C2 pointers : No

Read offset correction : 6
Overread into Lead-In and Lead-Out : No
Fill up missing offset samples with silence : Yes
Delete leading and trailing silent blocks : No
Null samples used in CRC calculations : Yes
Used interface : Native Win32 interface for Win NT & 2000
Gap handling : Appended to previous track

Used output format : User Defined Encoder
Selected bitrate : 128 kBit/s
Quality : High
Add ID3 tag : No
Command line compressor : C:\Program Files (x86)\Exact Audio Copy\FLAC\FLAC.EXE
Additional command line options : -8 -V -T "ARTIST=%artist%" -T "TITLE=%title%" -T "ALBUM=%albumtitle%" -T "DATE=%year%" -T "TRACKNUMBER=%tracknr%" -T "TOTALTRACKS=%numtracks%" -T "GENRE=%genre%" -T "ALBUMARTIST=%albumartist%" -T "ALBUM ARTIST=%albumartist%" -T "COMMENT=EAC Secure Mode, Test & Copy, AccurateRip, FLAC -8" %source%


TOC of the extracted CD

Track | Start | Length | Start sector | End sector
––––––––––––––––––––––––––––-
1 | 0:00.00 | 4:26.70 | 0 | 20019
2 | 4:26.70 | 3:30.32 | 20020 | 35801
3 | 7:57.27 | 3:44.16 | 35802 | 52617
4 | 11:41.43 | 3:57.67 | 52618 | 70459
5 | 15:39.35 | 3:52.48 | 70460 | 87907
6 | 19:32.08 | 5:19.55 | 87908 | 111887
7 | 24:51.63 | 3:21.52 | 111888 | 127014
8 | 28:13.40 | 3:37.57 | 127015 | 143346
9 | 31:51.22 | 5:49.26 | 143347 | 169547
10 | 37:40.48 | 5:29.67 | 169548 | 194289
11 | 43:10.40 | 5:07.08 | 194290 | 217322
12 | 48:17.48 | 2:00.55 | 217323 | 226377


Track 1

Filename L:\EAC\01 - The Ghost of Tom Joad.wav

Pre-gap length 0:00:02.00

Peak level 99.7 %
Extraction speed 3.9 X
Track quality 99.9 %
Test CRC F7782994
Copy CRC F7782994
Accurately ripped (confidence 2) [73F7E92E] (AR v2)
Copy OK

Track 2

Filename L:\EAC\02 - Straight Time.wav

Pre-gap length 0:00:03.05

Peak level 90.6 %
Extraction speed 4.5 X
Track quality 100.0 %
Test CRC A1C4285A
Copy CRC A1C4285A
Accurately ripped (confidence 2) [A86C07E9] (AR v2)
Copy OK

Track 3

Filename L:\EAC\03 - Highway 29.wav

Pre-gap length 0:00:04.37

Peak level 66.6 %
Extraction speed 5.0 X
Track quality 100.0 %
Test CRC 4EA6E688
Copy CRC 4EA6E688
Accurately ripped (confidence 2) [2CD7C681] (AR v2)
Copy OK

Track 4

Filename L:\EAC\04 - Youngstone.wav

Pre-gap length 0:00:04.53

Peak level 99.7 %
Extraction speed 5.3 X
Track quality 100.0 %
Test CRC 3D459450
Copy CRC 3D459450
Accurately ripped (confidence 2) [2DF3CFF0] (AR v2)
Copy OK

Track 5

Filename L:\EAC\05 - Sinaloa Cowboys.wav

Pre-gap length 0:00:04.57

Peak level 53.6 %
Extraction speed 5.6 X
Track quality 100.0 %
Test CRC B376DEA4
Copy CRC B376DEA4
Accurately ripped (confidence 2) [14ECD99D] (AR v2)
Copy OK

Track 6

Filename L:\EAC\06 - The Line.wav

Pre-gap length 0:00:03.26

Peak level 62.4 %
Extraction speed 6.2 X
Track quality 100.0 %
Test CRC 05F039CC
Copy CRC 05F039CC
Accurately ripped (confidence 2) [E09A03A9] (AR v2)
Copy OK

Track 7

Filename L:\EAC\07 - Balboa Park.wav

Pre-gap length 0:00:04.48

Peak level 39.7 %
Extraction speed 6.0 X
Track quality 100.0 %
Test CRC BD734AF8
Copy CRC BD734AF8
Accurately ripped (confidence 2) [D309B81E] (AR v2)
Copy OK

Track 8

Filename L:\EAC\08 - Dry Lightning.wav

Pre-gap length 0:00:03.25

Peak level 79.6 %
Extraction speed 5.6 X
Track quality 99.9 %
Test CRC F9DE5CC6
Copy CRC F9DE5CC6
Accurately ripped (confidence 2) [0C497566] (AR v2)
Copy OK

Track 9

Filename L:\EAC\09 - The New Timer.wav

Pre-gap length 0:00:05.48

Peak level 81.6 %
Extraction speed 7.0 X
Track quality 100.0 %
Test CRC F12C0F09
Copy CRC F12C0F09
Accurately ripped (confidence 2) [FD9C4032] (AR v2)
Copy OK

Track 10

Filename L:\EAC\10 - Across the Border.wav

Pre-gap length 0:00:05.45

Peak level 81.3 %
Extraction speed 7.3 X
Track quality 100.0 %
Test CRC 91CD660C
Copy CRC 91CD660C
Accurately ripped (confidence 2) [FD13FA35] (AR v2)
Copy OK

Track 11

Filename L:\EAC\11 - Galveston Bay.wav

Pre-gap length 0:00:05.42

Peak level 62.4 %
Extraction speed 6.8 X
Track quality 99.9 %
Test CRC 91E1A3B9
Copy CRC 91E1A3B9
Accurately ripped (confidence 2) [BD85F88B] (AR v2)
Copy OK

Track 12

Filename L:\EAC\12 - My Best was Never Good Enough.wav

Pre-gap length 0:00:04.73

Peak level 35.4 %
Extraction speed 6.4 X
Track quality 100.0 %
Test CRC 334397D1
Copy CRC 334397D1
Accurately ripped (confidence 2) [FACDE0A9] (AR v2)
Copy OK


All tracks accurately ripped

No errors occurred

End of status report

–– CUETools DB Plugin V2.1.6

[CTDB TOCID: PriGkx5H2PKAwb5lpSyN7H0x9yw-] found
Submit result: PriGkx5H2PKAwb5lpSyN7H0x9yw- has been confirmed
Track | CTDB Status
1 | ( 8/37) Accurately ripped
2 | ( 8/37) Accurately ripped
3 | ( 8/37) Accurately ripped
4 | ( 8/37) Accurately ripped
5 | ( 8/37) Accurately ripped
6 | ( 8/37) Accurately ripped
7 | ( 8/37) Accurately ripped
8 | ( 8/37) Accurately ripped
9 | ( 8/37) Accurately ripped
10 | ( 8/37) Accurately ripped
11 | ( 8/37) Accurately ripped
12 | ( 8/37) Accurately ripped


==== Log checksum 038D4F3F56949ED469E0027DB083A8953E35BB3D25E5BE636C58A8BB4CA5C450 ====

–––––––-

Exact Audio Copy V1.3 from 2. September 2016

EAC extraction logfile from 10. October 2018, 0:09

Bruce Springsteen / Chimes of Freedom (The Album Collection Vol 2 1987-1996 Disc 6of7) [Japan]

Used drive : ASUS DRW-24F1ST a Adapter: 1 ID: 0

Read mode : Secure
Utilize accurate stream : Yes
Defeat audio cache : Yes
Make use of C2 pointers : No

Read offset correction : 6
Overread into Lead-In and Lead-Out : No
Fill up missing offset samples with silence : Yes
Delete leading and trailing silent blocks : No
Null samples used in CRC calculations : Yes
Used interface : Native Win32 interface for Win NT & 2000
Gap handling : Appended to previous track

Used output format : User Defined Encoder
Selected bitrate : 128 kBit/s
Quality : High
Add ID3 tag : No
Command line compressor : C:\Program Files (x86)\Exact Audio Copy\FLAC\FLAC.EXE
Additional command line options : -8 -V -T "ARTIST=%artist%" -T "TITLE=%title%" -T "ALBUM=%albumtitle%" -T "DATE=%year%" -T "TRACKNUMBER=%tracknr%" -T "TOTALTRACKS=%numtracks%" -T "GENRE=%genre%" -T "ALBUMARTIST=%albumartist%" -T "ALBUM ARTIST=%albumartist%" -T "COMMENT=EAC Secure Mode, Test & Copy, AccurateRip, FLAC -8" %source%


TOC of the extracted CD

Track | Start | Length | Start sector | End sector
––––––––––––––––––––––––––––-
1 | 0:00.00 | 6:38.50 | 0 | 29899
2 | 6:38.50 | 4:48.06 | 29900 | 51505
3 | 11:26.56 | 7:21.06 | 51506 | 84586
4 | 18:47.62 | 5:24.59 | 84587 | 108945


Track 1

Filename L:\EAC\01 - Tougher Than The Rest.wav

Pre-gap length 0:00:02.00

Peak level 100.0 %
Extraction speed 1.9 X
Track quality 100.0 %
Test CRC 64A9D560
Copy CRC 64A9D560
Accurately ripped (confidence 2) [AEECA689] (AR v2)
Copy OK

Track 2

Filename L:\EAC\02 - Be True (live).wav

Pre-gap length 0:00:00.54

Peak level 97.1 %
Extraction speed 2.1 X
Track quality 100.0 %
Test CRC 0EE660FB
Copy CRC 0EE660FB
Accurately ripped (confidence 2) [1CAD5123] (AR v2)
Copy OK

Track 3

Filename L:\EAC\03 - Chimes Of Freedom (live).wav

Pre-gap length 0:00:01.15

Peak level 98.5 %
Extraction speed 2.4 X
Track quality 100.0 %
Test CRC 72EEF31A
Copy CRC 72EEF31A
Accurately ripped (confidence 2) [E7686E21] (AR v2)
Copy OK

Track 4

Filename L:\EAC\04 - Born To Run (live acoustic).wav

Pre-gap length 0:00:01.52

Peak level 96.9 %
Extraction speed 2.6 X
Track quality 100.0 %
Test CRC 76E7759B
Copy CRC 76E7759B
Accurately ripped (confidence 2) [B411CB33] (AR v2)
Copy OK


All tracks accurately ripped

No errors occurred

End of status report

–– CUETools DB Plugin V2.1.6

[CTDB TOCID: a_rUWXUCbbzMYp_ZBc1r7cBynN0-] found
Submit result: a_rUWXUCbbzMYp_ZBc1r7cBynN0- has been confirmed
Track | CTDB Status
1 | (8/8) Accurately ripped
2 | (8/8) Accurately ripped
3 | (8/8) Accurately ripped
4 | (8/8) Accurately ripped


==== Log checksum 529B0E38262A8A7D9EA11B7D9237942576DF9A204CAE2EF67266C9E8544BAEEB ====

–––––––-

Exact Audio Copy V1.3 from 2. September 2016

EAC extraction logfile from 10. October 2018, 0:51

Bruce Springsteen & the E Street Band / Blood Brothers (The Album Collection Vol 2 1987-1996 Disc 7of7) [Japan]

Used drive : ASUS DRW-24F1ST a Adapter: 1 ID: 0

Read mode : Secure
Utilize accurate stream : Yes
Defeat audio cache : Yes
Make use of C2 pointers : No

Read offset correction : 6
Overread into Lead-In and Lead-Out : No
Fill up missing offset samples with silence : Yes
Delete leading and trailing silent blocks : No
Null samples used in CRC calculations : Yes
Used interface : Native Win32 interface for Win NT & 2000
Gap handling : Appended to previous track

Used output format : User Defined Encoder
Selected bitrate : 128 kBit/s
Quality : High
Add ID3 tag : No
Command line compressor : C:\Program Files (x86)\Exact Audio Copy\FLAC\FLAC.EXE
Additional command line options : -8 -V -T "ARTIST=%artist%" -T "TITLE=%title%" -T "ALBUM=%albumtitle%" -T "DATE=%year%" -T "TRACKNUMBER=%tracknr%" -T "TOTALTRACKS=%numtracks%" -T "GENRE=%genre%" -T "ALBUMARTIST=%albumartist%" -T "ALBUM ARTIST=%albumartist%" -T "COMMENT=EAC Secure Mode, Test & Copy, AccurateRip, FLAC -8" %source%


TOC of the extracted CD

Track | Start | Length | Start sector | End sector
––––––––––––––––––––––––––––-
1 | 0:00.00 | 4:05.00 | 0 | 18374
2 | 4:05.00 | 4:30.02 | 18375 | 38626
3 | 8:35.02 | 5:51.58 | 38627 | 65009
4 | 14:26.60 | 4:38.60 | 65010 | 85919
5 | 19:05.45 | 3:59.01 | 85920 | 103845


Track 1

Filename L:\EAC\01 - Blood Brothers (Alternate Version).wav

Pre-gap length 0:00:02.00

Peak level 97.5 %
Extraction speed 1.5 X
Track quality 99.9 %
Test CRC 408ABAF1
Copy CRC 408ABAF1
Accurately ripped (confidence 2) [F27CA26A] (AR v2)
Copy OK

Track 2

Filename L:\EAC\02 - High Hopes.wav

Pre-gap length 0:00:03.70

Peak level 97.2 %
Extraction speed 1.9 X
Track quality 100.0 %
Test CRC C4802960
Copy CRC C4802960
Accurately ripped (confidence 2) [AE971759] (AR v2)
Copy OK

Track 3

Filename L:\EAC\03 - Murder Incorporated (Live from Tramps).wav

Pre-gap length 0:00:03.15

Peak level 97.2 %
Extraction speed 2.2 X
Track quality 100.0 %
Test CRC 5C358658
Copy CRC 5C358658
Accurately ripped (confidence 2) [8E5057D4] (AR v2)
Copy OK

Track 4

Filename L:\EAC\04 - Secret Garden (With Strings).wav

Pre-gap length 0:00:03.25

Peak level 97.1 %
Extraction speed 2.3 X
Track quality 100.0 %
Test CRC 3813D0EB
Copy CRC 3813D0EB
Accurately ripped (confidence 2) [58FEC697] (AR v2)
Copy OK

Track 5

Filename L:\EAC\05 - Without You.wav

Pre-gap length 0:00:01.01

Peak level 97.0 %
Extraction speed 2.4 X
Track quality 100.0 %
Test CRC 946710E9
Copy CRC 946710E9
Accurately ripped (confidence 2) [B30C6C3F] (AR v2)
Copy OK


All tracks accurately ripped

No errors occurred

End of status report

–– CUETools DB Plugin V2.1.6

[CTDB TOCID: aZdZdKtjHL1M7mqEjRf.Gv6YS7Q-] found
Submit result: aZdZdKtjHL1M7mqEjRf.Gv6YS7Q- has been confirmed
Track | CTDB Status
1 | (8/8) Accurately ripped
2 | (8/8) Accurately ripped
3 | (8/8) Accurately ripped
4 | (8/8) Accurately ripped
5 | (8/8) Accurately ripped


==== Log checksum A94B217850EC7E1726DAB3E6B3F36E6DE95B07633E5B4F10EEC2E51CF33C43F3 ====


Bruce Springsteen - The Album Collection Vol. 2, 1987-1996 (2018) {7CD Box Set Sony Music Japan Mini LP SICP 5791~7}

Bruce Springsteen - The Album Collection Vol. 2, 1987-1996 (2018) {7CD Box Set Sony Music Japan Mini LP SICP 5791~7}

Bruce Springsteen - The Album Collection Vol. 2, 1987-1996 (2018) {7CD Box Set Sony Music Japan Mini LP SICP 5791~7}


see also:
Bruce Springsteen - The Album ...Columbia 88875014142 rel 2014}



===