Subcategories

El Camaron de la Isla & Paco de Lucia - Arte y Majestad (1975) {2011 Nueva Integral Box Set CD 07of21}

Posted By: ruskaval
El Camaron de la Isla & Paco de Lucia - Arte y Majestad (1975) {2011 Nueva Integral Box Set CD 07of21}

El Camaron de la Isla & Paco de Lucia - Arte y Majestad (1975) {2011 Nueva Integral Box Set CD 07of21}
EAC rip (secure mode) | FLAC (tracks)+CUE+LOG -> 178 Mb | MP3 @320 -> 81 Mb
Full Artwork @ 600 dpi (jpg) -> 17 Mb | 5% repair rar
© 1975, 2011 Universal Music Spain | 0602498715949
Flamenco / World Music / Vocal / Guitar / Latin / Western European Traditions

A limited edition of the Camaron de la Isla 'Integral' box-set. It represents a veritable journey through his life and singing. It includes 21 original albums. The first 17 of them were made in recording studios by Camaron from 1969 to 1992 while he was alive.

The title of his new album in 1975 seems to indicate the path politics would take, because of its reference to "majestad" (majesty, or King). "Arte y majestad" is a work in the Camaron manner as few others -his styles and vocal twistings are presents in each track, although the authorship of the cuts is still signed by Antonio Sanchez. To prove it, all that is needed is to listen to the "soleares", "tarantas" (the credits say "tarantos"), "seguiriyas" and "bulerias", outstanding the one dedicated to his admired Curro Romero, in which Paco de Lucia gave a preview of some sounds from the coming "Almoraima".

El Camaron de la Isla & Paco de Lucia - Arte y Majestad (1975) {2011 Nueva Integral Box Set CD 07of21}


The "trianero" tangos of "El Titi", some "cantiсas gaditanas", two natural fandangos and others from Huelva are also included (7). Among the fandangos, those that are hidden behind the title "Ni que me manden a mi" were created by Enrique Morente, which Camaron recorded before their composer with a personal beginning. With respect to the front jacket cover, which consists of a color photo by Lamarca, it should be noted that it returns to the original design "CAMARON DE LA ISLA with the special collaboration of PACO DE LUCIA". Algeciras accompanies them on second guitar.

Camaron had just received the National Prize of "Cante" from the Professor of Flamencology and Andalusian Folklore Studies of Jerez de Ia Frontera, which seems to release his natural reaction of provocation because in his new album he again comes up with another version of "La Canastera", and he even attempts a few "sevillanas". And to think he complains about the purists getting angry with him! Provocateur! Ingrate! Now that he had been forgiven!…
El Camaron de la Isla & Paco de Lucia - Arte y Majestad (1975) {2011 Nueva Integral Box Set CD 07of21}


Contents of the Box Set:
CD 1: Al verte las flores lloran (1969)
CD 2: Cada vez que nos miramos (1970)
CD 3: Son tus ojos dos estrellas (1971)
CD 4: Canastera (1972)
CD 5: Caminito de Totana (1973)
CD 6: Soy caminante (1974)
CD 7: Arte y majestad (1975) <- this one…
CD 8: Rosa María (1976)
CD 9: Castillo de arena (1977)
CD 10: La leyenda del tiempo (1979)
CD 11: Como el agua (1981)
CD 12: Calle Real (1983)
CD 13: Viviré (1984)
CD 14: Te lo dice Camarón (1986)
CD 15: Flamenco vivo (1987)
CD 16: Soy gitano (1989)
CD 17: Potro de rabia y miel (1992)
CD 18: París, 1987 (1987)
CD 19: Antología inédita (2000)
CD 20: En la Venta de Vargas (2004)
CD 21: Reencuentro (2008)


Personnel:
Camarón de la Isla: Singer
Paco de Lucía: Guitar

tracklist:
01 - Que mis ojitos te vean (Solea)
02 - Solo vivo pa quererte (Granaina)
03 - Malito yo estaba (Seguiriyas)
04 - Tu carino es mi castigo (Bulerias)
05 - Ni que me manden a mi (Fandangos de Enrique Morente)
06 - En la boca de una mina (Taranta)
07 - Dejala vivir en paz (Fandangos de Juan el Camas)
08 - Arte y Majestad (Bulerias)
09 - No naqueres mas de mi (Tangos del Titi)
10 - Isla de Leon (Cantinas)
11 - En la Puerta de una Ermita (Fandangod de Huelva)

Exact Audio Copy V1.0 beta 3 from 29. August 2011

EAC extraction logfile from 4. March 2012, 13:31

El Camaron de la Isla & Paco de Lucia / Arte y Majestad

Used drive : HL-DT-STDVDRAM GH22NS50 Adapter: 0 ID: 0

Read mode : Secure
Utilize accurate stream : Yes
Defeat audio cache : Yes
Make use of C2 pointers : No

Read offset correction : 667
Overread into Lead-In and Lead-Out : No
Fill up missing offset samples with silence : Yes
Delete leading and trailing silent blocks : No
Null samples used in CRC calculations : Yes
Used interface : Installed external ASPI interface
Gap handling : Appended to previous track

Used output format : User Defined Encoder
Selected bitrate : 1024 kBit/s
Quality : High
Add ID3 tag : No
Command line compressor : C:\Program Files\Exact Audio Copy\Flac\flac.exe
Additional command line options : -8 -V -T "ARTIST=%artist%" -T "TITLE=%title%" -T "ALBUM=%albumtitle%" -T "DATE=%year%" -T "TRACKNUMBER=%tracknr%" -T "TOTALTRACKS=%numtracks%" -T "GENRE=%genre%" -T "ALBUMARTIST=%albumartist%" -T "ALBUM ARTIST=%albumartist%" -T "COMMENT=EAC Secure Mode, Test & Copy, AccurateRip, FLAC -8" %source%


TOC of the extracted CD

Track | Start | Length | Start sector | End sector
––––––––––––––––––––––––––––-
1 | 0:00.00 | 3:28.11 | 0 | 15610
2 | 3:28.11 | 2:48.57 | 15611 | 28267
3 | 6:16.68 | 4:21.55 | 28268 | 47897
4 | 10:38.48 | 2:41.67 | 47898 | 60039
5 | 13:20.40 | 4:10.23 | 60040 | 78812
6 | 17:30.63 | 3:49.10 | 78813 | 95997
7 | 21:19.73 | 3:04.00 | 95998 | 109797
8 | 24:23.73 | 3:00.60 | 109798 | 123357
9 | 27:24.58 | 2:16.46 | 123358 | 133603
10 | 29:41.29 | 3:13.01 | 133604 | 148079
11 | 32:54.30 | 2:00.61 | 148080 | 157140


Track 1

Filename C:\Users\user\Documents\El Camaron de la Isla & Paco de Lucia - Arte y Majestad (1975) [FLAC] {New Integral Cd 7 of 21}\01 - Que mis ojitos te vean (Solea).wav

Pre-gap length 0:00:02.00

Peak level 99.8 %
Extraction speed 0.9 X
Track quality 99.9 %
Test CRC 66BFBD33
Copy CRC 66BFBD33
Cannot be verified as accurate (confidence 1) [58A15BB9], AccurateRip returned [4FB0E3FA] (AR v2)
Copy OK

Track 2

Filename C:\Users\user\Documents\El Camaron de la Isla & Paco de Lucia - Arte y Majestad (1975) [FLAC] {New Integral Cd 7 of 21}\02 - Solo vivo pa quererte (Granaina).wav

Pre-gap length 0:00:01.57

Peak level 99.8 %
Extraction speed 1.1 X
Track quality 100.0 %
Test CRC 90B7DAE1
Copy CRC 90B7DAE1
Cannot be verified as accurate (confidence 1) [EE5EA3BB], AccurateRip returned [0ABE81B6] (AR v2)
Copy OK

Track 3

Filename C:\Users\user\Documents\El Camaron de la Isla & Paco de Lucia - Arte y Majestad (1975) [FLAC] {New Integral Cd 7 of 21}\03 - Malito yo estaba (Seguiriyas).wav

Pre-gap length 0:00:01.57

Peak level 99.8 %
Extraction speed 1.3 X
Track quality 100.0 %
Test CRC F6120D6C
Copy CRC F6120D6C
Cannot be verified as accurate (confidence 1) [87499D70], AccurateRip returned [EF5C6061] (AR v2)
Copy OK

Track 4

Filename C:\Users\user\Documents\El Camaron de la Isla & Paco de Lucia - Arte y Majestad (1975) [FLAC] {New Integral Cd 7 of 21}\04 - Tu carino es mi castigo (Bulerias).wav

Pre-gap length 0:00:01.57

Peak level 99.8 %
Extraction speed 1.2 X
Track quality 100.0 %
Test CRC CD24E29B
Copy CRC CD24E29B
Cannot be verified as accurate (confidence 1) [5B275FEB], AccurateRip returned [683F03F6] (AR v2)
Copy OK

Track 5

Filename C:\Users\user\Documents\El Camaron de la Isla & Paco de Lucia - Arte y Majestad (1975) [FLAC] {New Integral Cd 7 of 21}\05 - Ni que me manden a mi (Fandangos de Enrique Morente).wav

Pre-gap length 0:00:01.57

Peak level 99.8 %
Extraction speed 1.2 X
Track quality 99.9 %
Test CRC 2A025412
Copy CRC 2A025412
Cannot be verified as accurate (confidence 1) [6984D5BE], AccurateRip returned [66818247] (AR v2)
Copy OK

Track 6

Filename C:\Users\user\Documents\El Camaron de la Isla & Paco de Lucia - Arte y Majestad (1975) [FLAC] {New Integral Cd 7 of 21}\06 - En la boca de una mina (Taranta).wav

Pre-gap length 0:00:01.57

Peak level 99.8 %
Extraction speed 1.5 X
Track quality 100.0 %
Test CRC 5988202E
Copy CRC 5988202E
Cannot be verified as accurate (confidence 1) [0117D627], AccurateRip returned [B005F4F8] (AR v2)
Copy OK

Track 7

Filename C:\Users\user\Documents\El Camaron de la Isla & Paco de Lucia - Arte y Majestad (1975) [FLAC] {New Integral Cd 7 of 21}\07 - Dejala vivir en paz (Fandangos de Juan el Camas).wav

Pre-gap length 0:00:01.57

Peak level 99.8 %
Extraction speed 1.5 X
Track quality 100.0 %
Test CRC E54D90EA
Copy CRC E54D90EA
Cannot be verified as accurate (confidence 1) [CF674DD9], AccurateRip returned [8670032D] (AR v2)
Copy OK

Track 8

Filename C:\Users\user\Documents\El Camaron de la Isla & Paco de Lucia - Arte y Majestad (1975) [FLAC] {New Integral Cd 7 of 21}\08 - Arte y Majestad (Bulerias).wav

Pre-gap length 0:00:01.57

Peak level 99.8 %
Extraction speed 1.5 X
Track quality 100.0 %
Test CRC F1B7C4FF
Copy CRC F1B7C4FF
Cannot be verified as accurate (confidence 1) [7AC13813], AccurateRip returned [8285BCFE] (AR v2)
Copy OK

Track 9

Filename C:\Users\user\Documents\El Camaron de la Isla & Paco de Lucia - Arte y Majestad (1975) [FLAC] {New Integral Cd 7 of 21}\09 - No naqueres mas de mi (Tangos del Titi).wav

Pre-gap length 0:00:01.57

Peak level 99.8 %
Extraction speed 1.5 X
Track quality 100.0 %
Test CRC E0C6ACA6
Copy CRC E0C6ACA6
Cannot be verified as accurate (confidence 1) [68376E92], AccurateRip returned [621A1C15] (AR v2)
Copy OK

Track 10

Filename C:\Users\user\Documents\El Camaron de la Isla & Paco de Lucia - Arte y Majestad (1975) [FLAC] {New Integral Cd 7 of 21}\10 - Isla de Leon (Cantinas).wav

Pre-gap length 0:00:01.57

Peak level 99.8 %
Extraction speed 1.7 X
Track quality 100.0 %
Test CRC 075E31BA
Copy CRC 075E31BA
Cannot be verified as accurate (confidence 1) [3E39C142], AccurateRip returned [77FFFF02] (AR v2)
Copy OK

Track 11

Filename C:\Users\user\Documents\El Camaron de la Isla & Paco de Lucia - Arte y Majestad (1975) [FLAC] {New Integral Cd 7 of 21}\11 - En la Puerta de una Ermita (Fandangod de Huelva).wav

Pre-gap length 0:00:01.57

Peak level 99.8 %
Extraction speed 1.6 X
Track quality 100.0 %
Test CRC 775F839B
Copy CRC 775F839B
Cannot be verified as accurate (confidence 1) [B5D579DF], AccurateRip returned [726B7D0C] (AR v2)
Copy OK


No tracks could be verified as accurate
You may have a different pressing from the one(s) in the database

No errors occurred

End of status report

==== Log checksum 99D63CDA7E182FC0F87A1C39A21B8E11FC150C1EF0D93691C541DC4EE3B0C252 ====


El Camaron de la Isla & Paco de Lucia - Arte y Majestad (1975) {2011 Nueva Integral Box Set 			  		  		  	 			   		  	   		  		  		 			  	 			   			  	  		 	    	 			   		   	  		      			  				 CD 07of21}

El Camaron de la Isla & Paco de Lucia - Arte y Majestad (1975) {2011 Nueva Integral Box Set CD 07of21}


All thanks goes to the original releaser!

NEXT -> El Camaron de la Isla & Paco de Lucia - Rosa Maria (1976) {2011 Nueva Integral Box Set CD 08of21}

Paco de Lucia & Ricardo Mo...va Integral Box Set CD 01of27}
Paco de Lucia & Ricardo Mo...va Integral Box Set CD 02of27}
Paco de Lucia & Ricardo Mo...va Integral Box Set CD 03of27}
Paco de Lucia - La Fabulosa Gu...va Integral Box Set CD 04of27}
Paco de Lucia & Ramon de A...va Integral Box Set CD 05of27}

Paco de Lucia & Ramon de A...va Integral Box Set CD 06of27}
Paco de Lucia - Fantasia Flame...va Integral Box Set CD 07of27}
Paco de Lucia & Ramon de A...va Integral Box Set CD 08of27}
Paco de Lucia & Ramon de A...va Integral Box Set CD 09of27}
Paco de Lucia - El mundo del F...va Integral Box Set CD 10of27}

Paco de Lucia - Recital de Gui...va Integral Box Set CD 11of27}
Paco de Lucia - El Duende Flam...va Integral Box Set CD 12of27}
Paco de Lucia - Fuente y Cauda...va Integral Box Set CD 13of27}
Paco de Lucia - En vivo desde ... Integral Box Set CD 14 of 27}
Paco de Lucia - Almoraima (197... Integral Box Set CD 15 of 27}

Paco de Lucia - Interpreta a M... Integral Box Set CD 16 of 27}
Paco de Lucia - Castro Marin (... Integral Box Set CD 17 of 27}
Paco de Lucia - Solo Quiero Ca... Integral Box Set CD 18 of 27}
Paco de Lucia & Sextet - L... Integral Box Set CD 19 of 27}
Paco de Lucia - Siroco (1987) ... Integral Box Set CD 20 of 27}

Paco de Lucia - Zyryab (1990) ... Integral Box Set CD 21 of 27}
Paco de Lucia - Concierto de A... Integral Box Set CD 22 of 27}
Paco de Lucia & Sextet - L... Integral Box Set CD 23 of 27}
Paco de Lucia , Al Di Meola &a... Integral Box Set CD 24 of 27}
Paco de Lucia - Luzia (1998) {2010 Nueva Integral Box Set CD 25 of 27}

Paco de Lucia - Por Descubrir ... Integral Box Set CD 26 of 27}
Paco de Lucia - Cositas Buenas... Integral Box Set CD 27 of 27}

== Camaron - La Leyenda Del Ti...versary Remastered Edition} ==

Paco de Lucia - En Vivo Concie...5 PAL - Universal Music Spain}

Paco de Lucia - Francisco Sanc...5 PAL] {Universal Music Spain}

Paco de Lucia & John McLau...x 1987 (2016) {2CD+Bonus DVD9}

El Camaron de la Isla & Pa...va Integral Box Set CD 01of21}
El Camaron de la Isla & Pa...va Integral Box Set CD 02of21}
El Camaron de la Isla & Pa...va Integral Box Set CD 03of21}
El Camaron de la Isla & Pa...va Integral Box Set CD 04of21}
El Camaron de la Isla & Pa...va Integral Box Set CD 05of21}

El Camaron de la Isla & Pa...va Integral Box Set CD 06of21}



===