Subcategories

El Camaron de la Isla & Paco de Lucia - Cada vez que nos miramos (1970) {2011 Nueva Integral Box Set CD 02of21}

Posted By: ruskaval
El Camaron de la Isla & Paco de Lucia - Cada vez que nos miramos (1970) {2011 Nueva Integral Box Set CD 02of21}

El Camaron de la Isla & Paco de Lucia - Cada vez que nos miramos (1970) {2011 Nueva Integral Box Set CD 02of21}
EAC rip (secure mode) | FLAC (tracks)+CUE+LOG -> 208 Mb | MP3 @320 -> 88 Mb
Full Artwork @ 600 dpi (jpg) -> 21 Mb | 5% repair rar
© 1970, 2011 Universal Music Spain | 0602498676554
Flamenco / World Music / Vocal / Guitar / Latin / Western European Traditions

A limited edition of the Camarуn de la Isla 'Integral' box-set. It represents a veritable journey through his life and singing. It includes 21 original albums. The first 17 of them were made in recording studios by Camaron from 1969 to 1992 while he was alive. "A generally calmer atmosphere can be noticed in this album". The second album of Camaron de la Isla, with the special collaboration of Paco de Lucia, was released at the start of the new decade. The graphic design of the first album was maintained, with photos of both of them and similar headings, but in this one Perez de Leуn went even further and placed the pair face to face in a position similar to the Mountain of Olives, complete with cross and an apocalyptic horizon in red tones. The yellowed faces of the performers made them seem as if they had just suffered an attack of severe hepatitis. Ole'! Leуn.

El Camaron de la Isla & Paco de Lucia - Cada vez que nos miramos (1970) {2011 Nueva Integral Box Set CD 02of21}


The authorship of the «cantes» was signed by the father of Paco de Lucia, Antonio Sanchez Pacino, and five of the lyrics by Antonio Fernandez, «Fosforito». Ramon de Algeciras joined them as second guitar in the rhythmic passages. A generally calmer atmosphere can be noticed in this album, which begins with the «soleares», of La Serneta «Cada vez que nos miramos». The «romera», with «La cantiсa de Ia contrabandista», although echoes «El niсo de Barbate», keeps a personal tone maintained in the «tientos». In the "granaina" we can sense the influence of Jose Cepero. Camaron once again performs fandangos, singing those of Rafael, "El Tuerto" and "El Gloria" (3), as well as others from Huelva -a style quite appreciated by Jose and Paco. We say "once again" because those were not good times for these styles of "cante", wich the purists rejected outright because they considered them a minor variety. In more than one occasion they tried to convince Camaron not to perform those "cantes". Even Antonio Mairena himself, who was not infallible, went so far as to rebuke him because of it in the festival he organized in his home town. But Camaron never allowed himself to be persuaded and, intelligently, went his own way. In the opening notes of the "bulerias", tangos and "tientos" he begins to jabber the "lerele, le, le""lora,lolailo"…Behind the pretended "taranto" is hidden the popular (in other days) "taranta" of La Gabriela with a different verse. In the "seguirillas" he presents the innovative halftones of Enrique Morente.

To summarize, it should be noted that in this album Camaron reveals himself as an important figure. What was promising in the previous album is confirmed here. He stands out not only for his unique manner of using his voice, but because of his uncommon personality as a «cantaor». His music was played repeatedly on the radio and he was always requested to perform in the Andalusian summer festivals, where he would appear with the guitar of Paco de Lucia at first and later with that of Ramon de Algeciras.
El Camaron de la Isla & Paco de Lucia - Cada vez que nos miramos (1970) {2011 Nueva Integral Box Set CD 02of21}


Contents of the Box Set:
CD 1: Al verte las flores lloran (1969)
CD 2: Cada vez que nos miramos (1970)
CD 3: Son tus ojos dos estrellas (1971)
CD 4: Canastera (1972)
CD 5: Caminito de Totana (1973)
CD 6: Soy caminante (1974)
CD 7: Arte y majestad (1975)
CD 8: Rosa María (1976)
CD 9: Castillo de arena (1977)
CD 10: La leyenda del tiempo (1979)
CD 11: Como el agua (1981)
CD 12: Calle Real (1983)
CD 13: Viviré (1984)
CD 14: Te lo dice Camarón (1986)
CD 15: Flamenco vivo (1987)
CD 16: Soy gitano (1989)
CD 17: Potro de rabia y miel (1992)
CD 18: París, 1987 (1987)
CD 19: Antología inédita (2000)
CD 20: En la Venta de Vargas (2004)
CD 21: Reencuentro (2008)


Personnel:
Camarón de la Isla: Singer
Paco de Lucía: Guitar
Ramon de Algeciras: Second guitar

tracklist:
01 - Cada vez que nos miramos (Solea de la Serneta)
02 - Y no llegaste a quererme (Granaina)
03 - Ante el Altar me Juraste (Tangos)
04 - Moral (Fandangos de El Gloria)
05 - La Andan Hablando (Bulerias)
06 - Vas a Conseguir tres Cosas (Fandangos de Huelva)
07 - Jardin de Belleza (Romera y Cantina del Contrabandista)
08 - Sube al Enganche (Taranta de la Gabriela)
09 - Donde una Ermita Poner (Fandangos de Rafael el Tuerto)
10 - A los Santos del Cielo (Seguiriyas de la Chema y Los Puertos
11 - Soy Grande por ser Gitano (Bulerias)
12 - Al Gurugu Guruguero (Tientos)

Exact Audio Copy V1.0 beta 3 from 29. August 2011

EAC extraction logfile from 20. February 2012, 21:55

El Camaron de la Isla & Paco de Lucia / Cada Vez que nos Miramos

Used drive : HL-DT-STDVDRAM GH22NS50 Adapter: 0 ID: 0

Read mode : Secure
Utilize accurate stream : Yes
Defeat audio cache : Yes
Make use of C2 pointers : No

Read offset correction : 667
Overread into Lead-In and Lead-Out : No
Fill up missing offset samples with silence : Yes
Delete leading and trailing silent blocks : No
Null samples used in CRC calculations : Yes
Used interface : Installed external ASPI interface
Gap handling : Appended to previous track

Used output format : User Defined Encoder
Selected bitrate : 1024 kBit/s
Quality : High
Add ID3 tag : No
Command line compressor : C:\Program Files\Exact Audio Copy\Flac\flac.exe
Additional command line options : -8 -V -T "ARTIST=%artist%" -T "TITLE=%title%" -T "ALBUM=%albumtitle%" -T "DATE=%year%" -T "TRACKNUMBER=%tracknr%" -T "TOTALTRACKS=%numtracks%" -T "GENRE=%genre%" -T "ALBUMARTIST=%albumartist%" -T "ALBUM ARTIST=%albumartist%" -T "COMMENT=EAC Secure Mode, Test & Copy, AccurateRip, FLAC -8" %source%


TOC of the extracted CD

Track | Start | Length | Start sector | End sector
––––––––––––––––––––––––––––-
1 | 0:00.00 | 3:51.02 | 0 | 17326
2 | 3:51.02 | 3:00.68 | 17327 | 30894
3 | 6:51.70 | 3:54.37 | 30895 | 48481
4 | 10:46.32 | 2:19.26 | 48482 | 58932
5 | 13:05.58 | 4:12.67 | 58933 | 77899
6 | 17:18.50 | 2:08.13 | 77900 | 87512
7 | 19:26.63 | 2:35.57 | 87513 | 99194
8 | 22:02.45 | 2:21.71 | 99195 | 109840
9 | 24:24.41 | 2:34.27 | 109841 | 121417
10 | 26:58.68 | 4:12.30 | 121418 | 140347
11 | 31:11.23 | 3:22.61 | 140348 | 155558
12 | 34:34.09 | 3:35.62 | 155559 | 171745


Track 1

Filename C:\Users\user\Documents\El Camaron de la Isla & Paco de Lucia - Cada vez que nos miramos (1970) [FLAC] {New Integral Cd 2 of 21}\01 - Cada vez que nos miramos (Solea de la Serneta).wav

Pre-gap length 0:00:02.00

Peak level 98.5 %
Extraction speed 1.0 X
Track quality 100.0 %
Test CRC D6F2B96A
Copy CRC D6F2B96A
Cannot be verified as accurate (confidence 2) [DA01E4C2], AccurateRip returned [A8D8193E] (AR v2)
Copy OK

Track 2

Filename C:\Users\user\Documents\El Camaron de la Isla & Paco de Lucia - Cada vez que nos miramos (1970) [FLAC] {New Integral Cd 2 of 21}\02 - Y no llegaste a quererme (Granaina).wav

Pre-gap length 0:00:04.36

Peak level 98.6 %
Extraction speed 0.9 X
Track quality 99.9 %
Test CRC 77F64EEE
Copy CRC 77F64EEE
Cannot be verified as accurate (confidence 2) [FA6A08E4], AccurateRip returned [1B4F2690] (AR v2)
Copy OK

Track 3

Filename C:\Users\user\Documents\El Camaron de la Isla & Paco de Lucia - Cada vez que nos miramos (1970) [FLAC] {New Integral Cd 2 of 21}\03 - Ante el Altar me Juraste (Tangos).wav

Pre-gap length 0:00:05.08

Peak level 98.9 %
Extraction speed 1.3 X
Track quality 100.0 %
Test CRC 94BFBA16
Copy CRC 94BFBA16
Cannot be verified as accurate (confidence 2) [8A083E4C], AccurateRip returned [167C829F] (AR v2)
Copy OK

Track 4

Filename C:\Users\user\Documents\El Camaron de la Isla & Paco de Lucia - Cada vez que nos miramos (1970) [FLAC] {New Integral Cd 2 of 21}\04 - Moral (Fandangos de El Gloria).wav

Pre-gap length 0:00:05.45

Peak level 98.6 %
Extraction speed 1.2 X
Track quality 100.0 %
Test CRC C1F99824
Copy CRC C1F99824
Cannot be verified as accurate (confidence 2) [14D268A9], AccurateRip returned [D58ACDEC] (AR v2)
Copy OK

Track 5

Filename C:\Users\user\Documents\El Camaron de la Isla & Paco de Lucia - Cada vez que nos miramos (1970) [FLAC] {New Integral Cd 2 of 21}\05 - La Andan Hablando (Bulerias).wav

Pre-gap length 0:00:04.05

Peak level 98.6 %
Extraction speed 1.4 X
Track quality 100.0 %
Test CRC 3E14C26A
Copy CRC 3E14C26A
Cannot be verified as accurate (confidence 2) [F866DC28], AccurateRip returned [96AFE718] (AR v2)
Copy OK

Track 6

Filename C:\Users\user\Documents\El Camaron de la Isla & Paco de Lucia - Cada vez que nos miramos (1970) [FLAC] {New Integral Cd 2 of 21}\06 - Vas a Conseguir tres Cosas (Fandangos de Huelva).wav

Pre-gap length 0:00:03.68

Peak level 98.4 %
Extraction speed 1.3 X
Track quality 100.0 %
Test CRC 6478E721
Copy CRC 6478E721
Cannot be verified as accurate (confidence 2) [A4549A5C], AccurateRip returned [A7191DEA] (AR v2)
Copy OK

Track 7

Filename C:\Users\user\Documents\El Camaron de la Isla & Paco de Lucia - Cada vez que nos miramos (1970) [FLAC] {New Integral Cd 2 of 21}\07 - Jardin de Belleza (Romera y Cantina del Contrabandista).wav

Pre-gap length 0:00:12.40

Peak level 98.8 %
Extraction speed 1.4 X
Track quality 100.0 %
Test CRC 22EE4EA8
Copy CRC 22EE4EA8
Cannot be verified as accurate (confidence 2) [D0C6B61A], AccurateRip returned [5EDEE4A1] (AR v2)
Copy OK

Track 8

Filename C:\Users\user\Documents\El Camaron de la Isla & Paco de Lucia - Cada vez que nos miramos (1970) [FLAC] {New Integral Cd 2 of 21}\08 - Sube al Enganche (Taranta de la Gabriela).wav

Pre-gap length 0:00:06.23

Peak level 98.4 %
Extraction speed 1.4 X
Track quality 100.0 %
Test CRC B18C660B
Copy CRC B18C660B
Cannot be verified as accurate (confidence 2) [97A7DDBA], AccurateRip returned [595BD38B] (AR v2)
Copy OK

Track 9

Filename C:\Users\user\Documents\El Camaron de la Isla & Paco de Lucia - Cada vez que nos miramos (1970) [FLAC] {New Integral Cd 2 of 21}\09 - Donde una Ermita Poner (Fandangos de Rafael el Tuerto).wav

Pre-gap length 0:00:04.00

Peak level 98.6 %
Extraction speed 1.2 X
Track quality 99.9 %
Test CRC 40D77CA4
Copy CRC 40D77CA4
Cannot be verified as accurate (confidence 2) [0B4AEA4C], AccurateRip returned [43BB478A] (AR v2)
Copy OK

Track 10

Filename C:\Users\user\Documents\El Camaron de la Isla & Paco de Lucia - Cada vez que nos miramos (1970) [FLAC] {New Integral Cd 2 of 21}\10 - A los Santos del Cielo (Seguiriyas de la Chema y Los Puertos.wav

Pre-gap length 0:00:05.44

Peak level 98.5 %
Extraction speed 1.7 X
Track quality 100.0 %
Test CRC 7FD1C220
Copy CRC 7FD1C220
Cannot be verified as accurate (confidence 2) [4C79498C], AccurateRip returned [C86DC9B8] (AR v2)
Copy OK

Track 11

Filename C:\Users\user\Documents\El Camaron de la Isla & Paco de Lucia - Cada vez que nos miramos (1970) [FLAC] {New Integral Cd 2 of 21}\11 - Soy Grande por ser Gitano (Bulerias).wav

Pre-gap length 0:00:05.03

Peak level 98.9 %
Extraction speed 1.5 X
Track quality 99.9 %
Test CRC 99E62600
Copy CRC 99E62600
Cannot be verified as accurate (confidence 2) [5D943714], AccurateRip returned [F7516F00] (AR v2)
Copy OK

Track 12

Filename C:\Users\user\Documents\El Camaron de la Isla & Paco de Lucia - Cada vez que nos miramos (1970) [FLAC] {New Integral Cd 2 of 21}\12 - Al Gurugu Guruguero (Tientos).wav

Pre-gap length 0:00:05.02

Peak level 98.7 %
Extraction speed 1.6 X
Track quality 99.9 %
Test CRC 22C3721C
Copy CRC 22C3721C
Cannot be verified as accurate (confidence 2) [4DA35C38], AccurateRip returned [1990ACA7] (AR v2)
Copy OK


No tracks could be verified as accurate
You may have a different pressing from the one(s) in the database

No errors occurred

End of status report

==== Log checksum 94DD5385C914A464D2408D53D9376C33329DDB93DAA7A02F06B3B768730CC1F0 ====


El Camaron de la Isla & Paco de Lucia - Cada vez que nos miramos (1970) {2011 Nueva Integral Box Set CD 02of21}

El Camaron de la Isla & Paco de Lucia - Cada vez que nos miramos (1970) {2011 Nueva Integral Box Set CD 02of21}


All thanks goes to the original releaser!

NEXT -> El Camaron de la Isla & Paco de Lucia - Son tus Ojos dos Estrellas (1971) {2011 Nueva Integral Box Set CD 03of21}

Paco de Lucia & Ricardo Mo...va Integral Box Set CD 01of27}
Paco de Lucia & Ricardo Mo...va Integral Box Set CD 02of27}
Paco de Lucia & Ricardo Mo...va Integral Box Set CD 03of27}
Paco de Lucia - La Fabulosa Gu...va Integral Box Set CD 04of27}
Paco de Lucia & Ramon de A...va Integral Box Set CD 05of27}

Paco de Lucia & Ramon de A...va Integral Box Set CD 06of27}
Paco de Lucia - Fantasia Flame...va Integral Box Set CD 07of27}
Paco de Lucia & Ramon de A...va Integral Box Set CD 08of27}
Paco de Lucia & Ramon de A...va Integral Box Set CD 09of27}
Paco de Lucia - El mundo del F...va Integral Box Set CD 10of27}

Paco de Lucia - Recital de Gui...va Integral Box Set CD 11of27}
Paco de Lucia - El Duende Flam...va Integral Box Set CD 12of27}
Paco de Lucia - Fuente y Cauda...va Integral Box Set CD 13of27}
Paco de Lucia - En vivo desde ... Integral Box Set CD 14 of 27}
Paco de Lucia - Almoraima (197... Integral Box Set CD 15 of 27}

Paco de Lucia - Interpreta a M... Integral Box Set CD 16 of 27}
Paco de Lucia - Castro Marin (... Integral Box Set CD 17 of 27}
Paco de Lucia - Solo Quiero Ca... Integral Box Set CD 18 of 27}
Paco de Lucia & Sextet - L... Integral Box Set CD 19 of 27}
Paco de Lucia - Siroco (1987) ... Integral Box Set CD 20 of 27}

Paco de Lucia - Zyryab (1990) ... Integral Box Set CD 21 of 27}
Paco de Lucia - Concierto de A... Integral Box Set CD 22 of 27}
Paco de Lucia & Sextet - L... Integral Box Set CD 23 of 27}
Paco de Lucia , Al Di Meola &a... Integral Box Set CD 24 of 27}
Paco de Lucia - Luzia (1998) {2010 Nueva Integral Box Set CD 25 of 27}

Paco de Lucia - Por Descubrir ... Integral Box Set CD 26 of 27}
Paco de Lucia - Cositas Buenas... Integral Box Set CD 27 of 27}

== Camaron - La Leyenda Del Ti...versary Remastered Edition} ==

Paco de Lucia - En Vivo Concie...5 PAL - Universal Music Spain}

Paco de Lucia - Francisco Sanc...5 PAL] {Universal Music Spain}

Paco de Lucia & John McLau...x 1987 (2016) {2CD+Bonus DVD9}

El Camaron de la Isla & Pa...va Integral Box Set CD 01of21}



===