Subcategories

El Camaron de la Isla & Paco de Lucia - Caminito de Totana (1973) {2011 Nueva Integral Box Set CD 05of21}

Posted By: ruskaval
El Camaron de la Isla & Paco de Lucia - Caminito de Totana (1973) {2011 Nueva Integral Box Set CD 05of21}

El Camaron de la Isla & Paco de Lucia - Caminito de Totana (1973) {2011 Nueva Integral Box Set CD 05of21}
EAC rip (secure mode) | FLAC (tracks)+CUE+LOG -> 210 Mb | MP3 @320 -> 90 Mb | Artwork | 5% repair rar
© 1973, 2011 Philips / Universal Music Spain
Flamenco / World Music / Vocal / Guitar / Latin / Western European Traditions

A limited edition of the Camaron de la Isla 'Integral' box-set. It represents a veritable journey through his life and singing. It includes 21 original albums. The first 17 of them were made in recording studios by Camaron from 1969 to 1992 while he was alive.

Paco de Lucia , for the first time, does not appear in the picture showing us Camarуnn, now in the pose of a "star".

El Camaron de la Isla & Paco de Lucia - Caminito de Totana (1973) {2011 Nueva Integral Box Set CD 05of21}


In the new year we have a new record. The jacket cover is a magnificent picture of Camaron by Pepe Lamarca. Paco de Lucia had gone his way and performed concerts, gaining magnificent successes and, for the first time, does not appear in the picture showing us Camaron, now in the pose of a "star". The classic heading "CAMARON DE LA ISLA, in collaboration with PACO DE LUCНA" remains. Antonio Sanchez sings as author of alI the cuts. Ramon de Algeciras is on second guitar.The record begins with the "taranto" "Caminito de Totana" and continues with some "seguiriyas" of Manuel Molina and Juanichi "El Manijero" with some rhythm of "trianera". Three different "fandangos" are included. The first ones are of "El Niсo de Camas", the second ones are "onubenses" (from Huelva) and the third ones are of Antonio "el de la Calza'". Two successive "bulerias" follow; and Camaron once again improves himself, although he overdoes the "lolailo" in the finishing touches. He also interprets the tangos of Malaga in his own way, followed by a "buleria por solea'", although this time it remains a "buleria" because of the first cante, while the two following are "soleas" (6). The other cuts are formed by "soleares trianeras", "La Malagueсa" of Enrique "el Mellizo" and a "martinete" in the Camaron style, which he tempers with a "tuna".


The world of record-making has by now dew secrets left for Camaron de Ia Isla, but this does not mean that he is totally at ease in the studios. Jose confessed to Velazquez his method of preparing for recordings: "I go to Paco's house and there we start to play and sing between the two of us. Then if Paco hears me do something he thinks is good, he tells me: "do it once again", and we record it. In this way we search for tones and new things (…) I can listen to a "cante" - a fandango I like, for example-, and I can imitate it exactly. But if I think I can give it something of my own that I think is good, if I see that it will not diminish it, it has to be something that l know l can use, I do it… But when I am about to record I become very nervous -I lose my voice!"
El Camaron de la Isla & Paco de Lucia - Caminito de Totana (1973) {2011 Nueva Integral Box Set CD 05of21}


Contents of the Box Set:
CD 1: Al verte las flores lloran (1969)
CD 2: Cada vez que nos miramos (1970)
CD 3: Son tus ojos dos estrellas (1971)
CD 4: Canastera (1972)
CD 5: Caminito de Totana (1973) <- this one
CD 6: Soy caminante (1974)
CD 7: Arte y majestad (1975)
CD 8: Rosa María (1976)
CD 9: Castillo de arena (1977)
CD 10: La leyenda del tiempo (1979)
CD 11: Como el agua (1981)
CD 12: Calle Real (1983)
CD 13: Viviré (1984)
CD 14: Te lo dice Camarón (1986)
CD 15: Flamenco vivo (1987)
CD 16: Soy gitano (1989)
CD 17: Potro de rabia y miel (1992)
CD 18: París, 1987 (1987)
CD 19: Antología inédita (2000)
CD 20: En la Venta de Vargas (2004)
CD 21: Reencuentro (2008)


Personnel:
Camarón de la Isla: Singer
Paco de Lucía: Guitar
Ramon de Algeciras: Second guitar

tracklist:
01 - Caminito de Totana (Taranta almeriense)
02 - Hermanito mio (Deguirillas de Manuel Torre y el Mensajero)
03 - Que no se quitan con na (Fandangos de Juan el Camas)
04 - Dame un poquito de agua (Bulerias)
05 - La jaca que yo tenia (Bulerias)
06 - A la sombra de un laurel (Fandangos de Huelva)
07 - Quisiera volverme pulga (Tangos de Malaga)
08 - Salud antes que dinero (Fandangos de Antonio el de la Calza)
09 - Busco yo mi solea (Bulerias por solea y solea)
10 - A un Sabio le oi decir (Solea de Triana)
11 - Las espinas de una flor (Malaguena del Mellizo)
12 - Las doce acaban de dar (Martinete)

Exact Audio Copy V1.0 beta 3 from 29. August 2011

EAC extraction logfile from 3. March 2012, 17:58

El Camaron de la Isla & Paco de Lucia / Caminito de Totana

Used drive : HL-DT-STDVDRAM GH22NS50 Adapter: 0 ID: 0

Read mode : Secure
Utilize accurate stream : Yes
Defeat audio cache : Yes
Make use of C2 pointers : No

Read offset correction : 667
Overread into Lead-In and Lead-Out : No
Fill up missing offset samples with silence : Yes
Delete leading and trailing silent blocks : No
Null samples used in CRC calculations : Yes
Used interface : Installed external ASPI interface
Gap handling : Appended to previous track

Used output format : User Defined Encoder
Selected bitrate : 1024 kBit/s
Quality : High
Add ID3 tag : No
Command line compressor : C:\Program Files\Exact Audio Copy\Flac\flac.exe
Additional command line options : -8 -V -T "ARTIST=%artist%" -T "TITLE=%title%" -T "ALBUM=%albumtitle%" -T "DATE=%year%" -T "TRACKNUMBER=%tracknr%" -T "TOTALTRACKS=%numtracks%" -T "GENRE=%genre%" -T "ALBUMARTIST=%albumartist%" -T "ALBUM ARTIST=%albumartist%" -T "COMMENT=EAC Secure Mode, Test & Copy, AccurateRip, FLAC -8" %source%


TOC of the extracted CD

Track | Start | Length | Start sector | End sector
––––––––––––––––––––––––––––-
1 | 0:00.00 | 3:10.14 | 0 | 14263
2 | 3:10.14 | 4:11.06 | 14264 | 33094
3 | 7:21.20 | 3:15.65 | 33095 | 47784
4 | 10:37.10 | 3:45.29 | 47785 | 64688
5 | 14:22.39 | 3:46.06 | 64689 | 81644
6 | 18:08.45 | 2:09.24 | 81645 | 91343
7 | 20:17.69 | 3:02.14 | 91344 | 105007
8 | 23:20.08 | 2:51.55 | 105008 | 117887
9 | 26:11.63 | 3:44.02 | 117888 | 134689
10 | 29:55.65 | 3:00.56 | 134690 | 148245
11 | 32:56.46 | 2:33.53 | 148246 | 159773
12 | 35:30.24 | 2:20.53 | 159774 | 170326


Track 1

Filename C:\Users\user\Documents\El Camaron de la Isla & Paco de Lucia - Caminito de Totana (1973) [FLAC] {New Integral Cd 5 of 21}\01 - Caminito de Totana (Taranta almeriense).wav

Pre-gap length 0:00:02.00

Peak level 99.8 %
Extraction speed 1.0 X
Track quality 100.0 %
Test CRC A0DB552A
Copy CRC A0DB552A
Track not present in AccurateRip database
Copy OK

Track 2

Filename C:\Users\user\Documents\El Camaron de la Isla & Paco de Lucia - Caminito de Totana (1973) [FLAC] {New Integral Cd 5 of 21}\02 - Hermanito mio (Deguirillas de Manuel Torre y el Mensajero).wav

Pre-gap length 0:00:01.57

Peak level 99.8 %
Extraction speed 1.2 X
Track quality 100.0 %
Test CRC 8A1355A0
Copy CRC 8A1355A0
Track not present in AccurateRip database
Copy OK

Track 3

Filename C:\Users\user\Documents\El Camaron de la Isla & Paco de Lucia - Caminito de Totana (1973) [FLAC] {New Integral Cd 5 of 21}\03 - Que no se quitan con na (Fandangos de Juan el Camas).wav

Pre-gap length 0:00:01.57

Peak level 99.8 %
Extraction speed 1.0 X
Track quality 99.9 %
Test CRC 25899C0D
Copy CRC 25899C0D
Track not present in AccurateRip database
Copy OK

Track 4

Filename C:\Users\user\Documents\El Camaron de la Isla & Paco de Lucia - Caminito de Totana (1973) [FLAC] {New Integral Cd 5 of 21}\04 - Dame un poquito de agua (Bulerias).wav

Pre-gap length 0:00:01.57

Peak level 99.8 %
Extraction speed 1.3 X
Track quality 100.0 %
Test CRC 8912F187
Copy CRC 8912F187
Track not present in AccurateRip database
Copy OK

Track 5

Filename C:\Users\user\Documents\El Camaron de la Isla & Paco de Lucia - Caminito de Totana (1973) [FLAC] {New Integral Cd 5 of 21}\05 - La jaca que yo tenia (Bulerias).wav

Pre-gap length 0:00:01.69

Peak level 99.8 %
Extraction speed 1.2 X
Track quality 99.9 %
Test CRC 6BDE5197
Copy CRC 6BDE5197
Track not present in AccurateRip database
Copy OK

Track 6

Filename C:\Users\user\Documents\El Camaron de la Isla & Paco de Lucia - Caminito de Totana (1973) [FLAC] {New Integral Cd 5 of 21}\06 - A la sombra de un laurel (Fandangos de Huelva).wav

Pre-gap length 0:00:01.56

Peak level 99.8 %
Extraction speed 1.3 X
Track quality 100.0 %
Test CRC DB00473B
Copy CRC DB00473B
Track not present in AccurateRip database
Copy OK

Track 7

Filename C:\Users\user\Documents\El Camaron de la Isla & Paco de Lucia - Caminito de Totana (1973) [FLAC] {New Integral Cd 5 of 21}\07 - Quisiera volverme pulga (Tangos de Malaga).wav

Pre-gap length 0:00:01.57

Peak level 99.8 %
Extraction speed 1.5 X
Track quality 100.0 %
Test CRC FFC7C166
Copy CRC FFC7C166
Track not present in AccurateRip database
Copy OK

Track 8

Filename C:\Users\user\Documents\El Camaron de la Isla & Paco de Lucia - Caminito de Totana (1973) [FLAC] {New Integral Cd 5 of 21}\08 - Salud antes que dinero (Fandangos de Antonio el de la Calza).wav

Pre-gap length 0:00:01.66

Peak level 99.8 %
Extraction speed 1.5 X
Track quality 100.0 %
Test CRC 0F7FCD4C
Copy CRC 0F7FCD4C
Track not present in AccurateRip database
Copy OK

Track 9

Filename C:\Users\user\Documents\El Camaron de la Isla & Paco de Lucia - Caminito de Totana (1973) [FLAC] {New Integral Cd 5 of 21}\09 - Busco yo mi solea (Bulerias por solea y solea).wav

Pre-gap length 0:00:01.57

Peak level 99.8 %
Extraction speed 1.7 X
Track quality 100.0 %
Test CRC 401C734E
Copy CRC 401C734E
Track not present in AccurateRip database
Copy OK

Track 10

Filename C:\Users\user\Documents\El Camaron de la Isla & Paco de Lucia - Caminito de Totana (1973) [FLAC] {New Integral Cd 5 of 21}\10 - A un Sabio le oi decir (Solea de Triana).wav

Pre-gap length 0:00:01.57

Peak level 99.8 %
Extraction speed 1.7 X
Track quality 100.0 %
Test CRC 0E55852A
Copy CRC 0E55852A
Track not present in AccurateRip database
Copy OK

Track 11

Filename C:\Users\user\Documents\El Camaron de la Isla & Paco de Lucia - Caminito de Totana (1973) [FLAC] {New Integral Cd 5 of 21}\11 - Las espinas de una flor (Malaguena del Mellizo).wav

Pre-gap length 0:00:01.57

Peak level 99.8 %
Extraction speed 1.4 X
Track quality 99.9 %
Test CRC CAE04661
Copy CRC CAE04661
Track not present in AccurateRip database
Copy OK

Track 12

Filename C:\Users\user\Documents\El Camaron de la Isla & Paco de Lucia - Caminito de Totana (1973) [FLAC] {New Integral Cd 5 of 21}\12 - Las doce acaban de dar (Martinete).wav

Pre-gap length 0:00:01.57

Peak level 99.8 %
Extraction speed 1.7 X
Track quality 100.0 %
Test CRC F8B52842
Copy CRC F8B52842
Track not present in AccurateRip database
Copy OK


None of the tracks are present in the AccurateRip database

No errors occurred

End of status report

==== Log checksum 4CE33C0217019E3A5DC06656A11E28FE10DB07C2C58D7580850825985A33F414 ====


El Camaron de la Isla & Paco de Lucia - Caminito de Totana (1973) {2011 Nueva Integral Box Set CD 05of21}


All thanks goes to the original releaser!

NEXT -> El Camaron de la Isla & Paco de Lucia - Soy Caminante (1974) {2011 Nueva Integral Box Set CD 06of21}

Paco de Lucia & Ricardo Mo...va Integral Box Set CD 01of27}
Paco de Lucia & Ricardo Mo...va Integral Box Set CD 02of27}
Paco de Lucia & Ricardo Mo...va Integral Box Set CD 03of27}
Paco de Lucia - La Fabulosa Gu...va Integral Box Set CD 04of27}
Paco de Lucia & Ramon de A...va Integral Box Set CD 05of27}

Paco de Lucia & Ramon de A...va Integral Box Set CD 06of27}
Paco de Lucia - Fantasia Flame...va Integral Box Set CD 07of27}
Paco de Lucia & Ramon de A...va Integral Box Set CD 08of27}
Paco de Lucia & Ramon de A...va Integral Box Set CD 09of27}
Paco de Lucia - El mundo del F...va Integral Box Set CD 10of27}

Paco de Lucia - Recital de Gui...va Integral Box Set CD 11of27}
Paco de Lucia - El Duende Flam...va Integral Box Set CD 12of27}
Paco de Lucia - Fuente y Cauda...va Integral Box Set CD 13of27}
Paco de Lucia - En vivo desde ... Integral Box Set CD 14 of 27}
Paco de Lucia - Almoraima (197... Integral Box Set CD 15 of 27}

Paco de Lucia - Interpreta a M... Integral Box Set CD 16 of 27}
Paco de Lucia - Castro Marin (... Integral Box Set CD 17 of 27}
Paco de Lucia - Solo Quiero Ca... Integral Box Set CD 18 of 27}
Paco de Lucia & Sextet - L... Integral Box Set CD 19 of 27}
Paco de Lucia - Siroco (1987) ... Integral Box Set CD 20 of 27}

Paco de Lucia - Zyryab (1990) ... Integral Box Set CD 21 of 27}
Paco de Lucia - Concierto de A... Integral Box Set CD 22 of 27}
Paco de Lucia & Sextet - L... Integral Box Set CD 23 of 27}
Paco de Lucia , Al Di Meola &a... Integral Box Set CD 24 of 27}
Paco de Lucia - Luzia (1998) {2010 Nueva Integral Box Set CD 25 of 27}

Paco de Lucia - Por Descubrir ... Integral Box Set CD 26 of 27}
Paco de Lucia - Cositas Buenas... Integral Box Set CD 27 of 27}

== Camaron - La Leyenda Del Ti...versary Remastered Edition} ==

Paco de Lucia - En Vivo Concie...5 PAL - Universal Music Spain}

Paco de Lucia - Francisco Sanc...5 PAL] {Universal Music Spain}

Paco de Lucia & John McLau...x 1987 (2016) {2CD+Bonus DVD9}

El Camaron de la Isla & Pa...va Integral Box Set CD 01of21}
El Camaron de la Isla & Pa...va Integral Box Set CD 02of21}
El Camaron de la Isla & Pa...va Integral Box Set CD 03of21}
El Camaron de la Isla & Pa...va Integral Box Set CD 04of21}



===