Tags
Language
Tags

Charlie Haden - The Complete Remastered Recordings On Black Saint & Soul Note (2010) {5CD Set CAM Jazz BXS1001 rec 1977-1990}

Posted By: ruskaval
Charlie Haden - The Complete Remastered Recordings On Black Saint & Soul Note (2010) {5CD Set CAM Jazz BXS1001 rec 1977-1990}

Charlie Haden - The Complete Remastered Recordings On Black Saint & Soul Note (2010) {5CD Set CAM Jazz BXS1001 rec 1977-1990}
EAC rip (secure mode) | FLAC (tracks)+CUE+LOG -> 1.33 Gb | MP3 @320 -> 573 Mb
Full Artwork @ 600 dpi (png) -> 117 Mb | 5% repair rar
© 1977-90, 2010 CAM Jazz / Black Saint / Soul Note | BXS 1001
Jazz / Post Bop / Hard Bop / Bass

THE COMPLETE REMASTERED RECORDINGS ON BLACK SAINT & SOUL NOTE is a monographic box-set collection aimed at recounting the most beautiful chapters that revolutionised the history of jazz.
This new series was launched in March 2010 with the simultaneous release of four box-sets, including albums by some of the artists who participated in the success of the outstanding labels. A philological work, beginning with the original recordings on multi-track master tapes, patiently integrally remastered paying strict attention to the sound quality.
5-CD boxed set that includes remastered versions of the following albums:

* Old And New Dreams
* A Tribute To Blackwell
* Etudes
* Silence
* First Song
The two albums by the ex-Ornette Coleman alumni-group Old and New Dreams are justly celebrated, but they're entirely outshone in this superb five-disc box-set by three relative obscurities: Silence, a fabulous 1989 quartet with Chet Baker (one of his many last recordings); First Song, a trio of the following year with Billy Higgins and Enrico Pieranunzi; and another trio, Etudes, with Geri Allen and Paul Motian, from 1988. Baker's playing on Haden's famous tune "Silence" represents total jazz heaven.
During the 1970s, left-field American jazz recording was at an ebb, and European companies like ECM and these two Italian labels stepped into the breach. This remastered 5-CD set, which flags up an extensive re-issue programme, captures the sonorous bassist in his full-bodied prime. Two albums present him with the sympathetic ex-Ornette Coleman sidemen of the New and Old Dreams Quintet spiky trumpeter Don Cherry a puckish lead and three are impressionist piano trios with Chet Baker adding wistful trumpet on one, Silences.

camjazz.com INFO

tracklist:
CD1 - Old and New Dreams

01. Handwoven
02. Dewey's Tune
03. Chairman Mao
04. Next To The Quiet Stream
05. Augmented
06. Old And New Dreams

Charlie Haden - The Complete Remastered Recordings On Black Saint & Soul Note (2010) {5CD Set CAM Jazz BXS1001 rec 1977-1990}


CD2 - A Tribute to Blackwell
01. Happy House
02. Law Years
03. Togo
04. Dewey's Tune
05. Street Woman

Charlie Haden - The Complete Remastered Recordings On Black Saint & Soul Note (2010) {5CD Set CAM Jazz BXS1001 rec 1977-1990}


CD3 - Etudes
01. Lonely Woman
02. Dolphy's Dance
03. Sandino
04. Fiasco
05. Etude
06. Blues In Motion
07. Silence
08. Shuffle Montgomery
09. Etude

Charlie Haden - The Complete Remastered Recordings On Black Saint & Soul Note (2010) {5CD Set CAM Jazz BXS1001 rec 1977-1990}


CD4 - Silence
01. Visa
02. Silence
03. Echi
04. My Funny Valentine
05. 'Round Midnight
06. Conception

Charlie Haden - The Complete Remastered Recordings On Black Saint & Soul Note (2010) {5CD Set CAM Jazz BXS1001 rec 1977-1990}


CD5 - First Song
01. First Song
02. Je Ne Sais Quoi
03. Polka Dots And Moonbeams
04. Lennie's Pennies
05. News Break
06. All THe Way
07. Si Si
08. For Turiya
09. In The Moment

Charlie Haden - The Complete Remastered Recordings On Black Saint & Soul Note (2010) {5CD Set CAM Jazz BXS1001 rec 1977-1990}


Exact Audio Copy V0.99 prebeta 4 from 23. January 2008

EAC extraction logfile from 17. October 2010, 10:19

Charlie Haden / Old And New Dreams

Used drive : HL-DT-STDVD-ROM GDR8161B Adapter: 0 ID: 1

Read mode : Secure
Utilize accurate stream : Yes
Defeat audio cache : Yes
Make use of C2 pointers : No

Read offset correction : 102
Overread into Lead-In and Lead-Out : No
Fill up missing offset samples with silence : Yes
Delete leading and trailing silent blocks : No
Null samples used in CRC calculations : Yes
Used interface : Native Win32 interface for Win NT & 2000
Gap handling : Appended to previous track

Used output format : User Defined Encoder
Selected bitrate : 768 kBit/s
Quality : High
Add ID3 tag : No
Command line compressor : C:\Program Files (x86)\Exact Audio Copy\Flac\flac.exe
Additional command line options : -8 -V -T "ARTIST=%a" -T "TITLE=%t" -T "ALBUM=%g" -T "DATE=%y" -T "TRACKNUMBER=%n" -T "TOTALTRACKS=%x" -T "GENRE=%m" -T "ALBUMARTIST=%v" -T "ALBUM ARTIST=%v" -T "COMMENT=EAC Secure Mode, Test & Copy, AccurateRip, FLAC -8" %s


TOC of the extracted CD

Track | Start | Length | Start sector | End sector
––––––––––––––––––––––––––––-
1 | 0:00.00 | 6:57.13 | 0 | 31287
2 | 6:57.13 | 5:57.39 | 31288 | 58101
3 | 12:54.52 | 7:39.03 | 58102 | 92529
4 | 20:33.55 | 6:48.57 | 92530 | 123186
5 | 27:22.37 | 10:12.04 | 123187 | 169090
6 | 37:34.41 | 6:23.74 | 169091 | 197889


Track 1

Filename D:\UPload\Charlie Haden - The Complete Remastered Recordings on Black Saint & Soul Note\CD1 - Old and New Dreams\01 - Handwoven.wav

Pre-gap length 0:00:02.00

Peak level 76.9 %
Track quality 100.0 %
Test CRC 86250270
Copy CRC 86250270
Accurately ripped (confidence 1) [78F1DB8D]
Copy OK

Track 2

Filename D:\UPload\Charlie Haden - The Complete Remastered Recordings on Black Saint & Soul Note\CD1 - Old and New Dreams\02 - Dewey's Tune.wav

Pre-gap length 0:00:03.28

Peak level 76.5 %
Track quality 100.0 %
Test CRC 6C116822
Copy CRC 6C116822
Accurately ripped (confidence 1) [2D1248EC]
Copy OK

Track 3

Filename D:\UPload\Charlie Haden - The Complete Remastered Recordings on Black Saint & Soul Note\CD1 - Old and New Dreams\03 - Chairman Mao.wav

Pre-gap length 0:00:03.22

Peak level 71.7 %
Track quality 100.0 %
Test CRC 4B01EA2E
Copy CRC 4B01EA2E
Accurately ripped (confidence 1) [9D2D4D04]
Copy OK

Track 4

Filename D:\UPload\Charlie Haden - The Complete Remastered Recordings on Black Saint & Soul Note\CD1 - Old and New Dreams\04 - Next to the Quiet Stream.wav

Pre-gap length 0:00:04.89

Peak level 93.9 %
Track quality 99.9 %
Test CRC 32DAAE4C
Copy CRC 32DAAE4C
Accurately ripped (confidence 1) [FB7B1E5C]
Copy OK

Track 5

Filename D:\UPload\Charlie Haden - The Complete Remastered Recordings on Black Saint & Soul Note\CD1 - Old and New Dreams\05 - Augmented.wav

Pre-gap length 0:00:03.20

Peak level 69.0 %
Track quality 100.0 %
Test CRC 1A58A2AD
Copy CRC 1A58A2AD
Accurately ripped (confidence 1) [10FB2AB9]
Copy OK

Track 6

Filename D:\UPload\Charlie Haden - The Complete Remastered Recordings on Black Saint & Soul Note\CD1 - Old and New Dreams\06 - Old and New Dreams.wav

Pre-gap length 0:00:05.46

Peak level 57.7 %
Track quality 100.0 %
Test CRC A55E3AA3
Copy CRC A55E3AA3
Accurately ripped (confidence 1) [36406D4A]
Copy OK


All tracks accurately ripped

No errors occurred

End of status report

Exact Audio Copy V0.99 prebeta 4 from 23. January 2008

EAC extraction logfile from 17. October 2010, 10:37

Old And New Dreams / A Tribute To Blackwell

Used drive : HL-DT-STDVD-ROM GDR8161B Adapter: 0 ID: 1

Read mode : Secure
Utilize accurate stream : Yes
Defeat audio cache : Yes
Make use of C2 pointers : No

Read offset correction : 102
Overread into Lead-In and Lead-Out : No
Fill up missing offset samples with silence : Yes
Delete leading and trailing silent blocks : No
Null samples used in CRC calculations : Yes
Used interface : Native Win32 interface for Win NT & 2000
Gap handling : Appended to previous track

Used output format : User Defined Encoder
Selected bitrate : 768 kBit/s
Quality : High
Add ID3 tag : No
Command line compressor : C:\Program Files (x86)\Exact Audio Copy\Flac\flac.exe
Additional command line options : -8 -V -T "ARTIST=%a" -T "TITLE=%t" -T "ALBUM=%g" -T "DATE=%y" -T "TRACKNUMBER=%n" -T "TOTALTRACKS=%x" -T "GENRE=%m" -T "ALBUMARTIST=%v" -T "ALBUM ARTIST=%v" -T "COMMENT=EAC Secure Mode, Test & Copy, AccurateRip, FLAC -8" %s


TOC of the extracted CD

Track | Start | Length | Start sector | End sector
––––––––––––––––––––––––––––-
1 | 0:00.00 | 9:19.14 | 0 | 41938
2 | 9:19.14 | 9:02.31 | 41939 | 82619
3 | 18:21.45 | 8:15.15 | 82620 | 119759
4 | 26:36.60 | 11:29.72 | 119760 | 171506
5 | 38:06.57 | 9:34.11 | 171507 | 214567


Track 1

Filename D:\UPload\Charlie Haden - The Complete Remastered Recordings on Black Saint & Soul Note\CD2 - A Tribute to Blackwell\01 - Happy House.wav

Pre-gap length 0:00:02.00

Peak level 100.0 %
Track quality 99.9 %
Test CRC A1499D2D
Copy CRC A1499D2D
Accurately ripped (confidence 1) [03AE1D63]
Copy OK

Track 2

Filename D:\UPload\Charlie Haden - The Complete Remastered Recordings on Black Saint & Soul Note\CD2 - A Tribute to Blackwell\02 - Law Years.wav

Pre-gap length 0:00:04.17

Peak level 97.5 %
Track quality 100.0 %
Test CRC 25D50D33
Copy CRC 25D50D33
Accurately ripped (confidence 1) [709620A4]
Copy OK

Track 3

Filename D:\UPload\Charlie Haden - The Complete Remastered Recordings on Black Saint & Soul Note\CD2 - A Tribute to Blackwell\03 - Togo.wav

Pre-gap length 0:00:02.29

Peak level 94.4 %
Track quality 100.0 %
Test CRC 7671A23E
Copy CRC 7671A23E
Accurately ripped (confidence 1) [0947BE1E]
Copy OK

Track 4

Filename D:\UPload\Charlie Haden - The Complete Remastered Recordings on Black Saint & Soul Note\CD2 - A Tribute to Blackwell\04 - Dewey's Tune.wav

Pre-gap length 0:00:03.26

Peak level 95.7 %
Track quality 100.0 %
Test CRC 397B058F
Copy CRC 397B058F
Accurately ripped (confidence 1) [E076D7D9]
Copy OK

Track 5

Filename D:\UPload\Charlie Haden - The Complete Remastered Recordings on Black Saint & Soul Note\CD2 - A Tribute to Blackwell\05 - Street Woman.wav

Pre-gap length 0:00:02.89

Peak level 94.2 %
Track quality 99.9 %
Test CRC 6994C79D
Copy CRC 6994C79D
Accurately ripped (confidence 1) [E4CC56B8]
Copy OK


All tracks accurately ripped

No errors occurred

End of status report

Exact Audio Copy V0.99 prebeta 4 from 23. January 2008

EAC extraction logfile from 18. October 2010, 11:25

CHARLIE HADEN, PAUL MOTIAN feat. GERI ALLEN / Etudes

Used drive : HL-DT-STDVD-ROM GDR8161B Adapter: 0 ID: 1

Read mode : Secure
Utilize accurate stream : Yes
Defeat audio cache : Yes
Make use of C2 pointers : No

Read offset correction : 102
Overread into Lead-In and Lead-Out : No
Fill up missing offset samples with silence : Yes
Delete leading and trailing silent blocks : No
Null samples used in CRC calculations : Yes
Used interface : Native Win32 interface for Win NT & 2000
Gap handling : Appended to previous track

Used output format : User Defined Encoder
Selected bitrate : 768 kBit/s
Quality : High
Add ID3 tag : No
Command line compressor : C:\Program Files (x86)\Exact Audio Copy\Flac\flac.exe
Additional command line options : -8 -V -T "ARTIST=%a" -T "TITLE=%t" -T "ALBUM=%g" -T "DATE=%y" -T "TRACKNUMBER=%n" -T "TOTALTRACKS=%x" -T "GENRE=%m" -T "ALBUMARTIST=%v" -T "ALBUM ARTIST=%v" -T "COMMENT=EAC Secure Mode, Test & Copy, AccurateRip, FLAC -8" %s


TOC of the extracted CD

Track | Start | Length | Start sector | End sector
––––––––––––––––––––––––––––-
1 | 0:00.00 | 9:57.60 | 0 | 44834
2 | 9:57.60 | 4:06.48 | 44835 | 63332
3 | 14:04.33 | 4:45.73 | 63333 | 84780
4 | 18:50.31 | 5:42.53 | 84781 | 110483
5 | 24:33.09 | 2:12.06 | 110484 | 120389
6 | 26:45.15 | 7:00.53 | 120390 | 151942
7 | 33:45.68 | 6:39.54 | 151943 | 181921
8 | 40:25.47 | 6:29.63 | 181922 | 211159
9 | 46:55.35 | 2:10.28 | 211160 | 220937


Track 1

Filename D:\UPload\Charlie Haden - The Complete Remastered Recordings on Black Saint & Soul Note\CD3 - Etudes\01 - Lonely Woman.wav

Pre-gap length 0:00:02.00

Peak level 96.9 %
Track quality 100.0 %
Test CRC 97A52879
Copy CRC 97A52879
Accurately ripped (confidence 1) [71A8F1FA]
Copy OK

Track 2

Filename D:\UPload\Charlie Haden - The Complete Remastered Recordings on Black Saint & Soul Note\CD3 - Etudes\02 - Dolphy's Dance.wav

Pre-gap length 0:00:03.12

Peak level 100.0 %
Track quality 100.0 %
Test CRC F66CBE73
Copy CRC F66CBE73
Accurately ripped (confidence 1) [FEE6E73F]
Copy OK

Track 3

Filename D:\UPload\Charlie Haden - The Complete Remastered Recordings on Black Saint & Soul Note\CD3 - Etudes\03 - Sandino.wav

Pre-gap length 0:00:04.57

Peak level 89.2 %
Track quality 100.0 %
Test CRC E16AA6A7
Copy CRC E16AA6A7
Accurately ripped (confidence 1) [8195DD97]
Copy OK

Track 4

Filename D:\UPload\Charlie Haden - The Complete Remastered Recordings on Black Saint & Soul Note\CD3 - Etudes\04 - Fiasco.wav

Pre-gap length 0:00:03.48

Peak level 100.0 %
Track quality 100.0 %
Test CRC 00B5EF60
Copy CRC 00B5EF60
Accurately ripped (confidence 1) [0675ED65]
Copy OK

Track 5

Filename D:\UPload\Charlie Haden - The Complete Remastered Recordings on Black Saint & Soul Note\CD3 - Etudes\05 - Etude II.wav

Pre-gap length 0:00:04.69

Peak level 53.8 %
Track quality 100.0 %
Test CRC 8AB3055A
Copy CRC 8AB3055A
Accurately ripped (confidence 1) [0FA57DDD]
Copy OK

Track 6

Filename D:\UPload\Charlie Haden - The Complete Remastered Recordings on Black Saint & Soul Note\CD3 - Etudes\06 - Blues in Motian.wav

Pre-gap length 0:00:03.64

Peak level 99.3 %
Track quality 99.9 %
Test CRC FFC54E5F
Copy CRC FFC54E5F
Accurately ripped (confidence 1) [AFDC53FB]
Copy OK

Track 7

Filename D:\UPload\Charlie Haden - The Complete Remastered Recordings on Black Saint & Soul Note\CD3 - Etudes\07 - Silence.wav

Pre-gap length 0:00:02.97

Peak level 81.8 %
Track quality 100.0 %
Test CRC C130B572
Copy CRC C130B572
Accurately ripped (confidence 1) [E93F3CE9]
Copy OK

Track 8

Filename D:\UPload\Charlie Haden - The Complete Remastered Recordings on Black Saint & Soul Note\CD3 - Etudes\08 - Shuffle Montgomery.wav

Pre-gap length 0:00:06.64

Peak level 100.0 %
Track quality 99.9 %
Test CRC 7F8C894A
Copy CRC 7F8C894A
Accurately ripped (confidence 1) [27BB5F0B]
Copy OK

Track 9

Filename D:\UPload\Charlie Haden - The Complete Remastered Recordings on Black Saint & Soul Note\CD3 - Etudes\09 - Etude I.wav

Pre-gap length 0:00:05.02

Peak level 76.0 %
Track quality 100.0 %
Test CRC D41928D1
Copy CRC D41928D1
Accurately ripped (confidence 1) [F96083AC]
Copy OK


All tracks accurately ripped

No errors occurred

End of status report

Exact Audio Copy V0.99 prebeta 4 from 23. January 2008

EAC extraction logfile from 18. October 2010, 12:17

C. Haden, C. Baker, E. Pieranunzi, B. Higgins / Silence

Used drive : HL-DT-STDVD-ROM GDR8161B Adapter: 0 ID: 1

Read mode : Secure
Utilize accurate stream : Yes
Defeat audio cache : Yes
Make use of C2 pointers : No

Read offset correction : 102
Overread into Lead-In and Lead-Out : No
Fill up missing offset samples with silence : Yes
Delete leading and trailing silent blocks : No
Null samples used in CRC calculations : Yes
Used interface : Native Win32 interface for Win NT & 2000
Gap handling : Appended to previous track

Used output format : User Defined Encoder
Selected bitrate : 768 kBit/s
Quality : High
Add ID3 tag : No
Command line compressor : C:\Program Files (x86)\Exact Audio Copy\Flac\flac.exe
Additional command line options : -8 -V -T "ARTIST=%a" -T "TITLE=%t" -T "ALBUM=%g" -T "DATE=%y" -T "TRACKNUMBER=%n" -T "TOTALTRACKS=%x" -T "GENRE=%m" -T "ALBUMARTIST=%v" -T "ALBUM ARTIST=%v" -T "COMMENT=EAC Secure Mode, Test & Copy, AccurateRip, FLAC -8" %s


TOC of the extracted CD

Track | Start | Length | Start sector | End sector
––––––––––––––––––––––––––––-
1 | 0:00.00 | 5:46.35 | 0 | 25984
2 | 5:46.35 | 8:43.71 | 25985 | 65280
3 | 14:30.31 | 6:08.27 | 65281 | 92907
4 | 20:38.58 | 5:38.50 | 92908 | 118307
5 | 26:17.33 | 11:34.21 | 118308 | 170378
6 | 37:51.54 | 5:56.49 | 170379 | 197127


Track 1

Filename D:\UPload\Charlie Haden - The Complete Remastered Recordings on Black Saint & Soul Note\CD4 - Silence\01 - Visa.wav

Pre-gap length 0:00:02.00

Peak level 94.9 %
Track quality 100.0 %
Test CRC 1C2E0B2C
Copy CRC 1C2E0B2C
Accurately ripped (confidence 1) [19495A14]
Copy OK

Track 2

Filename D:\UPload\Charlie Haden - The Complete Remastered Recordings on Black Saint & Soul Note\CD4 - Silence\02 - Silence.wav

Pre-gap length 0:00:03.17

Peak level 81.1 %
Track quality 100.0 %
Test CRC BB7D0652
Copy CRC BB7D0652
Accurately ripped (confidence 1) [2B086B20]
Copy OK

Track 3

Filename D:\UPload\Charlie Haden - The Complete Remastered Recordings on Black Saint & Soul Note\CD4 - Silence\03 - Echi.wav

Pre-gap length 0:00:02.90

Peak level 95.7 %
Track quality 100.0 %
Test CRC CD9FB919
Copy CRC CD9FB919
Accurately ripped (confidence 1) [328560B1]
Copy OK

Track 4

Filename D:\UPload\Charlie Haden - The Complete Remastered Recordings on Black Saint & Soul Note\CD4 - Silence\04 - My Funny Valentine.wav

Pre-gap length 0:00:02.44

Peak level 84.9 %
Track quality 100.0 %
Test CRC 320C5802
Copy CRC 320C5802
Accurately ripped (confidence 1) [668A9EE5]
Copy OK

Track 5

Filename D:\UPload\Charlie Haden - The Complete Remastered Recordings on Black Saint & Soul Note\CD4 - Silence\05 - 'Round About Midnight.wav

Pre-gap length 0:00:03.24

Peak level 95.6 %
Track quality 100.0 %
Test CRC 251B8707
Copy CRC 251B8707
Accurately ripped (confidence 1) [B3E77BCC]
Copy OK

Track 6

Filename D:\UPload\Charlie Haden - The Complete Remastered Recordings on Black Saint & Soul Note\CD4 - Silence\06 - Conception.wav

Pre-gap length 0:00:02.20

Peak level 96.7 %
Track quality 99.9 %
Test CRC AA28E573
Copy CRC AA28E573
Accurately ripped (confidence 1) [B2A04FD3]
Copy OK


All tracks accurately ripped

No errors occurred

End of status report

Exact Audio Copy V0.99 prebeta 4 from 23. January 2008

EAC extraction logfile from 18. October 2010, 11:51

Charlie Haden, Billy Higgins, Enrico Pieranunzi / First Song

Used drive : HL-DT-STDVD-ROM GDR8161B Adapter: 0 ID: 1

Read mode : Secure
Utilize accurate stream : Yes
Defeat audio cache : Yes
Make use of C2 pointers : No

Read offset correction : 102
Overread into Lead-In and Lead-Out : No
Fill up missing offset samples with silence : Yes
Delete leading and trailing silent blocks : No
Null samples used in CRC calculations : Yes
Used interface : Native Win32 interface for Win NT & 2000
Gap handling : Appended to previous track

Used output format : User Defined Encoder
Selected bitrate : 768 kBit/s
Quality : High
Add ID3 tag : No
Command line compressor : C:\Program Files (x86)\Exact Audio Copy\Flac\flac.exe
Additional command line options : -8 -V -T "ARTIST=%a" -T "TITLE=%t" -T "ALBUM=%g" -T "DATE=%y" -T "TRACKNUMBER=%n" -T "TOTALTRACKS=%x" -T "GENRE=%m" -T "ALBUMARTIST=%v" -T "ALBUM ARTIST=%v" -T "COMMENT=EAC Secure Mode, Test & Copy, AccurateRip, FLAC -8" %s


TOC of the extracted CD

Track | Start | Length | Start sector | End sector
––––––––––––––––––––––––––––-
1 | 0:00.00 | 10:07.17 | 0 | 45541
2 | 10:07.17 | 5:43.15 | 45542 | 71281
3 | 15:50.32 | 6:46.17 | 71282 | 101748
4 | 22:36.49 | 7:02.65 | 101749 | 133463
5 | 29:39.39 | 5:07.08 | 133464 | 156496
6 | 34:46.47 | 6:30.65 | 156497 | 185811
7 | 41:17.37 | 10:33.57 | 185812 | 233343
8 | 51:51.19 | 3:30.36 | 233344 | 249129
9 | 55:21.55 | 4:52.60 | 249130 | 271089


Track 1

Filename D:\UPload\Charlie Haden - The Complete Remastered Recordings on Black Saint & Soul Note\CD5 - First Song\01 - First Song.wav

Pre-gap length 0:00:02.00

Peak level 94.4 %
Track quality 100.0 %
Test CRC A80F7486
Copy CRC A80F7486
Accurately ripped (confidence 1) [A2DAAC5E]
Copy OK

Track 2

Filename D:\UPload\Charlie Haden - The Complete Remastered Recordings on Black Saint & Soul Note\CD5 - First Song\02 - Je Ne Sais Quoi.wav

Pre-gap length 0:00:02.01

Peak level 94.5 %
Track quality 100.0 %
Test CRC 25212027
Copy CRC 25212027
Accurately ripped (confidence 1) [CC9BB8EE]
Copy OK

Track 3

Filename D:\UPload\Charlie Haden - The Complete Remastered Recordings on Black Saint & Soul Note\CD5 - First Song\03 - Polka Dots And Moonbeams.wav

Pre-gap length 0:00:03.33

Peak level 77.7 %
Track quality 100.0 %
Test CRC 40ABA504
Copy CRC 40ABA504
Accurately ripped (confidence 1) [99BE4FD5]
Copy OK

Track 4

Filename D:\UPload\Charlie Haden - The Complete Remastered Recordings on Black Saint & Soul Note\CD5 - First Song\04 - Lennie's Pennies.wav

Pre-gap length 0:00:02.69

Peak level 94.5 %
Track quality 100.0 %
Test CRC 8E113A41
Copy CRC 8E113A41
Accurately ripped (confidence 1) [EEB61067]
Copy OK

Track 5

Filename D:\UPload\Charlie Haden - The Complete Remastered Recordings on Black Saint & Soul Note\CD5 - First Song\05 - News Break.wav

Pre-gap length 0:00:03.04

Peak level 94.4 %
Track quality 100.0 %
Test CRC 0081F2F3
Copy CRC 0081F2F3
Accurately ripped (confidence 1) [003E77F3]
Copy OK

Track 6

Filename D:\UPload\Charlie Haden - The Complete Remastered Recordings on Black Saint & Soul Note\CD5 - First Song\06 - All The Way.wav

Pre-gap length 0:00:02.49

Peak level 94.1 %
Track quality 99.9 %
Test CRC BCE083FD
Copy CRC BCE083FD
Accurately ripped (confidence 1) [9A4D7D0F]
Copy OK

Track 7

Filename D:\UPload\Charlie Haden - The Complete Remastered Recordings on Black Saint & Soul Note\CD5 - First Song\07 - Si Si.wav

Pre-gap length 0:00:02.46

Peak level 94.4 %
Track quality 100.0 %
Test CRC ABB44923
Copy CRC ABB44923
Accurately ripped (confidence 1) [D3E99D59]
Copy OK

Track 8

Filename D:\UPload\Charlie Haden - The Complete Remastered Recordings on Black Saint & Soul Note\CD5 - First Song\08 - For Turiya.wav

Pre-gap length 0:00:02.40

Peak level 88.3 %
Track quality 100.0 %
Test CRC FD8A039B
Copy CRC FD8A039B
Accurately ripped (confidence 1) [F1589FC4]
Copy OK

Track 9

Filename D:\UPload\Charlie Haden - The Complete Remastered Recordings on Black Saint & Soul Note\CD5 - First Song\09 - In The Moment.wav

Pre-gap length 0:00:01.97

Peak level 94.6 %
Track quality 100.0 %
Test CRC 5823DF72
Copy CRC 5823DF72
Accurately ripped (confidence 1) [E46DF41D]
Copy OK


All tracks accurately ripped

No errors occurred

End of status report



Charlie Haden - The Complete Remastered Recordings On Black Saint & Soul Note (2010) {5CD Set CAM Jazz BXS1001 rec 1977-1990}

Charlie Haden - The Complete Remastered Recordings On Black Saint & Soul Note (2010) {5CD Set CAM Jazz BXS1001 rec 1977-1990}

Charlie Haden - The Complete Remastered Recordings On Black Saint & Soul Note (2010) {5CD Set CAM Jazz BXS1001 rec 1977-1990}



===