Subcategories

The Danish Radio Big Band & Charlie Watts - Charlie Watts Meets the Danish Radio Big Band (Live) (2017)

Posted By: delpotro
The Danish Radio Big Band & Charlie Watts - Charlie Watts Meets the Danish Radio Big Band (Live) (2017)

The Danish Radio Big Band & Charlie Watts – Charlie Watts Meets the Danish Radio Big Band (Live at Danish Radio Concert Hall, Copenhagen / 2010) (2017)
EAC Rip | FLAC (tracks+log+.cue) | Scans included | 00:51:52 | 321 Mb
Jazz, Big Band | Label: Impulse! Records, Universal Music

Recorded live in Copenhagen in 2010, iconic Rolling Stones drummer Charlie Watts joins The Danish Radio Big Band for a legendary one-off concert. On this release, Watts revisits his musical past of living in Denmark briefly in the early 1960's sitting in with jazz and blues bands. Original pieces and big band takes on Stones classics fill this title with a dynamic listening experience sure to excite classic rock fans and jazz-heads alike.
Tracklist:
1. Charlie Watts & The Danish Radio Big Band – Elvin Suite, Pt. 1 (feat. David Green & Peter Jensen) [Live at Danish Radio Concert Hall, Copenhagen / 2010] (09:16)
2. The Danish Radio Big Band & Charlie Watts – Elvin Suite, Pt. 2 (feat. David Green & Uffe Markussen) [Live at Danish Radio Concert Hall, Copenhagen / 2010] (05:54)
3. The Danish Radio Big Band & Charlie Watts – (Satis) Faction [feat. Gerard Presencer, Lars Møller & David Green] [Live at Danish Radio Concert Hall, Copenhagen / 2010] (06:10)
4. The Danish Radio Big Band & Charlie Watts – I Should Care (feat. David Green, Gerard Presencer & Steen Nikolaj Hansen) [Live at Danish Radio Concert Hall, Copenhagen / 2010] (08:00)
5. The Danish Radio Big Band & Charlie Watts – You Can't Always Get What You Want (feat. Gerard Presencer & Pernille Bévort) [Live at Danish Radio Concert Hall, Copenhagen / 2010] (07:10)
6. The Danish Radio Big Band & Charlie Watts – Paint It Black (feat. Per Gade & Gerard Presencer) [Live at Danish Radio Concert Hall, Copenhagen / 2010] (07:43)
7. The Danish Radio Big Band & Charlie Watts – Molasses (feat. David Green, Nicolai Schultz & Vincent Nilsson) [Live at Danish Radio Concert Hall, Copenhagen / 2010] (07:36)

Exact Audio Copy V1.3 from 2. September 2016

EAC extraction logfile from 15. March 2019, 14:05

Charlie Watts Meets The Danish Radio Big Band / Charlie Watts Meets The Danish Radio Big Band

Used drive : PLEXTOR PX-891SAF Adapter: 1 ID: 0

Read mode : Secure
Utilize accurate stream : Yes
Defeat audio cache : Yes
Make use of C2 pointers : No

Read offset correction : 6
Overread into Lead-In and Lead-Out : No
Fill up missing offset samples with silence : Yes
Delete leading and trailing silent blocks : No
Null samples used in CRC calculations : Yes
Used interface : Native Win32 interface for Win NT & 2000
Gap handling : Appended to previous track

Used output format : User Defined Encoder
Selected bitrate : 1024 kBit/s
Quality : High
Add ID3 tag : No
Command line compressor : C:\Program Files (x86)\Exact Audio Copy\Flac\flac.exe
Additional command line options : -8 -V -T "ARTIST=%artist%" -T "TITLE=%title%" -T "ALBUM=%albumtitle%" -T "DATE=%year%" -T "TRACKNUMBER=%tracknr%" -T "GENRE=%genre%" -T "PERFORMER=%albuminterpret%" -T "COMPOSER=%composer%" %haslyrics%–tag-from-file=LYRICS="%lyricsfile%"%haslyrics% -T "ALBUMARTIST=%albumartist%" -T "DISCNUMBER=%cdnumber%" -T "TOTALDISCS=%totalcds%" -T "TOTALTRACKS=%numtracks%" -T "COMMENT=%comment%" %source% -o %dest%


TOC of the extracted CD

Track | Start | Length | Start sector | End sector
––––––––––––––––––––––––––––-
1 | 0:00.00 | 9:16.04 | 0 | 41703
2 | 9:16.04 | 5:54.11 | 41704 | 68264
3 | 15:10.15 | 6:10.53 | 68265 | 96067
4 | 21:20.68 | 8:00.41 | 96068 | 132108
5 | 29:21.34 | 7:10.67 | 132109 | 164425
6 | 36:32.26 | 7:43.64 | 164426 | 199214
7 | 44:16.15 | 7:36.26 | 199215 | 233440


Track 1

Filename D:\#New wav + flac II\Charlie Watts - Meets The Danish Radio Big Band\01. Charlie Watts Meets The Danish Radio Big Band - Elvin Suite, Part 1.wav

Pre-gap length 0:00:02.00

Peak level 84.1 %
Extraction speed 5.9 X
Track quality 100.0 %
Test CRC 9CF806E4
Copy CRC 9CF806E4
Accurately ripped (confidence 26) [6A90D878] (AR v2)
Copy OK

Track 2

Filename D:\#New wav + flac II\Charlie Watts - Meets The Danish Radio Big Band\02. Charlie Watts Meets The Danish Radio Big Band - Elvin Suite, Part 2.wav

Peak level 86.3 %
Extraction speed 6.7 X
Track quality 100.0 %
Test CRC 42070AAB
Copy CRC 42070AAB
Accurately ripped (confidence 26) [AFAB39F0] (AR v2)
Copy OK

Track 3

Filename D:\#New wav + flac II\Charlie Watts - Meets The Danish Radio Big Band\03. Charlie Watts Meets The Danish Radio Big Band - (Satis) Faction.wav

Peak level 97.2 %
Extraction speed 7.5 X
Track quality 100.0 %
Test CRC E7E08FC3
Copy CRC E7E08FC3
Accurately ripped (confidence 26) [C8305B39] (AR v2)
Copy OK

Track 4

Filename D:\#New wav + flac II\Charlie Watts - Meets The Danish Radio Big Band\04. Charlie Watts Meets The Danish Radio Big Band - I Should Care.wav

Peak level 97.1 %
Extraction speed 8.4 X
Track quality 100.0 %
Test CRC 55153CA7
Copy CRC 55153CA7
Accurately ripped (confidence 27) [02456F5D] (AR v2)
Copy OK

Track 5

Filename D:\#New wav + flac II\Charlie Watts - Meets The Danish Radio Big Band\05. Charlie Watts Meets The Danish Radio Big Band - You Can't Always Get What You Want.wav

Peak level 94.1 %
Extraction speed 9.0 X
Track quality 100.0 %
Test CRC 1DC7B159
Copy CRC 1DC7B159
Accurately ripped (confidence 27) [A9092708] (AR v2)
Copy OK

Track 6

Filename D:\#New wav + flac II\Charlie Watts - Meets The Danish Radio Big Band\06. Charlie Watts Meets The Danish Radio Big Band - Paint It Black.wav

Peak level 91.0 %
Extraction speed 9.7 X
Track quality 100.0 %
Test CRC 7CFF33F2
Copy CRC 7CFF33F2
Accurately ripped (confidence 27) [8E85D65E] (AR v2)
Copy OK

Track 7

Filename D:\#New wav + flac II\Charlie Watts - Meets The Danish Radio Big Band\07. Charlie Watts Meets The Danish Radio Big Band - Molasses.wav

Peak level 98.5 %
Extraction speed 10.3 X
Track quality 100.0 %
Test CRC 4B034589
Copy CRC 4B034589
Accurately ripped (confidence 27) [473A5FEE] (AR v2)
Copy OK


All tracks accurately ripped

No errors occurred

End of status report

–– CUETools DB Plugin V2.1.6

[CTDB TOCID: QrWg8KuVbJxC2RFpd8DtkjDnYCc-] found
Submit result: QrWg8KuVbJxC2RFpd8DtkjDnYCc- has been confirmed
Track | CTDB Status
1 | (61/61) Accurately ripped
2 | (61/61) Accurately ripped
3 | (61/61) Accurately ripped
4 | (61/61) Accurately ripped
5 | (61/61) Accurately ripped
6 | (61/61) Accurately ripped
7 | (61/61) Accurately ripped


==== Log checksum 076C7FB0AD37FBBB3CB1028C3457DF02D525E9E7A116AD981ACC893CC5004062 ====

––––––––––––––––––––––––––––––

Exact Audio Copy V1.3 from 2. September 2016

EAC extraction logfile from 15. March 2019, 14:05

Charlie Watts Meets The Danish Radio Big Band / Charlie Watts Meets The Danish Radio Big Band

Used drive : PLEXTOR PX-891SAF Adapter: 1 ID: 0

Read mode : Secure
Utilize accurate stream : Yes
Defeat audio cache : Yes
Make use of C2 pointers : No

Read offset correction : 6
Overread into Lead-In and Lead-Out : No
Fill up missing offset samples with silence : Yes
Delete leading and trailing silent blocks : No
Null samples used in CRC calculations : Yes
Used interface : Native Win32 interface for Win NT & 2000
Gap handling : Appended to previous track

Used output format : User Defined Encoder
Selected bitrate : 1024 kBit/s
Quality : High
Add ID3 tag : No
Command line compressor : C:\Program Files (x86)\Exact Audio Copy\Flac\flac.exe
Additional command line options : -8 -V -T "ARTIST=%artist%" -T "TITLE=%title%" -T "ALBUM=%albumtitle%" -T "DATE=%year%" -T "TRACKNUMBER=%tracknr%" -T "GENRE=%genre%" -T "PERFORMER=%albuminterpret%" -T "COMPOSER=%composer%" %haslyrics%–tag-from-file=LYRICS="%lyricsfile%"%haslyrics% -T "ALBUMARTIST=%albumartist%" -T "DISCNUMBER=%cdnumber%" -T "TOTALDISCS=%totalcds%" -T "TOTALTRACKS=%numtracks%" -T "COMMENT=%comment%" %source% -o %dest%


TOC of the extracted CD

Track | Start | Length | Start sector | End sector
––––––––––––––––––––––––––––-
1 | 0:00.00 | 9:16.04 | 0 | 41703
2 | 9:16.04 | 5:54.11 | 41704 | 68264
3 | 15:10.15 | 6:10.53 | 68265 | 96067
4 | 21:20.68 | 8:00.41 | 96068 | 132108
5 | 29:21.34 | 7:10.67 | 132109 | 164425
6 | 36:32.26 | 7:43.64 | 164426 | 199214
7 | 44:16.15 | 7:36.26 | 199215 | 233440


Track 1

Filename D:\#New wav + flac II\Charlie Watts - Meets The Danish Radio Big Band\01. Charlie Watts Meets The Danish Radio Big Band - Elvin Suite, Part 1.wav

Pre-gap length 0:00:02.00

Peak level 84.1 %
Extraction speed 5.9 X
Track quality 100.0 %
Test CRC 9CF806E4
Copy CRC 9CF806E4
Accurately ripped (confidence 26) [6A90D878] (AR v2)
Copy OK

Track 2

Filename D:\#New wav + flac II\Charlie Watts - Meets The Danish Radio Big Band\02. Charlie Watts Meets The Danish Radio Big Band - Elvin Suite, Part 2.wav

Peak level 86.3 %
Extraction speed 6.7 X
Track quality 100.0 %
Test CRC 42070AAB
Copy CRC 42070AAB
Accurately ripped (confidence 26) [AFAB39F0] (AR v2)
Copy OK

Track 3

Filename D:\#New wav + flac II\Charlie Watts - Meets The Danish Radio Big Band\03. Charlie Watts Meets The Danish Radio Big Band - (Satis) Faction.wav

Peak level 97.2 %
Extraction speed 7.5 X
Track quality 100.0 %
Test CRC E7E08FC3
Copy CRC E7E08FC3
Accurately ripped (confidence 26) [C8305B39] (AR v2)
Copy OK

Track 4

Filename D:\#New wav + flac II\Charlie Watts - Meets The Danish Radio Big Band\04. Charlie Watts Meets The Danish Radio Big Band - I Should Care.wav

Peak level 97.1 %
Extraction speed 8.4 X
Track quality 100.0 %
Test CRC 55153CA7
Copy CRC 55153CA7
Accurately ripped (confidence 27) [02456F5D] (AR v2)
Copy OK

Track 5

Filename D:\#New wav + flac II\Charlie Watts - Meets The Danish Radio Big Band\05. Charlie Watts Meets The Danish Radio Big Band - You Can't Always Get What You Want.wav

Peak level 94.1 %
Extraction speed 9.0 X
Track quality 100.0 %
Test CRC 1DC7B159
Copy CRC 1DC7B159
Accurately ripped (confidence 27) [A9092708] (AR v2)
Copy OK

Track 6

Filename D:\#New wav + flac II\Charlie Watts - Meets The Danish Radio Big Band\06. Charlie Watts Meets The Danish Radio Big Band - Paint It Black.wav

Peak level 91.0 %
Extraction speed 9.7 X
Track quality 100.0 %
Test CRC 7CFF33F2
Copy CRC 7CFF33F2
Accurately ripped (confidence 27) [8E85D65E] (AR v2)
Copy OK

Track 7

Filename D:\#New wav + flac II\Charlie Watts - Meets The Danish Radio Big Band\07. Charlie Watts Meets The Danish Radio Big Band - Molasses.wav

Peak level 98.5 %
Extraction speed 10.3 X
Track quality 100.0 %
Test CRC 4B034589
Copy CRC 4B034589
Accurately ripped (confidence 27) [473A5FEE] (AR v2)
Copy OK


All tracks accurately ripped

No errors occurred

End of status report

–– CUETools DB Plugin V2.1.6

[CTDB TOCID: QrWg8KuVbJxC2RFpd8DtkjDnYCc-] found
Submit result: QrWg8KuVbJxC2RFpd8DtkjDnYCc- has been confirmed
Track | CTDB Status
1 | (61/61) Accurately ripped
2 | (61/61) Accurately ripped
3 | (61/61) Accurately ripped
4 | (61/61) Accurately ripped
5 | (61/61) Accurately ripped
6 | (61/61) Accurately ripped
7 | (61/61) Accurately ripped


==== Log checksum 076C7FB0AD37FBBB3CB1028C3457DF02D525E9E7A116AD981ACC893CC5004062 ====

Thanks to the Original ripper !