Subcategories

Chris Jones - Moonstruck & No Looking Back (2000, Stockfisch Records # SFR 357.6020.2) [Restored]

Posted By: luckburz
Chris Jones - Moonstruck & No Looking Back (2000, Stockfisch Records # SFR 357.6020.2) [Restored]

Chris Jones - Moonstruck & No Looking Back
EAC+LOG+CUE | APE: 542 MB | Artwork | 5% Recovery Info
Label/Cat#: A&M 31454 0124 2 | Country/Year: Germany 2000, 1982 & 1999
Genre: Folk, Blues | Style: Singer/Songwriter

MD5 [X] CUE [X] LOG [X] INFO TEXT [X] ARTWORK [X]

my rip [ ] not my rip [X]

Chris Jones - Moonstruck & No Looking Back (2000, Stockfisch Records # SFR 357.6020.2) [Restored]


Exact Audio Copy V0.99 prebeta 4 from 23. January 2008

Отчёт EAC об извлечении, выполненном 19. июня 2008, 21:56

Chris Jones / Moonstruck

Дисковод: LITE-ON DVDRW LH-20A1H Adapter: 1 ID: 0

Режим чтения : Достоверность
Использование точного потока : Да
Отключение кэша аудио : Да
Использование указателей C2 : Нет

Коррекция смещения при чтении : 6
Способность читать области Lead-in и Lead-out : Нет
Заполнение пропущенных сэмплов тишиной : Да
Удаление блоков с тишиной в начале и конце : Нет
При вычислениях CRC использовались нулевые сэмплы : Да
Интерфейс : Установленный внешний ASPI-интерфейс

Выходной формат : Внутренние WAV-операции
Формат сэмплов : 44.100 Гц; 16 бит; стерео


TOC извлечённого CD

Трек | Старт | Длительность | Начальный сектор | Конечный сектор
––––––––––––––––––––––––––––––––––-
1 | 0:00.00 | 5:44.30 | 0 | 25829
2 | 5:44.30 | 5:09.32 | 25830 | 49036
3 | 10:53.62 | 4:01.05 | 49037 | 67116
4 | 14:54.67 | 3:43.62 | 67117 | 83903
5 | 18:38.54 | 4:14.66 | 83904 | 103019
6 | 22:53.45 | 3:03.40 | 103020 | 116784
7 | 25:57.10 | 5:03.50 | 116785 | 139559
8 | 31:00.60 | 4:14.62 | 139560 | 158671
9 | 35:15.47 | 3:30.03 | 158672 | 174424
10 | 38:45.50 | 3:54.72 | 174425 | 192046
11 | 42:40.47 | 4:50.30 | 192047 | 213826
12 | 47:31.02 | 3:10.55 | 213827 | 228131


Характеристики диапазона извлечения и сообщения об ошибках

Выбранный диапазон

Имя файла F:\Music2\Share 2\Chris Jones - Moonstruck & No looking back\CD1-Moonstruck\Chris Jones - Moonstruck.wav

Пиковый уровень 99.8 %
Качество диапазона 100.0 %
CRC копии 5E3B63E1
Копирование… OK

Ошибок не произошло

Конец отчёта

Exact Audio Copy V0.99 prebeta 4 from 23. January 2008

Отчёт EAC об извлечении, выполненном 19. июня 2008, 21:37

Chris Jones / No looking back

Дисковод: LITE-ON DVDRW LH-20A1H Adapter: 1 ID: 0

Режим чтения : Достоверность
Использование точного потока : Да
Отключение кэша аудио : Да
Использование указателей C2 : Нет

Коррекция смещения при чтении : 6
Способность читать области Lead-in и Lead-out : Нет
Заполнение пропущенных сэмплов тишиной : Да
Удаление блоков с тишиной в начале и конце : Нет
При вычислениях CRC использовались нулевые сэмплы : Да
Интерфейс : Установленный внешний ASPI-интерфейс

Выходной формат : Внутренние WAV-операции
Формат сэмплов : 44.100 Гц; 16 бит; стерео


TOC извлечённого CD

Трек | Старт | Длительность | Начальный сектор | Конечный сектор
––––––––––––––––––––––––––––––––––-
1 | 0:00.00 | 3:39.05 | 0 | 16429
2 | 3:39.05 | 3:54.62 | 16430 | 34041
3 | 7:33.67 | 3:42.28 | 34042 | 50719
4 | 11:16.20 | 3:54.37 | 50720 | 68306
5 | 15:10.57 | 4:44.30 | 68307 | 89636
6 | 19:55.12 | 1:52.40 | 89637 | 98076
7 | 21:47.52 | 5:07.20 | 98077 | 121121
8 | 26:54.72 | 3:53.63 | 121122 | 138659
9 | 30:48.60 | 3:39.42 | 138660 | 155126
10 | 34:28.27 | 4:39.03 | 155127 | 176054


Характеристики диапазона извлечения и сообщения об ошибках

Выбранный диапазон

Имя файла F:\Music2\Share 2\Chris Jones - Moonstruck & No looking back\CD2-No looking back\Chris Jones - No looking back.wav

Пиковый уровень 99.8 %
Качество диапазона 100.0 %
CRC копии EB3733E7
Копирование… OK

Ошибок не произошло

Конец отчёта

auCDtect: CD records authenticity detector, version 0.8.2
Copyright © 2004 Oleg Berngardt. All rights reserved.
Copyright © 2004 Alexander Djourik. All rights reserved.

Detect mode (0..40 with 0 = most accurate): 8 (default)


––––––––––––––––––––––––––––––
[Chris.Jones.-.[Moonstruck.(CD.1)].wav]
Detected average hi-boundary frequency: 2.053541e+004 Hz
Detected average lo-boundary frequency: 1.463526e+004 Hz
Detected average hi-cut frequency: 2.181644e+004 Hz
Detected average lo-cut frequency: 1.634576e+004 Hz
Maximum probablis boundary frequency: 2.189100e+004 Hz
Coefficient of nonlinearity of a phase: 1.340870e-001
First order smothness: 4.435506e-001
Second order smothness: 7.697642e-001
––––––––––––––––––––––––––––––
This track looks like CDDA with probability 100%.

––––––––––––––––––––––––––––––
[Chris.Jones.-.[No.looking.back.(CD.2)].wav]
Detected average hi-boundary frequency: 2.020646e+004 Hz
Detected average lo-boundary frequency: 1.382878e+004 Hz
Detected average hi-cut frequency: 2.183813e+004 Hz
Detected average lo-cut frequency: 1.310088e+004 Hz
Maximum probablis boundary frequency: 2.189100e+004 Hz
Coefficient of nonlinearity of a phase: 8.210546e-002
First order smothness: 3.943001e-001
Second order smothness: 7.254690e-001
––––––––––––––––––––––––––––––
This track looks like CDDA with probability 100%.

foobar2000 1.1.14a / Dynamic Range Meter 1.1.1
log date: 2012-10-29 21:09:08

––––––––––––––––––––––––––––––––––––––––
Analyzed: Chris Jones / Moonstruck
––––––––––––––––––––––––––––––––––––––––

DR Peak RMS Duration Track
––––––––––––––––––––––––––––––––––––––––
DR7 -0.01 dB -8.62 dB 5:44 01-Long After You're Gone
DR6 -0.01 dB -8.58 dB 5:09 02-Would Not Have It Any Other Way
DR6 -0.01 dB -7.97 dB 4:01 03-Ain't Got Love
DR7 -0.01 dB -9.29 dB 3:44 04-Hard Times
DR6 -0.01 dB -8.23 dB 4:15 05-Long Long Journey
DR7 -0.01 dB -8.81 dB 3:04 06-Looking For Words
DR9 -0.01 dB -11.82 dB 5:04 07-God Save The Child
DR8 -0.01 dB -9.95 dB 4:15 08-Love Is The Answer
DR6 -0.01 dB -8.10 dB 3:30 09-Borderline
DR7 -0.01 dB -8.36 dB 3:55 10-Transcontinental Post-Nativity Blues
DR8 -0.01 dB -10.22 dB 4:50 11-Angel From Montgomery
DR9 -0.01 dB -11.31 dB 3:11 12-Maria's Lullaby
––––––––––––––––––––––––––––––––––––––––

Number of tracks: 12
Official DR value: DR7

Samplerate: 44100 Hz
Channels: 2
Bits per sample: 16
Bitrate: 867 kbps
Codec: Monkey's Audio
================================================================================

––––––––––––––––––––––––––––––––––––––––
Analyzed: Chris Jones / No looking back
––––––––––––––––––––––––––––––––––––––––

DR Peak RMS Duration Track
––––––––––––––––––––––––––––––––––––––––
DR9 -0.01 dB -11.40 dB 3:39 01-Where are you going
DR8 -0.01 dB -10.38 dB 3:55 02-Morning light
DR10 -0.01 dB -12.46 dB 3:42 03-No looking back
DR8 -0.01 dB -9.54 dB 3:54 04-Moving you out
DR8 -0.01 dB -11.28 dB 4:44 05-Willing
DR8 -0.01 dB -9.23 dB 1:53 06-Anny
DR6 -0.01 dB -7.97 dB 5:07 07-The road
DR9 -0.01 dB -11.29 dB 3:54 08-Good reason
DR7 -0.01 dB -9.13 dB 3:40 09-The nightingale song
DR7 -0.01 dB -9.97 dB 4:39 10-Bottle song
––––––––––––––––––––––––––––––––––––––––

Number of tracks: 10
Official DR value: DR8

Samplerate: 44100 Hz
Channels: 2
Bits per sample: 16
Bitrate: 815 kbps
Codec: Monkey's Audio
================================================================================



CD Info:

Alyn Cosker - Lyn's Une

Label: Stockfisch Records
Catalog#: SFR 357.6020.2
Format: 2x CD, Album
Country: Germany
Released: 2000
Genre: Folk, Blues
Style: Singer/Songwriter

Tracklist:

CD1 Moonstruck (1999)

1. Long After You´re Gone 5:44
2. Would Not Have It Any Other Way 5:09
3. Ain´t Got Love 3:58
4. Hard Times 3:39
5. Long Long Journey 4:13
6. Looking For Words 3:01
7. God Save The Child 5:01
8. Love Is The Answer 4:12
9. Borderline 3:30
10. Transcontinental Post-Nativity Blues 3:52
11. Angel From Montgomery 4:46
12. Maria´s Lullaby 3:10

CD2 No looking back (1982)

1. Where Are You Going 3:39
2. Morning Light 3:55
3. No Looking Back 3:42
4. Moving You Out 3:54
5. Willing 4:44
6. Anny 1:53
7. The Road 5:07
8. Good Reason 3:54
9. The Nightingale Song 3:40
10. Bottle Song 4:39

Both records produced and recorded by Günter Pauler. CD mastering by Hans-Jörg Maucksch at Pauler Acoustics, Northeim, Germany.

Chris Jones - Moonstruck & No Looking Back (2000, Stockfisch Records # SFR 357.6020.2) [Restored]


Chris Jones, (November 11, 1958 – September 13, 2005) was an American musician (guitars, vocals) and composer. He was born in Reno, Nevada, but lived in Germany ever since he had joined the U.S. Army for three years.

Jones was born in Reno, Nevada. At the age of five, he began playing the guitar. A few years later, he decided to become a professional musician and when he was 11 years old, he got admitted to a program at the Peabody Conservatory of Music in Baltimore, Maryland. There he discovered the idol of his younger years, Johann Sebastian Bach, to whom he dedicated his Sonata in D. For this sonata, Jones was awarded the conservatory's Young Composer of the Year award.

Shortly thereafter, he discovered the blues and started listening to Robert Johnson, James Taylor and Little Feat.

In 1976, Jones joined the U.S. Army and was stationed in Adenine's, Germany. During this time, the foundation for his musical career in Europe was laid. Over the following decades, he played guitar on albums of artists such as Sara K., Allan Taylor and Reinhard Mey. He toured and recorded solo and with the blues harmonica musician Steve Baker.

In August 2005, Jones was diagnosed with Hodgkin's lymphoma in an advanced stage. He died on September 13, 2005, in Northeim, Germany. wikipedia

"If this is the end of the line, you ain´t gonna hear me cryin´ - it´s been a damn good run." Chris Jones, 2005

Thanks to onealoner!



Allan Taylor - Hotels & Dreamers (2003)
Allan Taylor - Old Friends New Roads (2007)
Allan Taylor - Leaving At Dawn (2009) [CD Rip]
Allan Taylor - Leaving At Dawn (2009) [SACD Rip]
Allan Taylor - Songs for the Road (2010) [CD Rip]

Beoga - Live At Stockfisch Studio (2010) [SACD/CD Rip]

Blue Chamber Quartet - Chick Corea: Children's Songs (2009) [CD Rip]
Blue Chamber Quartet - Chick Corea: Children's Songs (2009) [SACD Rip]

Carl Cleves & Parissa Bouas - Out Of Australia (2010) [SACD/CD Rip]

Chris Jones - Moonstruck & No Looking Back (2000)
Chris Jones - Roadhouses & Automobiles (2003)

Christian Willisohn - Hold On (2005) [CD Rip]
Christian Willisohn - Hold On (2005) [SACD Rip]

David Munyon - More Songs For Planet Earth (2004)

David Qualey - Only Guitar Parables (1991)
David Qualey - Blue House (1995)

David Roth - More Pearls (2006)

Dennis Kolen - Northeim ! Goldmine (2010) [CD Rip]
Dennis Kolen - Northeim ! Goldmine (2010) [SACD Rip]

Duo Balance - Bunter Fleck (1993)
Duo Balance - Wunderbarer Morgen (1998)

Ewen Carruthers - One Red Shoe (2009) [SACD Rip]
Ewen Carruthers - One Red Shoe (2009) [CD Rip]

Gergely Boganyi - Frederic Chopin - The Complete Nocturnes (2008) [CD Rip]
Gergely Boganyi - Frederic Chopin - The Complete Nocturnes (2008) [SACD Rip]

Katja Maria Werker - Mitten Im Sturm (2011)

Liederjan - Wie im Paradies (1993)

Louis Capart & Duo Balance - Voyage (2008) [SACD/CD Rip]

Mike Silver - Solid Silver (2003)

Paul O'Brien - Walk Back Home (2009) [CD Rip]
Paul O'Brien - Walk Back Home (2009) [SACD Rip]

Paul Stephenson - These Days (2004)

Peter Ratzenbeck - Peter's Fancy (2000)

Sara K. & Chris Jones - Live In Concert (2003)
Sara K. - Hell Or High Water (2006) [XRCD]
Sara K. - Made In The Shade (2009) [Pure Audio BluRay Rip]

Steve Strauss - Powderhouse Road (1998)

The Spirit of Gambo - Schenk / Herwich / Hacquart (2006) [CD Rip]

Werner Lämmerhirt - SaitenZauber (1999)

VA - Sennheiser HD 800: Klang Von Meisterhand (2009) [SACD Rip]
VA - Sennheiser HD 800: Klang Von Meisterhand (2009) [EAC Rip]
VA - B&W Very Audiophile New Recordings Vol. 4 (2004)
VA - Schenk / Herwich / Hacquart - The Spirit of Gambo (2006) [SACD Rip]
VA - AYA - Authentic Audio Check (2011) [CD Rip]

Stockfisch related:

Darren Spalding - They Just Don´t Give A Damn (2000)
The Bates - intraVenus (1998)
Werner Lämmerhirt - Harte Zeiten (2007)
Allan Taylor - Sometimes & The Lady [Beat Goes On BGOCD390]
Allan Taylor - The American Album & Cajun Moon [Beat Goes On Records BGOCD488]


Chris Jones - Moonstruck & No Looking Back (2000, Stockfisch Records # SFR 357.6020.2) [Restored]


// all of my uploads \\
________________

Download:

Music Part 1 | Music Part 2 | Music Part 2

Artwork
________________