Subcategories

Christian Escoudé - Django, Les Inédits (feat. Jean-Baptiste Laya, Antoine Hervier & Guillaume Souriau) (2019)

Posted By: delpotro
Christian Escoudé - Django, Les Inédits (feat. Jean-Baptiste Laya, Antoine Hervier & Guillaume Souriau) (2019)

Christian Escoudé - Django, Les Inédits (feat. Jean-Baptiste Laya, Antoine Hervier & Guillaume Souriau) (2019)
EAC Rip | FLAC (tracks+log+.cue) - 215 Mb | MP3 CBR 320 kbps - 106 Mb | 00:46:06
Jazz | Label: Cristal Records

Christian Escoudé is part of this small family of jazz guitarists from the gypsy milieu, his talent has allowed him to play with the greatest as Mc Laughlin, Martial Solal, John Lewis. Some unpublished notes of the music of Django Reinhardt found in the family attic are at the origin of the idea of ​​this album. We discover tracks composed by Django, which have never been recorded or never played associated with compositions by Christian Escoudé and lyrics written by the singer Stephy Haik. Here is a new original album dedicated to the work of the great Django Reinhardt.

"Christian Escoudé is one of our best musicians, everyone knows it. His phrasing, his approach to the instrument, to attack each note, that among the mass of guitarists, it is immediately recognizable. His style, unlike many others, has largely managed to move away from the model he evokes in this disc, that of Django, to achieve a very personal approach where the melody is still present, thanks to its deep musicality and his great knowledge of jazz music. This disc is a succession of beautiful melodies as well as very sophisticated themes rhythmically. If I add that Christian is remarkably surrounded, we can say that this new record is a perfect success and pays tribute to his great talent. »- Martial Solal
Tracklist:
1. Minor Phrasing (feat. Antoine Hervier, Guillaume Souriau & Jean-Baptiste Laya) (04:30)
2. Nisch (feat. Antoine Hervier, Guillaume Souriau & Jean-Baptiste Laya) (05:30)
3. Improvisation No 2 (feat. Antoine Hervier, Guillaume Souriau & Jean-Baptiste Laya) (04:41)
4. Improvisation Swing (feat. Antoine Hervier, Guillaume Souriau & Jean-Baptiste Laya) (03:30)
5. La messe de Django (feat. Antoine Hervier, Guillaume Souriau & Jean-Baptiste Laya) (06:34)
6. Anagramme (feat. Antoine Hervier, Guillaume Souriau & Jean-Baptiste Laya) (04:38)
7. Tuxedo Night (feat. Antoine Hervier, Guillaume Souriau & Jean-Baptiste Laya) (04:51)
8. Choti / Valse manouche (feat. Antoine Hervier, Guillaume Souriau & Jean-Baptiste Laya) (06:14)
9. Rochefort Musical (feat. Antoine Hervier, Guillaume Souriau & Jean-Baptiste Laya) (05:34)

Exact Audio Copy V1.3 from 2. September 2016

EAC extraction logfile from 19. November 2019, 20:23

Christian Escoudé / Django, les inédits

Used drive : HL-DT-STDVDRAM GP50NB40 Adapter: 1 ID: 0

Read mode : Secure
Utilize accurate stream : Yes
Defeat audio cache : Yes
Make use of C2 pointers : No

Read offset correction : 6
Overread into Lead-In and Lead-Out : No
Fill up missing offset samples with silence : Yes
Delete leading and trailing silent blocks : No
Null samples used in CRC calculations : Yes
Used interface : Native Win32 interface for Win NT & 2000
Gap handling : Appended to previous track

Used output format : User Defined Encoder
Selected bitrate : 1024 kBit/s
Quality : High
Add ID3 tag : No
Command line compressor : C:\Program Files\Exact Audio Copy\Flac\flac.exe
Additional command line options : -8 -V -T "ARTIST=%artist%" -T "TITLE=%title%" -T "ALBUM=%albumtitle%" -T "DATE=%year%" -T "TRACKNUMBER=%tracknr%" -T "GENRE=%genre%" -T "PERFORMER=%albuminterpret%" -T "COMPOSER=%composer%" %haslyrics%–tag-from-file=LYRICS="%lyricsfile%"%haslyrics% -T "ALBUMARTIST=%albumartist%" -T "DISCNUMBER=%cdnumber%" -T "TOTALDISCS=%totalcds%" -T "TOTALTRACKS=%numtracks%" -T "COMMENT=%comment%" %source% -o %dest%


TOC of the extracted CD

Track | Start | Length | Start sector | End sector
––––––––––––––––––––––––––––-
1 | 0:00.00 | 4:30.10 | 0 | 20259
2 | 4:30.10 | 5:30.08 | 20260 | 45017
3 | 10:00.18 | 4:41.62 | 45018 | 66154
4 | 14:42.05 | 3:30.69 | 66155 | 81973
5 | 18:12.74 | 6:34.21 | 81974 | 111544
6 | 24:47.20 | 4:38.01 | 111545 | 132395
7 | 29:25.21 | 4:51.61 | 132396 | 154281
8 | 34:17.07 | 6:14.36 | 154282 | 182367
9 | 40:31.43 | 5:34.51 | 182368 | 207468


Track 1

Filename Y:\Bureau\Django, les inédits\01 - Track01.wav

Pre-gap length 0:00:02.00

Peak level 97.6 %
Extraction speed 1.1 X
Track quality 100.0 %
Test CRC EE20D780
Copy CRC EE20D780
Track not present in AccurateRip database
Copy OK

Track 2

Filename Y:\Bureau\Django, les inédits\02 - Track02.wav

Peak level 97.6 %
Extraction speed 1.3 X
Track quality 100.0 %
Test CRC 205A25DC
Copy CRC 205A25DC
Track not present in AccurateRip database
Copy OK

Track 3

Filename Y:\Bureau\Django, les inédits\03 - Track03.wav

Peak level 97.6 %
Extraction speed 1.3 X
Track quality 99.9 %
Test CRC 95B1A09F
Copy CRC 95B1A09F
Track not present in AccurateRip database
Copy OK

Track 4

Filename Y:\Bureau\Django, les inédits\04 - Track04.wav

Peak level 97.6 %
Extraction speed 1.5 X
Track quality 100.0 %
Test CRC B37CB814
Copy CRC B37CB814
Track not present in AccurateRip database
Copy OK

Track 5

Filename Y:\Bureau\Django, les inédits\05 - Track05.wav

Peak level 97.6 %
Extraction speed 1.8 X
Track quality 100.0 %
Test CRC 459CF0D4
Copy CRC 459CF0D4
Track not present in AccurateRip database
Copy OK

Track 6

Filename Y:\Bureau\Django, les inédits\06 - Track06.wav

Peak level 97.6 %
Extraction speed 1.8 X
Track quality 100.0 %
Test CRC E3B2FCD0
Copy CRC E3B2FCD0
Track not present in AccurateRip database
Copy OK

Track 7

Filename Y:\Bureau\Django, les inédits\07 - Track07.wav

Peak level 97.6 %
Extraction speed 1.7 X
Track quality 99.9 %
Test CRC 9A7CBE0F
Copy CRC 9A7CBE0F
Track not present in AccurateRip database
Copy OK

Track 8

Filename Y:\Bureau\Django, les inédits\08 - Track08.wav

Peak level 97.6 %
Extraction speed 1.9 X
Track quality 99.9 %
Test CRC 1AEA6C78
Copy CRC 1AEA6C78
Track not present in AccurateRip database
Copy OK

Track 9

Filename Y:\Bureau\Django, les inédits\09 - Track09.wav

Peak level 97.6 %
Extraction speed 2.0 X
Track quality 99.9 %
Test CRC 330C991A
Copy CRC 330C991A
Track not present in AccurateRip database
Copy OK


None of the tracks are present in the AccurateRip database

No errors occurred

End of status report

==== Log checksum 822C5F33B912042ABF27CA6AE75D393A23E13B9D35132C54FF819B365D136835 ====

Thanks to the Original ripper !