Subcategories

Chumbawamba - Anarchy [London 828 524-2] {1994} (Reuploaded)

Posted By: luckburz
Chumbawamba - Anarchy [London 828 524-2] {1994} (Reuploaded)

Chumbawamba - Anarchy
EAC+LOG+CUE | FLAC: 258 MB | Full Artwork | 5% Recovery Info
Label/Cat#: London # 828 524-2 | Country/Year: UK 1994
Genre: Folk Rock, Punk, Electro

MD5 [X] CUE [X] LOG [X] INFO TEXT [X] ARTWORK [X]

selfrip [X] not my rip []

Chumbawamba - Anarchy [London 828 524-2] {1994} (Reuploaded)


Exact Audio Copy V0.99 prebeta 4 from 23. January 2008

EAC Auslese-Logdatei vom 15. Mai 2009, 18:28

Chumbawamba / Anarchy (London 828 524-2) (UK 1994)

Benutztes Laufwerk : HL-DT-STDVDRAM GSA-H12L Adapter: 0 ID: 1

Lesemodus : Sicher
Benutze Accurate Stream : Ja
Audio Puffer abgeschaltet : Nein
Benutze C2 Fehlerinformationen : Nein

Leseoffset Korrektur : 667
Überlesen in das Lead-In und Lead-Out : Nein
Fülle fehlende Offsetsample mit Stille auf : Ja
Lösche führende und nachfolgende stille Blöcke : Nein
Null Samples gehen in CRC Berechnungen ein : Ja
Benutzte Schnittstelle : Natürliche Win32 Schnittstelle für Win NT/2000/XP
Pausenbehandlung : Hinter dem vorigen Track angehängt

Benutztes Ausgabeformat : Benutzerdefinierter Komprimierer
Gewählte Bitrate : 1024 kBit/s
Qualität : Hoch
Füge ID3 Tag hinzu : Ja
Kommandozeilen Komprimierer : C:\Programme\FLAC\flac.exe
Zusätzliche Kommandozeilenoptionen : -8 -T "Artist=%a" -T "Title=%t" -T "Album=%g" -T "Date=%y" -T "Tracknumber=%n" -T "Genre=%m" %s -o %d


TOC der ausgelesenen CD

Track | Start | Länge | Startsektor | Endsektor
–––––––––––––––––––––––––––-
1 | 0:00.33 | 4:08.52 | 33 | 18684
2 | 4:09.10 | 3:40.48 | 18685 | 35232
3 | 7:49.58 | 2:28.62 | 35233 | 46394
4 | 10:18.45 | 0:33.38 | 46395 | 48907
5 | 10:52.08 | 2:26.30 | 48908 | 59887
6 | 13:18.38 | 3:51.50 | 59888 | 77262
7 | 17:10.13 | 2:26.72 | 77263 | 88284
8 | 19:37.10 | 0:20.20 | 88285 | 89804
9 | 19:57.30 | 0:28.53 | 89805 | 91957
10 | 20:26.08 | 4:04.47 | 91958 | 110304
11 | 24:30.55 | 3:45.05 | 110305 | 127184
12 | 28:15.60 | 1:22.58 | 127185 | 133392
13 | 29:38.43 | 4:31.17 | 133393 | 153734
14 | 34:09.60 | 4:34.25 | 153735 | 174309
15 | 38:44.10 | 2:59.00 | 174310 | 187734


Track 1

Dateiname V:\INCOMING\LOSSLESS\ZZZ-EAC\01 Give The Anarchist A Cigarette.wav

Pausenlänge 0:00:02.33

Spitzenpegel 100.0 %
Track Qualität 99.9 %
Test CRC 1F4B71E5
Kopie CRC 1F4B71E5
Akkurat gelesen (Zuversicht 3) [9BFD17F2]
Kopie OK

Track 2

Dateiname V:\INCOMING\LOSSLESS\ZZZ-EAC\02 Timebomb.wav

Pausenlänge 0:00:00.35

Spitzenpegel 100.0 %
Track Qualität 100.0 %
Test CRC D980ACBE
Kopie CRC D980ACBE
Akkurat gelesen (Zuversicht 4) [9DB509F2]
Kopie OK

Track 3

Dateiname V:\INCOMING\LOSSLESS\ZZZ-EAC\03 Homophobia.wav

Spitzenpegel 98.0 %
Track Qualität 100.0 %
Test CRC DDDD34E3
Kopie CRC DDDD34E3
Akkurat gelesen (Zuversicht 4) [CEEB683B]
Kopie OK

Track 4

Dateiname V:\INCOMING\LOSSLESS\ZZZ-EAC\04 On Being Pushed.wav

Spitzenpegel 68.2 %
Track Qualität 100.0 %
Test CRC CBC0E958
Kopie CRC CBC0E958
Akkurat gelesen (Zuversicht 4) [1463BD7A]
Kopie OK

Track 5

Dateiname V:\INCOMING\LOSSLESS\ZZZ-EAC\05 Heaven , Hell.wav

Spitzenpegel 89.1 %
Track Qualität 100.0 %
Test CRC EA5D542B
Kopie CRC EA5D542B
Akkurat gelesen (Zuversicht 4) [648E41F6]
Kopie OK

Track 6

Dateiname V:\INCOMING\LOSSLESS\ZZZ-EAC\06 Love Me.wav

Spitzenpegel 100.0 %
Track Qualität 100.0 %
Test CRC 0F2304BC
Kopie CRC 0F2304BC
Akkurat gelesen (Zuversicht 4) [2329BCAA]
Kopie OK

Track 7

Dateiname V:\INCOMING\LOSSLESS\ZZZ-EAC\07 Georgina.wav

Spitzenpegel 90.7 %
Track Qualität 100.0 %
Test CRC 7F1B5F43
Kopie CRC 7F1B5F43
Akkurat gelesen (Zuversicht 4) [F79A12EE]
Kopie OK

Track 8

Dateiname V:\INCOMING\LOSSLESS\ZZZ-EAC\08 Doh!.wav

Spitzenpegel 59.0 %
Track Qualität 99.4 %
Test CRC 9BCCBE99
Kopie CRC 9BCCBE99
Akkurat gelesen (Zuversicht 4) [75A2F840]
Kopie OK

Track 9

Dateiname V:\INCOMING\LOSSLESS\ZZZ-EAC\09 Blackpool Rock.wav

Pausenlänge 0:00:00.55

Spitzenpegel 28.0 %
Track Qualität 100.0 %
Test CRC 1B0A242E
Kopie CRC 1B0A242E
Akkurat gelesen (Zuversicht 4) [8E6A870B]
Kopie OK

Track 10

Dateiname V:\INCOMING\LOSSLESS\ZZZ-EAC\10 This Year's Thing.wav

Spitzenpegel 88.6 %
Track Qualität 100.0 %
Test CRC E06BC0BA
Kopie CRC E06BC0BA
Akkurat gelesen (Zuversicht 4) [290C8A29]
Kopie OK

Track 11

Dateiname V:\INCOMING\LOSSLESS\ZZZ-EAC\11 Mouthful Of Shit.wav

Spitzenpegel 100.0 %
Track Qualität 100.0 %
Test CRC 181B4FAF
Kopie CRC 181B4FAF
Akkurat gelesen (Zuversicht 4) [5CA730D0]
Kopie OK

Track 12

Dateiname V:\INCOMING\LOSSLESS\ZZZ-EAC\12 Never Do What You Are Told.wav

Spitzenpegel 69.1 %
Track Qualität 100.0 %
Test CRC 7E6B8B83
Kopie CRC 7E6B8B83
Akkurat gelesen (Zuversicht 4) [44C9F607]
Kopie OK

Track 13

Dateiname V:\INCOMING\LOSSLESS\ZZZ-EAC\13 Bad Dog.wav

Spitzenpegel 98.3 %
Track Qualität 100.0 %
Test CRC 38CAD1D9
Kopie CRC 38CAD1D9
Akkurat gelesen (Zuversicht 4) [DFD8B79C]
Kopie OK

Track 14

Dateiname V:\INCOMING\LOSSLESS\ZZZ-EAC\14 Enough Is Enough.wav

Spitzenpegel 97.9 %
Track Qualität 100.0 %
Test CRC 0C03A5ED
Kopie CRC 0C03A5ED
Akkurat gelesen (Zuversicht 4) [1B6E497D]
Kopie OK

Track 15

Dateiname V:\INCOMING\LOSSLESS\ZZZ-EAC\15 Rage.wav

Pausenlänge 0:00:00.12

Spitzenpegel 94.1 %
Track Qualität 99.9 %
Test CRC 9FBEA272
Kopie CRC 9FBEA272
Akkurat gelesen (Zuversicht 4) [ED17ADCC]
Kopie OK


Alle Tracks wurden akkurat gelesen

Keine Fehler aufgetreten

Ende des Statusreports

foobar2000 1.1.14a / Dynamic Range Meter 1.1.1
log date: 2013-01-22 14:39:39

––––––––––––––––––––––––––––––––––––––––
Analyzed: Chumbawamba / Anarchy (London 828 524-2) (UK 1994)
––––––––––––––––––––––––––––––––––––––––

DR Peak RMS Duration Track
––––––––––––––––––––––––––––––––––––––––
DR11 0.00 dB -14.78 dB 4:09 01-Give The Anarchist A Cigarette
DR12 0.00 dB -13.96 dB 3:41 02-Timebomb
DR11 -0.17 dB -17.04 dB 2:29 03-Homophobia
DR12 -3.31 dB -17.57 dB 0:34 04-On Being Pushed
DR11 -1.00 dB -14.03 dB 2:26 05-Heaven / Hell
DR13 0.00 dB -15.27 dB 3:52 06-Love Me
DR12 -0.84 dB -15.01 dB 2:27 07-Georgina
DR13 -4.58 dB -19.32 dB 0:20 08-Doh!
DR11 -11.03 dB -23.96 dB 0:29 09-Blackpool Rock
DR12 -1.05 dB -15.79 dB 4:05 10-This Year's Thing
DR13 0.00 dB -14.83 dB 3:45 11-Mouthful Of Shit
DR11 -3.20 dB -16.80 dB 1:23 12-Never Do What You Are Told
DR12 -0.15 dB -14.79 dB 4:31 13-Bad Dog
DR12 -0.18 dB -15.85 dB 4:34 14-Enough Is Enough
DR13 -0.53 dB -18.62 dB 2:59 15-Rage
––––––––––––––––––––––––––––––––––––––––

Number of tracks: 15
Official DR value: DR12

Samplerate: 44100 Hz
Channels: 2
Bits per sample: 16
Bitrate: 539 kbps
Codec: FLAC
================================================================================



CD Info:
Chumbawamba - Anarchy


Label: London Records
Catalog#: 828 524-2
Format: CD
Country: UK
Released: 1994
Genre: Electronic, Rock
Style: Folk Rock, Punk, Electro, Pop Rock, Synth-pop
Credits: Accordion - Simon Commonknowledge
Mandolin - Geoff Read
Producer - Chumbawamba , Neil Ferguson
Notes: Recorded January 1994.

Chumbawamba on this album was Harry, Danbert Nobacon, Paul Greco, Louise Mary Watts, Dunst, Boff, Alice Nutter and Mavis Dillon

with :

MC Fusion
Neil Ferguson : keyboards, additional guitars
The Bedlam Rovers : traditional melody
Jimmy Echo
Kerry and Casey : intro on track 7

(p) & © One Little Indian Records.

Track 15 contains a hidden track. It is a version of Timebomb that starts after 55 seconds of silence. Total duration of track 15 is 2:59.


Tracklisting:
1 Give The Anarchist A Cigarette (4:09)
2 Timebomb (3:41)
3 Homophobia (2:29)
4 On Being Pushed (0:34)
5 Heaven / Hell (2:26)
6 Love Me (3:52)
7 Georgina (2:27)
8 Doh! (0:20)
9 Blackpool Rock (0:29)
10 This Year's Thing (4:05)
11 Mouthful Of Shit (3:45)
12 Never Do What You Are Told (1:23)
13 Bad Dog (4:31)
14 Enough Is Enough (4:34)
15a Rage (1:08)
15b Timebomb (Version) (0:55)

Chumbawamba - Anarchy [London 828 524-2] {1994} (Reuploaded)


review by Chris Nickson

Guaranteed to disturb and delight, from the cover picture of a baby being born to the no-punches-pulled lyrics, Chumbawamba freely indulges in anarchy – which means life without rules, but quite strict discipline. And, to make their case, they mix pop and politics, putting the iron fist (with its many pop culture references) inside the velvet glove of modern pop music. It's sly, wry, often comic, and they're not afraid of making fun of themselves. In other words, it should both scare and entertain you. It's far from their punk roots, at least musically, with lots of big choruses on songs like "Mouthful of Shit," "Love Me," and "Give the Anarchist a Cigarette," dance beats and fear of the future on "Timebomb," and a distinct nod to folk music – an avenue they'd explored before – with the pointed "Homophobia," which equates prejudice with AIDS. There's a fierce intelligence at work here, not only in the lyrics, where the irony often shines through a little too brilliantly, but in the music, with its judicious use of samples (such as Homer Simpson's "Doh!" or another that sounds like a speeded-up Pink Floyd keyboard lick from Dark Sound of the Moon) and programming – although notably the machines always take second place to the human element. They're not simply chest-thumping or standing on a soapbox decrying everything – they're aiming to hit the members of a younger generation where they live. And even if they're never going to have careers as rappers, at least on the basis of "This Year's Thing," they make their points very clearly, as in the '50s-styled "Georgina," a tale of revenge for wife abuse refracted (or possibly distorted) through the lens of The Cook, the Thief, His Wife and Her Lover. Throughout the album, there's some inspiring music that's made on a shoestring but sounds like a million dollars. The anarchist musical collective known as Chumbawamba not only talks the talks, but also walks the walks. Think and laugh – and don't forget to dance, too. allmusicguide

More Chumbawamba:

Chumbawamba - English Rebel Songs 1381-1914 [Virgin 840 906 2] {1988, ReIssue 1994}
Chumbawamba & Credit to the Nation - Enough Is Enough [One Little Indian 79TP7CD] {1993}

Chumbawamba - Anarchy [London 828 524-2] {1994} (Reuploaded)

// classical music \\
// all of my uploads \\
________________

Download:

Filepost FLAC (fixed)
Filepost Artwork
________________