Tags
Language
Tags

Coheed And Cambria - The Unheavenly Creatures (2018)

Posted By: delpotro
Coheed And Cambria - The Unheavenly Creatures (2018)

Coheed And Cambria - The Unheavenly Creatures (2018)
EAC Rip | FLAC (tracks+log+.cue) - 537 Mb | MP3 CBR 320 kbps - 182 Mb | 01:19:26
Progressive Rock | Label: Roadrunner Records

Coheed and Cambria’s ninth studio album returns to the narrative confines of the emo-prog titans’ Amory Wars saga, a dense sci-fi conceit involving viruses and anti-terrorist agencies that they took a brief break from on 2015’s The Color Before the Sun. But you don’t need a decoder ring to enjoy the group’s latest, which finds frontman Claudio Sanchez and his virtuosic bandmates applying post-hardcore’s burn and progressive rock’s intricate song structures to epic-sounding melodies and passionate grandeur. “Toys” and “The Pavilion (A Long Way Back)” are as catchy as they are technologically flashy, and the album’s sighing final suite—especially the lush piano skyscapes of “Old Flames” and the plaintive balladry of “Lucky Stars”—serves as a tender and hopeful coda to C&C’s latest opus.
Tracklist:
1. Prologue (02:07)
2. The Dark Sentencer (07:44)
3. Unheavenly Creatures (04:13)
4. Toys (06:27)
5. Black Sunday (04:46)
6. Queen of the Dark (05:51)
7. True Ugly (05:25)
8. Love Protocol (04:29)
9. The Pavilion (A Long Way Back) (05:11)
10. Night-Time Walkers (05:09)
11. The Gutter (05:49)
12. All On Fire (05:40)
13. It Walks Among Us (05:29)
14. Old Flames (05:50)
15. Lucky Stars (05:08)

Exact Audio Copy V1.3 from 2. September 2016

EAC extraction logfile from 8. October 2018, 15:26

Coheed and Cambria / The Unheavenly Creatures

Used drive : ASUS BW-12B1ST Adapter: 1 ID: 0

Read mode : Secure
Utilize accurate stream : Yes
Defeat audio cache : Yes
Make use of C2 pointers : No

Read offset correction : 6
Overread into Lead-In and Lead-Out : No
Fill up missing offset samples with silence : Yes
Delete leading and trailing silent blocks : No
Null samples used in CRC calculations : Yes
Used interface : Native Win32 interface for Win NT & 2000
Gap handling : Appended to previous track

Used output format : User Defined Encoder
Selected bitrate : 1024 kBit/s
Quality : High
Add ID3 tag : No
Command line compressor : C:\Program Files (x86)\Exact Audio Copy\Flac\flac.exe
Additional command line options : -8 -e -p -V -T "ARTIST=%artist%" -T "TITLE=%title%" -T "ALBUM=%albumtitle%" -T "DATE=%year%" -T "TRACKNUMBER=%tracknr%" -T "GENRE=%genre%" -T "PERFORMER=%albuminterpret%" -T "COMPOSER=%composer%" %haslyrics%–tag-from-file=LYRICS="%lyricsfile%"%haslyrics% -T "ALBUMARTIST=%albumartist%" -T "DISCNUMBER=%cdnumber%" -T "TOTALDISCS=%totalcds%" -T "TOTALTRACKS=%numtracks%" -T "COMMENT=%comment%" %source% -o %dest%


TOC of the extracted CD

Track | Start | Length | Start sector | End sector
––––––––––––––––––––––––––––-
1 | 0:00.00 | 2:07.28 | 0 | 9552
2 | 2:07.28 | 7:44.39 | 9553 | 44391
3 | 9:51.67 | 4:13.45 | 44392 | 63411
4 | 14:05.37 | 6:27.44 | 63412 | 92480
5 | 20:33.06 | 4:46.07 | 92481 | 113937
6 | 25:19.13 | 5:51.35 | 113938 | 140297
7 | 31:10.48 | 5:26.08 | 140298 | 164755
8 | 36:36.56 | 4:29.31 | 164756 | 184961
9 | 41:06.12 | 5:11.49 | 184962 | 208335
10 | 46:17.61 | 5:09.01 | 208336 | 231511
11 | 51:26.62 | 5:49.47 | 231512 | 257733
12 | 57:16.34 | 5:40.69 | 257734 | 283302
13 | 62:57.28 | 5:29.63 | 283303 | 308040
14 | 68:27.16 | 5:50.39 | 308041 | 334329
15 | 74:17.55 | 5:09.01 | 334330 | 357505


Track 1

Filename C:\Ripping\Coheed and Cambria - The Unheavenly Creatures (2018)\01 - Prologue.wav

Pre-gap length 0:00:02.00

Peak level 76.2 %
Extraction speed 4.9 X
Track quality 100.0 %
Test CRC A33539E1
Copy CRC A33539E1
Track not present in AccurateRip database
Copy OK

Track 2

Filename C:\Ripping\Coheed and Cambria - The Unheavenly Creatures (2018)\02 - The Dark Sentencer.wav

Peak level 98.8 %
Extraction speed 6.5 X
Track quality 100.0 %
Test CRC 9378FD34
Copy CRC 9378FD34
Track not present in AccurateRip database
Copy OK

Track 3

Filename C:\Ripping\Coheed and Cambria - The Unheavenly Creatures (2018)\03 - Unheavenly Creatures.wav

Peak level 98.8 %
Extraction speed 5.8 X
Track quality 99.9 %
Test CRC CD4B4242
Copy CRC CD4B4242
Track not present in AccurateRip database
Copy OK

Track 4

Filename C:\Ripping\Coheed and Cambria - The Unheavenly Creatures (2018)\04 - Toys.wav

Peak level 98.8 %
Extraction speed 7.7 X
Track quality 100.0 %
Test CRC 675747E2
Copy CRC 675747E2
Track not present in AccurateRip database
Copy OK

Track 5

Filename C:\Ripping\Coheed and Cambria - The Unheavenly Creatures (2018)\05 - Black Sunday.wav

Peak level 98.9 %
Extraction speed 8.0 X
Track quality 100.0 %
Test CRC 33402212
Copy CRC 33402212
Track not present in AccurateRip database
Copy OK

Track 6

Filename C:\Ripping\Coheed and Cambria - The Unheavenly Creatures (2018)\06 - Queen Of The Dark.wav

Peak level 98.8 %
Extraction speed 8.6 X
Track quality 100.0 %
Test CRC 504FFC7A
Copy CRC 504FFC7A
Track not present in AccurateRip database
Copy OK

Track 7

Filename C:\Ripping\Coheed and Cambria - The Unheavenly Creatures (2018)\07 - True Ugly.wav

Peak level 98.8 %
Extraction speed 8.9 X
Track quality 100.0 %
Test CRC E0595029
Copy CRC E0595029
Track not present in AccurateRip database
Copy OK

Track 8

Filename C:\Ripping\Coheed and Cambria - The Unheavenly Creatures (2018)\08 - Love Protocol.wav

Peak level 98.8 %
Extraction speed 9.2 X
Track quality 100.0 %
Test CRC F5A78142
Copy CRC F5A78142
Track not present in AccurateRip database
Copy OK

Track 9

Filename C:\Ripping\Coheed and Cambria - The Unheavenly Creatures (2018)\09 - The Pavilion (A Long Way Back).wav

Peak level 98.8 %
Extraction speed 9.6 X
Track quality 100.0 %
Test CRC 51343979
Copy CRC 51343979
Track not present in AccurateRip database
Copy OK

Track 10

Filename C:\Ripping\Coheed and Cambria - The Unheavenly Creatures (2018)\10 - Night-Time Walkers.wav

Peak level 98.8 %
Extraction speed 9.9 X
Track quality 100.0 %
Test CRC 980B2D72
Copy CRC 980B2D72
Track not present in AccurateRip database
Copy OK

Track 11

Filename C:\Ripping\Coheed and Cambria - The Unheavenly Creatures (2018)\11 - The Gutter.wav

Peak level 98.8 %
Extraction speed 10.4 X
Track quality 100.0 %
Test CRC 6AFBC907
Copy CRC 6AFBC907
Track not present in AccurateRip database
Copy OK

Track 12

Filename C:\Ripping\Coheed and Cambria - The Unheavenly Creatures (2018)\12 - All On Fire.wav

Peak level 98.8 %
Extraction speed 9.5 X
Track quality 99.9 %
Test CRC 06B25899
Copy CRC 06B25899
Track not present in AccurateRip database
Copy OK

Track 13

Filename C:\Ripping\Coheed and Cambria - The Unheavenly Creatures (2018)\13 - It Walks Among Us.wav

Peak level 98.8 %
Extraction speed 10.9 X
Track quality 100.0 %
Test CRC BC7002C5
Copy CRC BC7002C5
Track not present in AccurateRip database
Copy OK

Track 14

Filename C:\Ripping\Coheed and Cambria - The Unheavenly Creatures (2018)\14 - Old Flames.wav

Peak level 98.8 %
Extraction speed 11.2 X
Track quality 100.0 %
Test CRC 700A55F0
Copy CRC 700A55F0
Track not present in AccurateRip database
Copy OK

Track 15

Filename C:\Ripping\Coheed and Cambria - The Unheavenly Creatures (2018)\15 - Lucky Stars.wav

Peak level 98.8 %
Extraction speed 11.5 X
Track quality 100.0 %
Test CRC 8A724DFD
Copy CRC 8A724DFD
Track not present in AccurateRip database
Copy OK


None of the tracks are present in the AccurateRip database

No errors occurred

End of status report

–– CUETools DB Plugin V2.1.6

[CTDB TOCID: .IVGbCDk5acMNyM.FOUSh_Mngpw-] found
Submit result: .IVGbCDk5acMNyM.FOUSh_Mngpw- has been confirmed
Track | CTDB Status
1 | (31/31) Accurately ripped
2 | (31/31) Accurately ripped
3 | (31/31) Accurately ripped
4 | (31/31) Accurately ripped
5 | (31/31) Accurately ripped
6 | (31/31) Accurately ripped
7 | (31/31) Accurately ripped
8 | (31/31) Accurately ripped
9 | (31/31) Accurately ripped
10 | (31/31) Accurately ripped
11 | (31/31) Accurately ripped
12 | (31/31) Accurately ripped
13 | (31/31) Accurately ripped
14 | (31/31) Accurately ripped
15 | (31/31) Accurately ripped


==== Log checksum B9EF02849E75CC74700368C608528D34FAD903E210DB170EC27085E3F43A91F4 ====

Thanks to the Original ripper !