Colin Stetson - 9 Albums (2008-2016)

Posted By: Domestos
Colin Stetson - 9 Albums (2008-2016)

Colin Stetson - 9 Albums (2008-2016)
EAC Rip | FLAC (tracks+.cue, log) ~ 1,66 Gb | 05:22:03 | Covers
Avant-Garde Jazz | Country: USA

Colin Stetson is an American saxophonist and multireedist. He is best known as a regular collaborator of the indie rock acts Arcade Fire, Bon Iver, and Bell Orchestre. In addition to saxophone, he plays clarinet, bass clarinet, French horn, flute, and cornet. Stetson has released a trilogy of solo releases, entitled New History Warfare, a collaborative studio album with violinist Sarah Neufeld, entitled Never Were the Way She Was (2015) and Sorrow, a "reimagining" of Górecki's 3rd symphony (2016).

Born in Ann Arbor, Michigan and currently based in Montreal, Quebec, Stetson attended the University of Michigan School of Music, where he joined Transmission Trio. Stetson was also athletically involved in high school, starting on the football team, competing in several different events on the track team and wrestling in the 152 weight division. Stetson is known for his classical saxophone inclination and he started taking lessons at age 15. He also played with the groups Boostamonte and the People's Bizarre. Prior to attending the University of Michigan School of Music with a full scholarship as a classical sax player, he attended the All-State Program at Interlochen Center for the Arts.

Stetson has performed and recorded with dozens of artists, including Tom Waits, Arcade Fire, TV on the Radio, Feist, Bon Iver, My Brightest Diamond, Laurie Anderson, David Byrne, Jolie Holland, Sinéad O'Connor, LCD Soundsystem, The Chemical Brothers, Animal Collective, The National, Godspeed You! Black Emperor, Angélique Kidjo, Kevin Devine, Beanie Burnett, BADBADNOTGOOD, and Anthony Braxton.

His extended saxophone techniques cover advanced circular breathing, multiphonics, altissimo, microtones, (reed) vocalisations, percussive valve-work, clicking keys, and growling.

Solo career
His first solo album, New History Warfare, Vol. 1, was released in 2008. His second album, New History Warfare Vol. 2: Judges, was released by Constellation Records in early 2011. On June 16, the album was named as a longlisted nominee (one of 40) for the 2011 Polaris Music Prize. On July 6, the album was named as a shortlisted (one of 10) nominee for the 2011 award. Stetson was chosen by Jeff Mangum of Neutral Milk Hotel to perform at the All Tomorrow's Parties festival that he curated in December 2011 in Minehead, England.

The final album of the trilogy, New History Warfare Vol. 3: To See More Light, was released by Constellation Records in April 2013, and was a longlist nominee for the 2013 Polaris Music Prize.

Colin Stetson's most recent album, All This I Do for Glory, was released on April 28, 2017.

Score work
Stetson and regular collaborator Sarah Neufeld composed the score to the 2013 film Blue Caprice and the 2016 film Outlaws and Angels.

Colin Stetson - 9 Albums (2008-2016)

Colin Stetson - New History Warfare, Volume 1 (2008)
EAC Rip | FLAC (tracks+.cue, log) ~ 222.13 Mb | 48:41 | Cover
Jazz, Rock, Experimental | Country: USA | Label: Aagoo Records ‎– AGO CD06

This needs to be said up front: Colin Stetson is an absolute master of the saxophone. He has formidable breath control and circular breathing technique, a great sense of dynamics, and extremely impressive control over multiphonics and timbral changes: he can basically do anything that can be done with a saxophone (and maybe some things that can't). Although there is just a touch of studio treatment on a couple tracks and sampled, spoken intros to a couple more, New History Warfare, Vol. 1 is essentially an album of solo saxophone performances with no overdubbing. But this is no platform for free blowing and empty showboating; these pieces are clearly through-composed. Whether the track is one minute long or eight, there is an easily discernible structure, clear logic, and a strong sense of forward momentum to each of these tunes. Stetson's ability to build separate musical lines on top of each other is nothing short of astonishing. It's something like Rahsaan Roland Kirk playing two different melodies against a drone, except Kirk did it on three horns and Stetson is doing it on one.

"And It Fought to Escape" is a perfect encapsulation of Stetson's style. It begins almost imperceptibly as a percussive pulse is established with the saxophone keys playing against a breathy background. He then adds bits of melody on top until he is having a conversation between different registers of the saxophone while somehow maintaining the pulse. The breath control and dynamics are amazing, as are the sounds he makes with his saxophone. Switching gears, "Groundswell" almost sounds like a flute/bass duet at times. On "Nobu Take," Stetson's clarinet sounds more like a keyboard, simultaneously evoking Eastern European folk music and electronica, while "Tiger Tiger Crane" begins with what sounds like beatboxing through the sax. But Stetson's musicality far outweighs any notion of gimmicks. The pieces are deeply focused and never overstay their welcome. Not only that, but the strong structures and internal logic of the pieces make them far more listenable than many so-called avant-garde recordings.

New History Warfare, Vol. 1 is a truly impressive, fully formed, and highly individual musical statement. It's amazing from a purely technical standpoint, but Stetson's compositions and ability to tell a musical story are what make this a great album. You haven't heard saxophone music quite like this. No one else could have written this music because no one plays quite like Colin Stetson. Truly impressive. Evan Parker fans, take note: this guy is someone to watch. ~ AllMusic Review by Sean Westergaard

Track List:
01. And It Fought To Escape (8:20)
02. Stand, Walk (1:30)
03. Groundswell (1:39)
04. Time Is Advancing With Fitful Irregularity (7:07)
05. Drown The Rats And Giants (1:13)
06. As A Bird Or Branch (4:14)
07. OHP (0:37)
08. Quincy Had A Glandular Problem (1:37)
09. Nobu Take (4:53)
10. Tiger Tiger Crane (3:14)
11. Letter To HST (3:16)
12. Our Heartbreak Perfect (11:03)

Exact Audio Copy V0.99 prebeta 5 from 4. May 2009

EAC extraction logfile from 10. May 2010, 2:29

Colin Stetson / New History Warfare Volume 1

Used drive : _NEC DVD+-RW ND-3530A Adapter: 1 ID: 1

Read mode : Secure
Utilize accurate stream : Yes
Defeat audio cache : Yes
Make use of C2 pointers : No

Read offset correction : 48
Overread into Lead-In and Lead-Out : No
Fill up missing offset samples with silence : Yes
Delete leading and trailing silent blocks : No
Null samples used in CRC calculations : No
Used interface : Installed external ASPI interface
Gap handling : Appended to previous track

Used output format : User Defined Encoder
Selected bitrate : 768 kBit/s
Quality : High
Add ID3 tag : No
Command line compressor : C:\Program Files\Exact Audio Copy\FLAC\FLAC.EXE
Additional command line options : -6 -V -T "ARTIST=%a" -T "TITLE=%t" -T "ALBUM=%g" -T "DATE=%y" -T "TRACKNUMBER=%n" -T "GENRE=%m" -T "COMMENT=%e" %s -o %d

TOC of the extracted CD

Track | Start | Length | Start sector | End sector
––––––––––––––––––––––––––––-
1 | 0:00.00 | 8:19.58 | 0 | 37482
2 | 8:19.58 | 1:29.46 | 37483 | 44203
3 | 9:49.29 | 1:38.66 | 44204 | 51619
4 | 11:28.20 | 7:06.67 | 51620 | 83636
5 | 18:35.12 | 1:13.04 | 83637 | 89115
6 | 19:48.16 | 4:13.42 | 89116 | 108132
7 | 24:01.58 | 0:37.15 | 108133 | 110922
8 | 24:38.73 | 1:37.19 | 110923 | 118216
9 | 26:16.17 | 4:52.50 | 118217 | 140166
10 | 31:08.67 | 3:13.59 | 140167 | 154700
11 | 34:22.51 | 3:15.50 | 154701 | 169375
12 | 37:38.26 | 11:02.39 | 169376 | 219064

Track 1

Filename C:\windows\profiles\erik\Desktop\New Rips\Colin Stetson - New History Warfare Vol. 1\01 And It Fought to Escape.wav

Pre-gap length 0:00:02.00

Peak level 77.6 %
Track quality 99.9 %
Test CRC EA11F3E8
Copy CRC EA11F3E8
Accurately ripped (confidence 1) [C026DCCD]
Copy OK

Track 2

Filename C:\windows\profiles\erik\Desktop\New Rips\Colin Stetson - New History Warfare Vol. 1\02 Stand, Walk.wav

Peak level 97.7 %
Track quality 100.0 %
Test CRC A262AA89
Copy CRC A262AA89
Accurately ripped (confidence 1) [5FC2E36B]
Copy OK

Track 3

Filename C:\windows\profiles\erik\Desktop\New Rips\Colin Stetson - New History Warfare Vol. 1\03 Groundswell.wav

Peak level 51.2 %
Track quality 100.0 %
Test CRC E8EA89E2
Copy CRC E8EA89E2
Accurately ripped (confidence 1) [6B8A9AB3]
Copy OK

Track 4

Filename C:\windows\profiles\erik\Desktop\New Rips\Colin Stetson - New History Warfare Vol. 1\04 Time Is Advancing with Fitful Irregularity.wav

Peak level 97.7 %
Track quality 100.0 %
Test CRC 8A4827D5
Copy CRC 8A4827D5
Accurately ripped (confidence 1) [B08374FE]
Copy OK

Track 5

Filename C:\windows\profiles\erik\Desktop\New Rips\Colin Stetson - New History Warfare Vol. 1\05 Drown the Rats and Giants.wav

Peak level 97.8 %
Track quality 99.8 %
Test CRC CA8F045B
Copy CRC CA8F045B
Accurately ripped (confidence 1) [E7CBEAB1]
Copy OK

Track 6

Filename C:\windows\profiles\erik\Desktop\New Rips\Colin Stetson - New History Warfare Vol. 1\06 As a Bird or Branch.wav

Peak level 82.2 %
Track quality 100.0 %
Test CRC FEA144DA
Copy CRC FEA144DA
Accurately ripped (confidence 1) [082E910E]
Copy OK

Track 7

Filename C:\windows\profiles\erik\Desktop\New Rips\Colin Stetson - New History Warfare Vol. 1\07 OHP.wav

Peak level 43.6 %
Track quality 99.7 %
Test CRC 16D052F3
Copy CRC 16D052F3
Accurately ripped (confidence 1) [3F1B80B0]
Copy OK

Track 8

Filename C:\windows\profiles\erik\Desktop\New Rips\Colin Stetson - New History Warfare Vol. 1\08 Quincy Had a Glandular Problem.wav

Peak level 92.2 %
Track quality 100.0 %
Test CRC 69B52157
Copy CRC 69B52157
Accurately ripped (confidence 1) [49A7F5D4]
Copy OK

Track 9

Filename C:\windows\profiles\erik\Desktop\New Rips\Colin Stetson - New History Warfare Vol. 1\09 Nobu Take.wav

Peak level 97.7 %
Track quality 100.0 %
Test CRC 2EF47437
Copy CRC 2EF47437
Accurately ripped (confidence 1) [DBD47DA7]
Copy OK

Track 10

Filename C:\windows\profiles\erik\Desktop\New Rips\Colin Stetson - New History Warfare Vol. 1\10 Tiger Tiger Crane.wav

Peak level 61.6 %
Track quality 100.0 %
Test CRC FE89D017
Copy CRC FE89D017
Accurately ripped (confidence 1) [675716D0]
Copy OK

Track 11

Filename C:\windows\profiles\erik\Desktop\New Rips\Colin Stetson - New History Warfare Vol. 1\11 Letter to HST.wav

Peak level 61.6 %
Track quality 100.0 %
Test CRC 7F16EC25
Copy CRC 7F16EC25
Accurately ripped (confidence 1) [5CFCEA17]
Copy OK

Track 12

Filename C:\windows\profiles\erik\Desktop\New Rips\Colin Stetson - New History Warfare Vol. 1\12 Our Heartbreak Perfect.wav

Peak level 97.7 %
Track quality 100.0 %
Test CRC B8EDEE1D
Copy CRC B8EDEE1D
Accurately ripped (confidence 1) [81719970]
Copy OK

All tracks accurately ripped

No errors occurred

End of status report


Colin Stetson - 9 Albums (2008-2016)

Colin Stetson - The Righteous Wrath Of An Honorable Man (EP) (2010)
WEB FLAC (tracks) ~ 35.55 Mb | 06:00 | Cover
Glitch, Free Improvisation, Avant-garde Jazz | Country: USA | Label: Constellation ‎– CST073

Track List:
01. The Righteous Wrath Of An Honorable Man (2:29)
02. Judges (Damian Taylor Concretification Mix) (3:31)

AUDIOCHECKER v2.0 beta (build 457) - by Dester - opdester@freemail.hu
~~~~~~~~~~~~~~~~~~~~~~~~~~~~~~~~~~
-=== DO NOT EDIT THIS FILE! ===-

Path: …\[2010 · Cst073] The Righteous Wrath Of An Honorable Man

1 -=- 01. The Righteous Wrath Of An Honorable Man.flac -=- CDDA (99%)
2 -=- 02. Judges (Damian Taylor Concretification Mix).flac -=- CDDA (100%)

Summary 99,50% CDDA

223811748


Colin Stetson - 9 Albums (2008-2016)

Colin Stetson - New History Warfare Vol. 2: Judges (2011)
EAC Rip | FLAC (tracks+.cue, log) ~ 235.26 Mb | 44:41 | Cover
Jazz, Rock, Avantgarde | Country: USA | Label: Constellation ‎– CST075-2

Colin Stetson's 2008 album New History Warfare, Vol. 1 showcased the saxophonist/multi-reedist's phenomenal multiphonic improvisation style and circular breathing technique. Released in 2011, New History Warfare, Vol. 2: Judges features a similar exploratory solo saxophone approach that is nothing short of mind-blowing. Stetson uses the circular breathing style, recorded in single takes and occasionally with overdubs, to create atmospheric and hypnotic loops that sound like layered analog keyboards more than saxophones. In that sense, the tracks here often bring to mind something along the lines of Jean Michel Jarre crossed with Roscoe Mitchell. These tracks allow Stetson to skronk and pulse, wheeze and then soar with white jet-engine noise that is never purposeless and always controlled. Also featured here are a few spoken word sections with avant-garde icon Laurie Anderson – including the poetic "A Dream of Water" – that lend a cinematic quality to the proceedings. Elsewhere, vocalist Shara Worden delivers a haunting lead on the spiritual "Lord I Just Can't Keep from Crying Sometimes." Primarily, however, it is Stetson's transcendent and muscular ability to layer sound, breath, and rhythm in a meditative compositional style that sticks with you long after Judges is over. ~ AllMusic Review by Matt Collar

Track List:
01. Awake On Foreign Shores (1:30)
02. Judges (5:13)
03. The Stars In His Head (Dark Lights Remix) (5:30)
04. All The Days I’ve Missed You (ILAIJ I) (1:16)
05. From No Part Of Me Could I Summon A Voice (2:16)
06. A Dream Of Water (3:36)
07. Home (3:12)
08. Lord I Just Can’t Keep From Crying Sometimes (4:49)
09. Clothed In The Skin Of The Dead (3:41)
10. All The Colors Bleached To White (ILAIJ II) (0:36)
11. Red Horse (Judges II) (2:58)
12. The Righteous Wrath Of An Honorable Man (2:28)
13. Fear Of The Unknown And The Blazing Sun (2:42)
14. In Love And In Justice (4:54)

Exact Audio Copy V1.0 beta 1 from 15. November 2010

EAC extraction logfile from 2. February 2011, 11:00

Colin Stetson / New History Warfare Vol.2: Judges

Used drive : MATSHITADVD-RAM UJ-844 Adapter: 0 ID: 0

Read mode : Secure
Utilize accurate stream : Yes
Defeat audio cache : Yes
Make use of C2 pointers : No

Read offset correction : 102
Overread into Lead-In and Lead-Out : No
Fill up missing offset samples with silence : Yes
Delete leading and trailing silent blocks : No
Null samples used in CRC calculations : Yes
Used interface : Installed external ASPI interface
Gap handling : Appended to previous track

Used output format : User Defined Encoder
Selected bitrate : 320 kBit/s
Quality : High
Add ID3 tag : No
Command line compressor : C:\Program Files\Exact Audio Copy\Flac\flac.exe
Additional command line options : -V -8 -T "artist=%a" -T "title=%t" -T "album=%g" -T "date=%y" -T "tracknumber=%n" -T "genre=%m" %s

TOC of the extracted CD

Track | Start | Length | Start sector | End sector
––––––––––––––––––––––––––––-
1 | 0:00.00 | 1:30.20 | 0 | 6769
2 | 1:30.20 | 5:13.05 | 6770 | 30249
3 | 6:43.25 | 5:30.25 | 30250 | 55024
4 | 12:13.50 | 1:15.60 | 55025 | 60709
5 | 13:29.35 | 2:16.00 | 60710 | 70909
6 | 15:45.35 | 3:35.55 | 70910 | 87089
7 | 19:21.15 | 3:12.35 | 87090 | 101524
8 | 22:33.50 | 4:49.02 | 101525 | 123201
9 | 27:22.52 | 3:40.45 | 123202 | 139746
10 | 31:03.22 | 0:36.15 | 139747 | 142461
11 | 31:39.37 | 2:57.63 | 142462 | 155799
12 | 34:37.25 | 2:27.65 | 155800 | 166889
13 | 37:05.15 | 2:42.05 | 166890 | 179044
14 | 39:47.20 | 4:53.73 | 179045 | 201092

Track 1

Filename H:\disque\Colin Stetson\Colin Stetson - New History Warfare Vol.2- Judges (2011)\01 - Awake On Foreign Shores.wav

Pre-gap length 0:00:02.00

Peak level 98.8 %
Extraction speed 0.9 X
Track quality 100.0 %
Test CRC DD2CD07F
Copy CRC DD2CD07F
Track not present in AccurateRip database
Copy OK

Track 2

Filename H:\disque\Colin Stetson\Colin Stetson - New History Warfare Vol.2- Judges (2011)\02 - Judges.wav

Peak level 98.8 %
Extraction speed 1.4 X
Track quality 100.0 %
Test CRC 1059A427
Copy CRC 1059A427
Track not present in AccurateRip database
Copy OK

Track 3

Filename H:\disque\Colin Stetson\Colin Stetson - New History Warfare Vol.2- Judges (2011)\03 - The Stars In His Head (Dark Lights Remix).wav

Peak level 98.8 %
Extraction speed 1.6 X
Track quality 100.0 %
Test CRC 3C3973CB
Copy CRC 3C3973CB
Track not present in AccurateRip database
Copy OK

Track 4

Filename H:\disque\Colin Stetson\Colin Stetson - New History Warfare Vol.2- Judges (2011)\04 - All The Days I've Missed You (ILAIJ I).wav

Peak level 98.8 %
Extraction speed 1.2 X
Track quality 100.0 %
Test CRC 2F9EA83D
Copy CRC 2F9EA83D
Track not present in AccurateRip database
Copy OK

Track 5

Filename H:\disque\Colin Stetson\Colin Stetson - New History Warfare Vol.2- Judges (2011)\05 - From No Part Of Me Could I Summon A Voice.wav

Peak level 93.9 %
Extraction speed 1.5 X
Track quality 100.0 %
Test CRC EA37A9E0
Copy CRC EA37A9E0
Track not present in AccurateRip database
Copy OK

Track 6

Filename H:\disque\Colin Stetson\Colin Stetson - New History Warfare Vol.2- Judges (2011)\06 - A Dream Of Water.wav

Peak level 98.8 %
Extraction speed 1.7 X
Track quality 100.0 %
Test CRC DB20C3F7
Copy CRC DB20C3F7
Track not present in AccurateRip database
Copy OK

Track 7

Filename H:\disque\Colin Stetson\Colin Stetson - New History Warfare Vol.2- Judges (2011)\07 - Home.wav

Peak level 98.8 %
Extraction speed 1.7 X
Track quality 100.0 %
Test CRC 85B51771
Copy CRC 85B51771
Track not present in AccurateRip database
Copy OK

Track 8

Filename H:\disque\Colin Stetson\Colin Stetson - New History Warfare Vol.2- Judges (2011)\08 - Lord I Just Can't Keep From Crying Sometimes.wav

Peak level 96.6 %
Extraction speed 1.8 X
Track quality 100.0 %
Test CRC 8E8B9CB4
Copy CRC 8E8B9CB4
Track not present in AccurateRip database
Copy OK

Track 9

Filename H:\disque\Colin Stetson\Colin Stetson - New History Warfare Vol.2- Judges (2011)\09 - Clothed In The Skin Of The Dead.wav

Peak level 89.1 %
Extraction speed 1.8 X
Track quality 100.0 %
Test CRC 646BF4BF
Copy CRC 646BF4BF
Track not present in AccurateRip database
Copy OK

Track 10

Filename H:\disque\Colin Stetson\Colin Stetson - New History Warfare Vol.2- Judges (2011)\10 - All The Colors Bleached To White (ILAIJ II).wav

Peak level 94.2 %
Extraction speed 0.6 X
Track quality 99.7 %
Test CRC 14FB2253
Copy CRC 14FB2253
Track not present in AccurateRip database
Copy OK

Track 11

Filename H:\disque\Colin Stetson\Colin Stetson - New History Warfare Vol.2- Judges (2011)\11 - Red Horse (Judges ll).wav

Peak level 98.3 %
Extraction speed 1.8 X
Track quality 100.0 %
Test CRC 430A6B15
Copy CRC 430A6B15
Track not present in AccurateRip database
Copy OK

Track 12

Filename H:\disque\Colin Stetson\Colin Stetson - New History Warfare Vol.2- Judges (2011)\12 - The Righteous Wrath Of An Honorable Man.wav

Peak level 98.2 %
Extraction speed 1.7 X
Track quality 100.0 %
Test CRC 4FFA7517
Copy CRC 4FFA7517
Track not present in AccurateRip database
Copy OK

Track 13

Filename H:\disque\Colin Stetson\Colin Stetson - New History Warfare Vol.2- Judges (2011)\13 - Fear Of The Unknown And The Blazing Sun.wav

Peak level 88.7 %
Extraction speed 1.8 X
Track quality 100.0 %
Test CRC B853516B
Copy CRC B853516B
Track not present in AccurateRip database
Copy OK

Track 14

Filename H:\disque\Colin Stetson\Colin Stetson - New History Warfare Vol.2- Judges (2011)\14 - In Love And In Justice.wav

Peak level 98.8 %
Extraction speed 2.0 X
Track quality 100.0 %
Test CRC FA79900D
Copy CRC FA79900D
Track not present in AccurateRip database
Copy OK

None of the tracks are present in the AccurateRip database

No errors occurred

End of status report

==== Log checksum C9D79C0361F53BF4DF5D655BB2CB9199ADAF9DBB5827ACC9EA2F669A2042DF38 ====


Colin Stetson - 9 Albums (2008-2016)

Colin Stetson - Those Who Didn't Run (EP) (2011)
WEB FLAC (tracks) ~ 125.72 Mb | 20:32 | Cover
Jazz, Avantgarde, Experimental | Country: USA | Label: Constellation ‎– CST084

Track List:
01. Those Who Didn’t Run (10:27)
02. The End Of Your Suffering (10:05)

AUDIOCHECKER v2.0 beta (build 457) - by Dester - opdester@freemail.hu
~~~~~~~~~~~~~~~~~~~~~~~~~~~~~~~~~~
-=== DO NOT EDIT THIS FILE! ===-

Path: …\[2011 · Cst084] Those Who Didn’t Run

1 -=- 01. Those Who Didn’t Run.flac -=- CDDA (100%)
2 -=- 02. The End Of Your Suffering.flac -=- CDDA (100%)

Summary 100,00% CDDA

175708244


Colin Stetson - 9 Albums (2008-2016)

Colin Stetson & Mats Gustafsson - Stones (2012)
XLD Rip | FLAC (tracks+.cue, log) ~ 187.92 Mb | 34:37 | Covers
Free Improvisation, Free Jazz | Country: USA | Label: Rune Grammofon - RCD 2136

Recorded live at the Vancouver Jazz Festival in 2011, Stones is the debut collaboration between groundbreaking saxophonists Mats Gustafsson and Colin Stetson. Both men are well documented as soloists and collaborators. For Gustafsson (tenor and baritone horns here) the list includes his own bands the Thing and Fire!, as well as Sonic Youth, Boredoms, Ken Vandermark, Joe McPhee, and Peter Brötzmann. Stetson (alto and bass saxes), a member of Arcade Fire's touring ensemble, has played with everyone from David Byrne and Laurie Anderson to Tom Waits, Feist, and LCD Soundsystem. Comprised of four on-the-spot improvisations, these titles were inspired by the late poet Gunnar Ekelöf (the father of modern Swedish poetry). This is not a skronkfest in which two saxophonists go head on. Instead, these improvisations express a deep, wide-ranging communication that employs rhythm, dissonance, an unconventional yet clearly present lyricism, tonal and harmonic explorations, and various mechanical techniques. The technical prowess on display is considerable, but it is secondary to Gustafsson and Stetson making music together. While the album begins slowly and purposefully, finding tonal commonalities in lower-end expression, it moves far and wide. A language is discovered very early, and what these two carve out in "Stones That Rest Heavily" and establish in "Stones That Can Only Be," are codes of speech: utterances, dynamics, spaces, exclamations, and textures. They are the building blocks of a mysterious, even beguiling conversation. But that speech is not limited; they don't stay in one place long enough to be weighted by their discoveries; they push at them until they give; going underneath them into their core, which in turn becomes the articulation of music's own multifaceted expressive poetics. Though immediately drawn in by the proceedings, by the time we encounter "Stones That Need Not," and closer "Stones That Only Have," even the human voice is utilized in a string of fluid inventions and exchanges that are startling in their complexity, intuition, and emotion. The listener is not excluded from this conversation. Instead, it is extended to her via the duo's adherence to close listening and the economy of their individual and collective expressions. With Stones, Gustafsson and Stetson have encountered not only one another in a magical way, but they communicate the power of beauty itself. ~ AllMusic Review by Thom Jurek

Track List:
01. stones that rest heavily (12:23)
02. stones that can only be (5:04)
03. stones that need not (9:03)
04. stones that only have (8:08)

X Lossless Decoder version 20121027 (142.1)

XLD extraction logfile from 2012-11-28 16:00:03 +0100

Colin Stetson & Mats Gustafsson / Stones

Used drive : HL-DT-ST DVDRW GS31N (revision TA17)

Ripper mode : XLD Secure Ripper
Disable audio cache : OK for the drive with a cache less than 1375KiB
Make use of C2 pointers : NO
Read offset correction : 667
Max retry count : 20
Gap status : Analyzed, Appended (except HTOA)

TOC of the extracted CD
Track | Start | Length | Start sector | End sector
––––––––––––––––––––––––––––-
1 | 00:00:00 | 12:22:50 | 0 | 55699
2 | 12:22:50 | 05:03:44 | 55700 | 78468
3 | 17:26:19 | 09:02:73 | 78469 | 119191
4 | 26:29:17 | 08:08:07 | 119192 | 155798

AccurateRip Summary
Disc not found in AccurateRip DB.

All Tracks
Album gain : -6.04 dB
Peak : 0.988678
Statistics
Read error : 0
Jitter error (maybe fixed) : 0
Retry sector count : 0
Damaged sector count : 0

Track 01
Filename : /Users/Hampus/Music/&y - Colin Stetson & Mats Gustafsson - Stones / 01 - &t.flac
Pre-gap length : 00:02:00

Track gain : -6.04 dB
Peak : 0.988678
CRC32 hash (test run) : 976DE536
CRC32 hash : 976DE536
CRC32 hash (skip zero) : F725E04B
AccurateRip v1 signature : 1DA175CE
AccurateRip v2 signature : 544439A4
->Track not present in AccurateRip database.
Statistics
Read error : 0
Jitter error (maybe fixed) : 0
Retry sector count : 0
Damaged sector count : 0

Track 02
Filename : /Users/Hampus/Music/&y - Colin Stetson & Mats Gustafsson - Stones / 02 - &t.flac
Pre-gap length : 00:03:68

Track gain : -6.54 dB
Peak : 0.988678
CRC32 hash (test run) : 4317168F
CRC32 hash : 4317168F
CRC32 hash (skip zero) : 0470E9D6
AccurateRip v1 signature : 4BE8B053
AccurateRip v2 signature : 62DAD8C2
->Track not present in AccurateRip database.
Statistics
Read error : 0
Jitter error (maybe fixed) : 0
Retry sector count : 0
Damaged sector count : 0

Track 03
Filename : /Users/Hampus/Music/&y - Colin Stetson & Mats Gustafsson - Stones / 03 - &t.flac
Pre-gap length : 00:03:27

Track gain : -5.79 dB
Peak : 0.988678
CRC32 hash (test run) : 98E07568
CRC32 hash : 98E07568
CRC32 hash (skip zero) : 850B6EF6
AccurateRip v1 signature : A3290895
AccurateRip v2 signature : 80249844
->Track not present in AccurateRip database.
Statistics
Read error : 0
Jitter error (maybe fixed) : 0
Retry sector count : 0
Damaged sector count : 0

Track 04
Filename : /Users/Hampus/Music/&y - Colin Stetson & Mats Gustafsson - Stones / 04 - &t.flac
Pre-gap length : 00:03:18

Track gain : -6.12 dB
Peak : 0.988678
CRC32 hash (test run) : 2BD6E3C3
CRC32 hash : 2BD6E3C3
CRC32 hash (skip zero) : F1D7CB49
AccurateRip v1 signature : 0EFD3769
AccurateRip v2 signature : 1B9BDBA6
->Track not present in AccurateRip database.
Statistics
Read error : 0
Jitter error (maybe fixed) : 0
Retry sector count : 0
Damaged sector count : 0

No errors occurred

End of status report


Colin Stetson - 9 Albums (2008-2016)

Colin Stetson - New History Warfare Vol. 3: To See More Light (2013)
EAC Rip | FLAC (tracks+.cue, log) ~ 296.30 Mb | 51:38 | Cover
Jazz, Rock, Experimental | Country: USA | Label: Constellation ‎– CST092-2

Improviser and composer Colin Stetson's solo work is characterized by dense sheets of saxophone/woodwinds that present a similar approach as loop-based music while being recorded in single live takes with no overdubs. This unique and challenging discipline calls on elements of jazz, modern composition, and even aspects of repetition and textural drone found in certain branches of electronic music and noise. With New History Warfare, Vol. 3, Stetson explores scorched landscapes and heavenly scenes alike with his stylized playing. He spent time collaborating with Bon Iver, and singer Justin Vernon returns the favor and contributes his signature falsetto vocals to four songs here – these vocals are the only overdubs on the album, though detailed production by Ben Frost would lead listeners to believe otherwise. ~ AllMusic Review by Fred Thomas

Track List:
01. And In Truth (1:34)
02. Hunted (5:51)
03. High Above A Grey Green Sea (4:25)
04. In Mirrors (1:26)
05. Brute (2:55)
06. Among The Sef (Righteous II) (4:36)
07. Who The Waves Are Roaring For (Hunted II) (4:07)
08. To See More Light (15:08)
09. What Are They Doing In Heaven Today? (3:36)
10. This Bed Of Shattered Bone (2:09)
11. Part Of Me Apart From You (5:51)

Exact Audio Copy V1.0 beta 3 from 29. August 2011

EAC extraction logfile from 15. April 2013, 14:22

Colin Stetson / New History Warfare Vol. 3: To See More Light

Used drive : HL-DT-STDVDRWBD CA10N Adapter: 1 ID: 0

Read mode : Secure
Utilize accurate stream : Yes
Defeat audio cache : Yes
Make use of C2 pointers : No

Read offset correction : 667
Overread into Lead-In and Lead-Out : No
Fill up missing offset samples with silence : Yes
Delete leading and trailing silent blocks : No
Null samples used in CRC calculations : Yes
Used interface : Native Win32 interface for Win NT & 2000
Gap handling : Appended to previous track

Used output format : User Defined Encoder
Selected bitrate : 1024 kBit/s
Quality : High
Add ID3 tag : No
Command line compressor : C:\Program Files (x86)\Exact Audio Copy\FLAC\FLAC.EXE
Additional command line options : -8 -V -T "ARTIST=%artist%" -T "TITLE=%title%" -T "ALBUM=%albumtitle%" -T "DATE=%year%" -T "TRACKNUMBER=%tracknr%" -T "GENRE=%genre%" -T "COMMENT=%comment%" %hascover%–picture="%coverfile%"%hascover% %source% -o %dest%

TOC of the extracted CD

Track | Start | Length | Start sector | End sector
––––––––––––––––––––––––––––-
1 | 0:00.00 | 1:33.73 | 0 | 7047
2 | 1:33.73 | 5:51.07 | 7048 | 33379
3 | 7:25.05 | 4:25.18 | 33380 | 53272
4 | 11:50.23 | 1:25.72 | 53273 | 59719
5 | 13:16.20 | 2:55.15 | 59720 | 72859
6 | 16:11.35 | 4:35.65 | 72860 | 93549
7 | 20:47.25 | 4:07.20 | 93550 | 112094
8 | 24:54.45 | 15:07.60 | 112095 | 180179
9 | 40:02.30 | 3:36.08 | 180180 | 196387
10 | 43:38.38 | 2:08.62 | 196388 | 206049
11 | 45:47.25 | 5:51.08 | 206050 | 232382

Track 1

Filename C:\EAC\Colin Stetson - New History Warfare Vol. 3- To See More Light\01 - And in Truth.wav

Pre-gap length 0:00:02.00

Peak level 99.1 %
Extraction speed 2.1 X
Track quality 100.0 %
Test CRC F22C5D13
Copy CRC F22C5D13
Track not present in AccurateRip database
Copy OK

Track 2

Filename C:\EAC\Colin Stetson - New History Warfare Vol. 3- To See More Light\02 - Hunted.wav

Peak level 99.6 %
Extraction speed 3.2 X
Track quality 100.0 %
Test CRC 7413B119
Copy CRC 7413B119
Track not present in AccurateRip database
Copy OK

Track 3

Filename C:\EAC\Colin Stetson - New History Warfare Vol. 3- To See More Light\03 - High Above a Grey Green Sea.wav

Peak level 98.9 %
Extraction speed 3.0 X
Track quality 99.9 %
Test CRC AFDFFDC8
Copy CRC AFDFFDC8
Track not present in AccurateRip database
Copy OK

Track 4

Filename C:\EAC\Colin Stetson - New History Warfare Vol. 3- To See More Light\04 - In Mirrors.wav

Peak level 93.4 %
Extraction speed 2.1 X
Track quality 99.8 %
Test CRC A8A7C9C2
Copy CRC A8A7C9C2
Track not present in AccurateRip database
Copy OK

Track 5

Filename C:\EAC\Colin Stetson - New History Warfare Vol. 3- To See More Light\05 - Brute.wav

Peak level 100.0 %
Extraction speed 3.6 X
Track quality 100.0 %
Test CRC 79E5F78F
Copy CRC 79E5F78F
Track not present in AccurateRip database
Copy OK

Track 6

Filename C:\EAC\Colin Stetson - New History Warfare Vol. 3- To See More Light\06 - Among the Sef (Righteous II).wav

Peak level 99.2 %
Extraction speed 3.5 X
Track quality 99.9 %
Test CRC C41A125C
Copy CRC C41A125C
Track not present in AccurateRip database
Copy OK

Track 7

Filename C:\EAC\Colin Stetson - New History Warfare Vol. 3- To See More Light\07 - Who the Waves Are Roaring For (Hunted II).wav

Peak level 99.3 %
Extraction speed 4.3 X
Track quality 100.0 %
Test CRC 0FB68C72
Copy CRC 0FB68C72
Track not present in AccurateRip database
Copy OK

Track 8

Filename C:\EAC\Colin Stetson - New History Warfare Vol. 3- To See More Light\08 - To See More Light.wav

Peak level 100.0 %
Extraction speed 4.6 X
Track quality 99.9 %
Test CRC 10D4AA09
Copy CRC 10D4AA09
Track not present in AccurateRip database
Copy OK

Track 9

Filename C:\EAC\Colin Stetson - New History Warfare Vol. 3- To See More Light\09 - What Are They Doing in Heaven Today.wav

Peak level 100.0 %
Extraction speed 3.7 X
Track quality 99.9 %
Test CRC 3334911D
Copy CRC 3334911D
Track not present in AccurateRip database
Copy OK

Track 10

Filename C:\EAC\Colin Stetson - New History Warfare Vol. 3- To See More Light\10 - This Bed of Shattered Bone.wav

Peak level 98.8 %
Extraction speed 3.6 X
Track quality 99.9 %
Test CRC 26B6D4D4
Copy CRC 26B6D4D4
Track not present in AccurateRip database
Copy OK

Track 11

Filename C:\EAC\Colin Stetson - New History Warfare Vol. 3- To See More Light\11 - Part of Me Apart From You.wav

Peak level 99.2 %
Extraction speed 5.7 X
Track quality 100.0 %
Test CRC CF8D5579
Copy CRC CF8D5579
Track not present in AccurateRip database
Copy OK

None of the tracks are present in the AccurateRip database

No errors occurred

End of status report

–– CUETools DB Plugin V2.1.3

[CTDB TOCID: dZxhZZRhbWFAtZdGn5TN1g79gB8-] disk not present in database, Submit result: dZxhZZRhbWFAtZdGn5TN1g79gB8- has been uploaded

==== Log checksum C45FD84D0A0433743415F96DD0E73C3299CC49F1C42FE538835A82C5A4F8ACD0 ====


Colin Stetson - 9 Albums (2008-2016)

Colin Stetson And Sarah Neufeld - Never Were The Way She Was (2015)
EAC Rip | FLAC (tracks+.cue, log) ~ 224.91 Mb | 42:55 | Cover
Jazz, Rock, Avantgarde | Country: USA | Label: Constellation ‎– CST113

The primary meeting place for saxophonist and bass clarinetist Colin Stetson and violinist Sarah Neufeld is Arcade Fire. She is a permanent member; he often plays with the band on tour. That said, both record for Constellation as solo artists. Never Were the Way She Was was written and recorded live in the studio with no overdubs or loops. Both artists bring the personas displayed on their own recordings, but to new ends. These eight pieces are songlike, despite the spontaneity of their settings. Stetson's circular breathing technique and his physical approach to getting sound from the saxophone's finger pads create both melodic and rhythmic pulses and possibilities, though both players trade places in responsibility for the latter. Neufeld possesses an inherent lyricism in her tone, but there is always the suggestion of coiled tension. On "Won't Be a Thing to Become," his circularity offers a modal pulse that changes keys slightly and slowly while Neufeld gradually unfolds mid-register lines into a melody. Her singing voice shimmers in from the margin wordlessly. "In the Vespers" begins almost as a reel while Stetson engages Steve Reich-ian repetition, freeing up both players to explore rhythm, harmony, and texture. "With the Dark Hug of Time" commences with her haunting violin in the center. Amid its spacious echoes, Stetson plays slow, droning single notes and splutters that establish a pattern. She begins to engage with its fringes as he picks up the tempo and tension, adding more percussive tones. She responds in urgent yet lyric legato. When she begins to spiral out from the form and aggressively improvise, Stetson stretches the tonal frame to the breaking point. His more primal, aggressive pad work on "The Rest of Us" is answered by a sawing, frenetic drone from Neufeld. The pair almost approach techno in their disciplined repetition, but fluctuations, though slight, are striking as her voice dips in and out, stray notes fall from the horn, and echo drenches the violin's middle register. The set's long title number is elegiac. Neufeld's violin is supported by long, hushed tones from Stetson. He reaches deep into the lower register of the baritone sax to dig out contrasting (yet never clashing) sonorities, illuminating her wordless singing voice that emerges and retreats. The track never generates heat and doesn't need to; it remains elegantly somber, languid, yet there is the trace suggestion that something darker lies outside its frame. If there's a complaint about Never Were the Way She Was, it's that it's too brief. These pieces last only as long as they hold interest for the players, though they all create a real desire for more in the listener – which is no complaint at all. ~ AllMusic Review by Thom Jurek

Track List:
01. The sun roars into view (7:37)
02. Won’t be a thing to become (3:24)
03. In the vespers (6:02)
04. And still they move (2:57)
05. With the dark hug of time (6:34)
06. The rest of us (6:31)
07. Never were the way she was (8:13)
08. Flight (1:38)

Exact Audio Copy V1.0 beta 3 from 29. August 2011

EAC extraction logfile from 30. May 2015, 11:40

Colin Stetson and Sarah Neufeld / Never Were the Way She Was

Used drive : ASUS DRW-24B3ST Adapter: 2 ID: 1

Read mode : Secure
Utilize accurate stream : Yes
Defeat audio cache : Yes
Make use of C2 pointers : No

Read offset correction : 6
Overread into Lead-In and Lead-Out : No
Fill up missing offset samples with silence : Yes
Delete leading and trailing silent blocks : No
Null samples used in CRC calculations : Yes
Used interface : Native Win32 interface for Win NT & 2000
Gap handling : Appended to previous track

Used output format : User Defined Encoder
Selected bitrate : 1024 kBit/s
Quality : High
Add ID3 tag : No
Command line compressor : C:\Program Files (x86)\Exact Audio Copy\Flac\flac.exe
Additional command line options : -8 -V -T "ARTIST=%artist%" -T "TITLE=%title%" -T "ALBUM=%albumtitle%" -T "DATE=%year%" -T "TRACKNUMBER=%tracknr%" -T "GENRE=%genre%" -T "PERFORMER=%albuminterpret%" -T "COMPOSER=%composer%" %haslyrics%-tag-from-file=LYRICS="%lyricsfile%"%haslyrics% -T "ALBUMARTIST=%albumartist%" -T "DISCNUMBER=%cdnumber%" -T "TOTALDISCS=%totalcds%" -T "TOTALTRACKS=%numtracks%" -T "COMMENT=%comment%" %source% -o %dest%

TOC of the extracted CD

Track | Start | Length | Start sector | End sector
––––––––––––––––––––––––––––-
1 | 0:00.00 | 7:37.07 | 0 | 34281
2 | 7:37.07 | 3:24.34 | 34282 | 49615
3 | 11:01.41 | 6:01.65 | 49616 | 76755
4 | 17:03.31 | 2:56.56 | 76756 | 90011
5 | 20:00.12 | 6:33.62 | 90012 | 119548
6 | 26:33.74 | 6:30.38 | 119549 | 148836
7 | 33:04.37 | 8:12.61 | 148837 | 185797
8 | 41:17.23 | 1:38.14 | 185798 | 193161

Track 1

Filename E:\EACrips\01 The Sun Roars into View.wav

Pre-gap length 0:00:02.00

Peak level 95.5 %
Extraction speed 3.6 X
Track quality 100.0 %
Test CRC 55F0F7F0
Copy CRC 55F0F7F0
Track not present in AccurateRip database
Copy OK

Track 2

Filename E:\EACrips\02 Won't Be a Thing to Become.wav

Peak level 95.5 %
Extraction speed 3.8 X
Track quality 100.0 %
Test CRC A412D56E
Copy CRC A412D56E
Track not present in AccurateRip database
Copy OK

Track 3

Filename E:\EACrips\03 In the Vespers.wav

Peak level 80.9 %
Extraction speed 3.7 X
Track quality 99.9 %
Test CRC 70BD5B24
Copy CRC 70BD5B24
Track not present in AccurateRip database
Copy OK

Track 4

Filename E:\EACrips\04 And Still They Move.wav

Peak level 95.4 %
Extraction speed 4.3 X
Track quality 100.0 %
Test CRC 148BEEBF
Copy CRC 148BEEBF
Track not present in AccurateRip database
Copy OK

Track 5

Filename E:\EACrips\05 With the Dark Hug of Time.wav

Peak level 95.5 %
Extraction speed 5.0 X
Track quality 100.0 %
Test CRC C643D76F
Copy CRC C643D76F
Track not present in AccurateRip database
Copy OK

Track 6

Filename E:\EACrips\06 The Rest of Us.wav

Peak level 95.5 %
Extraction speed 5.5 X
Track quality 100.0 %
Test CRC F40B41C4
Copy CRC F40B41C4
Track not present in AccurateRip database
Copy OK

Track 7

Filename E:\EACrips\07 Never Were the Way She Was.wav

Peak level 95.5 %
Extraction speed 6.0 X
Track quality 100.0 %
Test CRC E471F4A8
Copy CRC E471F4A8
Track not present in AccurateRip database
Copy OK

Track 8

Filename E:\EACrips\08 Flight.wav

Peak level 66.7 %
Extraction speed 4.9 X
Track quality 100.0 %
Test CRC E071ABB4
Copy CRC E071ABB4
Track not present in AccurateRip database
Copy OK

None of the tracks are present in the AccurateRip database

No errors occurred

End of status report

–– CUETools DB Plugin V2.1.4

[CTDB TOCID: LSsp1fOaAP28XThWaRc7lOYEm_M-] found
Submit result: LSsp1fOaAP28XThWaRc7lOYEm_M- has been confirmed
Track | CTDB Status
1 | (2/2) Accurately ripped
2 | (2/2) Accurately ripped
3 | (2/2) Accurately ripped
4 | (2/2) Accurately ripped
5 | (2/2) Accurately ripped
6 | (2/2) Accurately ripped
7 | (2/2) Accurately ripped
8 | (2/2) Accurately ripped

==== Log checksum 6A04112A5004B1D2FAFE6D3C53EAC8366D62715C6EF05340C0967E0D60587231 ====


Colin Stetson - 9 Albums (2008-2016)

Colin Stetson - Sorrow (A Reimagining Of Gorecki's 3rd Symphony) (2016)
EAC Rip | FLAC (tracks+.cue, log) ~ 282.17 Mb | 52:23 | Cover
Jazz, Rock, Avantgarde | Country: USA | Label: 52Hz - 52HZ001CD

It is only fitting that on Sorrow, groundbreaking, multi-instrumentalist, composer, and improviser Colin Stetson should "reimagine" Henryk Górecki's Symphony No. 3 ("Symphony of Sorrowful Songs"). Górecki's work is itself a "reimagining" of medieval modalism, one that doesn't strictly adhere to its compositional formulae.

Written in the seventies, it signaled Górecki's hard break with serialism. Instead, he composed a minimally harmonic work in three slow, repetitive movements accompanying texts whose themes were loss and grief. The first is a folk lament from Mary the mother of Jesus witnessing his death; the second is a note from a teenage girl to her mother that was scrawled on the wall of a concentration camp prison; the last comes from a folk song, portraying a mother calling out to her lost son killed during the Silesian Uprisings. The 1992 version recorded by conductor David Zinman with soprano Dawn Upshaw is one of the best-selling classical recordings of all time.

Stetson doesn't change Górecki's notation, but he changes the orchestration and tonal palette considerably. Originally written for a 60-piece orchestra, Stetson's 12-player ensemble includes violin, cellos, electric guitars, drums, keyboards, reeds, and mezzo-soprano (Megan Stetson, his sister). In altering the arrangements and instrumentation, he radically shifts the textural, dynamic, and harmonic pillars of Górecki's composition. They underscore its core and uncover a cavernous well of sounds, unsettling, even overwhelming emotions, and a heightened sense impressions.

At over 28 minutes, the first movement is longer than the other two combined. Its simple melody commences with a hushed solo baritone saxophone – with fingerwork and breathing audible – followed by more horns, cellos, violin, reeds, synths, tremolo-picked electric guitars, flailing cymbals, and kick drums. A black metal squall ensues and then suddenly vanishes. The lyric restatement introduces Megan Stetson. Her singing is physical, she inhabits the ensemble, articulating the words rather than soaring above them. (Her emotional depth recalls the 1978 debut recording that featured Polish soprano Stefania Woytowicz.) The second movement emerges more gently with strings at the fore. Before long, it becomes a dirge, an elegy the mezzo claims as the rumbling center. The music retreats back toward folk melody briefly, but propulsive tribal rhythms drive the ensemble painted by swarming blurs of electronics; the mezzo rises to respond. In the final movement, trebly, strummed black metal guitars, doom-laden processional drums, walls of noise, ululating reeds, and electronic drones engulf the listener. Megan Stetson's voice is the only element binding the music to earth. But just as crashing cymbals, sweeping strings, cascading keyboards, and circular horns assume the plateau of tension, Megan Stetson's singing breaks it wide open; her voice transforms the entire swell into a spiritually resonant, redemptive acceptance of, and answer to, inconsolable grief.

Sorrow is a radical, challenging reinterpretation of Górecki's symphony, but it is also an accessible one. Stetson and his ensemble deliver a musically diverse, acute, deep reading that underlines its intention as an extended, focused, powerful, and utterly beautiful meditation on unspeakable loss. ~ AllMusic Review by Thom Jurek

Track List:
01. I (28:25)
02. II (10:13)
03. III (13:45)

Exact Audio Copy V1.1 from 23. June 2015

EAC extraction logfile from 28. November 2016, 10:18

Colin Stetson / Sorrow: A Reimagining Of Gorecki's 3rd Symphony

Used drive : HL-DT-STDVD-RAM GH70N Adapter: 1 ID: 1

Read mode : Secure
Utilize accurate stream : Yes
Defeat audio cache : Yes
Make use of C2 pointers : No

Read offset correction : 667
Overread into Lead-In and Lead-Out : No
Fill up missing offset samples with silence : Yes
Delete leading and trailing silent blocks : No
Null samples used in CRC calculations : Yes
Used interface : Native Win32 interface for Win NT & 2000
Gap handling : Appended to previous track

Used output format : User Defined Encoder
Selected bitrate : 128 kBit/s
Quality : High
Add ID3 tag : No
Command line compressor : C:\Program Files (x86)\Exact Audio Copy\Flac\flac.exe
Additional command line options : -8 -e -V -T "ARTIST=%artist%" -T "TITLE=%title%" -T "ALBUM=%albumtitle%" -T "DATE=%year%" -T "TRACKNUMBER=%tracknr%" -T "GENRE=%genre%" -T "PERFORMER=%albuminterpret%" -T "COMPOSER=%composer%" %haslyrics%–tag-from-file=LYRICS="%lyricsfile%"%haslyrics% -T "ALBUMARTIST=%albumartist%" -T "DISCNUMBER=%cdnumber%" -T "TOTALDISCS=%totalcds%" -T "TOTALTRACKS=%numtracks%" -T "COMMENT=%comment%" %source% -o %dest%

TOC of the extracted CD

Track | Start | Length | Start sector | End sector
––––––––––––––––––––––––––––-
1 | 0:00.00 | 28:25.05 | 0 | 127879
2 | 28:25.05 | 10:13.20 | 127880 | 173874
3 | 38:38.25 | 13:45.05 | 173875 | 235754

Track 1

Filename O:\My Music\Colin Stetson\01 I.wav

Pre-gap length 0:00:02.00

Peak level 99.7 %
Extraction speed 5.2 X
Track quality 100.0 %
Test CRC E55A9C03
Copy CRC E55A9C03
Accurately ripped (confidence 7) [C9AF7CA5] (AR v2)
Copy OK

Track 2

Filename O:\My Music\Colin Stetson\02 II.wav

Peak level 99.1 %
Extraction speed 6.5 X
Track quality 100.0 %
Test CRC A2040BC4
Copy CRC A2040BC4
Accurately ripped (confidence 7) [E2743A24] (AR v2)
Copy OK

Track 3

Filename O:\My Music\Colin Stetson\03 III.wav

Peak level 99.4 %
Extraction speed 7.4 X
Track quality 100.0 %
Test CRC CFCF2D7F
Copy CRC CFCF2D7F
Accurately ripped (confidence 7) [B108E96D] (AR v2)
Copy OK

All tracks accurately ripped

No errors occurred

End of status report

–– CUETools DB Plugin V2.1.6

[CTDB TOCID: RjAwTJuPaO5kUhrK1dESQOG.42I-] found
Submit result: already submitted
Track | CTDB Status
1 | (23/25) Accurately ripped
2 | (23/25) Accurately ripped
3 | (23/25) Accurately ripped

==== Log checksum FB6F5E7BEB0B476CC7DB3A8315A2BF85F6CC3FFFB01E5AC4D6F4E61B864CBF4B ====


Colin Stetson - 9 Albums (2008-2016)

Colin Stetson - Outlaws and Angels (Original Motion Picture Score) (2016)
WEB FLAC (tracks) ~ 96.23 Mb | 20:34 | Cover
Jazz, Avantgarde | Country: USA | Label: Mhuesik Factory - MFR0001

Track List:
01. Main Title Outlaws and Angels (3:20)
02. Charlie’s Kin (0:33)
03. Rubdown (2:16)
04. Sunrise (0:32)
05. Hit Em at Dark (0:09)
06. Dinnertime (1:31)
07. Breakfast (0:55)
08. Goodbye Sissy (0:41)
09. At God’s Doorstep (1:56)
10. Breaking the Law (3:58)
11. Sunrise (Reprise) (1:14)
12. Devil’s Girl (feat. Melody Michalski) (3:29)

AUDIOCHECKER v2.0 beta (build 457) - by Dester - opdester@freemail.hu
~~~~~~~~~~~~~~~~~~~~~~~~~~~~~~~~~~
-=== DO NOT EDIT THIS FILE! ===-

Path: …\[2016 · MFR0001] Outlaws And Angels

01 -=- 01. Main Title Outlaws and Angels.flac -=- CDDA (100%)
02 -=- 02. Charlie’s Kin.flac -=- CDDA (100%)
03 -=- 03. Rubdown.flac -=- CDDA (100%)
04 -=- 04. Sunrise.flac -=- CDDA (100%)
05 -=- 05. Hit Em at Dark.flac -=- CDDA (100%)
06 -=- 06. Dinnertime.flac -=- CDDA (100%)
07 -=- 07. Breakfast.flac -=- CDDA (100%)
08 -=- 08. Goodbye Sissy.flac -=- CDDA (100%)
09 -=- 09. At God’s Doorstep.flac -=- CDDA (100%)
10 -=- 10. Breaking the Law.flac -=- CDDA (100%)
11 -=- 11. Sunrise (Reprise).flac -=- CDDA (100%)
12 -=- 12. Devil’s Girl (feat. Melody Michalski).flac -=- CDDA (100%)

Summary 100,00% CDDA

244691444


All thanks go to the miksobarbar, what.cd, bandcamp.com, cstrecords.com, redacted.ch

More Music in My Blog
Follow My RSS Channel