Subcategories
Tags
Language
Tags

John Coltrane - The Heavyweight Champion: The Complete Atlantic Recordings {7CD Box Set Reissue 2013}

Posted By: ruskaval
John Coltrane - The Heavyweight Champion: The Complete Atlantic Recordings {7CD Box Set Reissue 2013}

John Coltrane - The Heavyweight Champion: The Complete Atlantic Recordings {7CD Box Set Reissue 2013}
EAC rip (secure mode) | FLAC (tracks)+CUE+LOG -> 2.86 Gb | MP3 @320 -> 1.09 Gb
Full Artwork @ 600 dpi (png) -> 1.66 Gb | 5% repair rar
© 2013 Atlantic / Rhino / Warner | 8122796427
Jazz / Hard Bop / Post Bop / Modal Music / Avant-Garde Jazz / Saxophone

The Heavyweight Champion is a box set that lives up to its title. Collecting all of John Coltrane's Atlantic recordings, including a fair number of unreleased takes as well as an entire disc of alternate tracks and studio chatter, the seven-disc box set documents a pivotal moment in Coltrane's career, as he was moving from hard bop and sweet standards to a more daring, experimental style of playing influenced by the avant-garde. Much of the music is hard bop (Giant Steps) or lushly melodic (My Favorite Things), but the latter discs show the saxophonist coming to terms with the more experimental movements in jazz. The scope of this music is, quite simply, breathtaking – not only was Coltrane developing at a rapid speed, but the resulting music encompasses nearly every element that made him a brilliant musician, and it is beautiful.

John Coltrane - The Heavyweight Champion: The Complete Atlantic Recordings {7CD Box Set Reissue 2013}


Down Beat - 5 Stars - Excellent - "…the sound quality…is superior to that of the original CDs
JazzTimes - Winner in the JazzTimes Readers Poll for Best Reissue of 1995.
THE HEAVYWEIGHT CHAMPION includes every track from the albums GIANT STEPS, COLTRANE JAZZ, MY FAVORITE THINGS, BAGS & TRANE, OLE COLTRANE, COLTRANE PLAYS THE BLUES, COLTRANE'S SOUND, THE AVANT-GARDE, THE COLTRANE LEGACY and ALTERNATE TAKES, with sequenced by recording date. Disc 7 of the box set features 68 minutes of previously unreleased rehearsals, false starts and outtakes, all newly discovered. It also includes a 75-page, hardbound book with liner notes, interviews and remembrances of John Coltrane.

THE HEAVYWEIGHT CHAMPION was nominated for a 1996 Grammy Award for Best Historical Album.

After his tenure in the great Miles Davis group of the mid-'50s, John Coltrane was ready to strike out on his own. Although he had recorded several records on the smaller Prestige label, Coltrane's first major label association was with Ahmet Ertegun's Atlantic Records. Now all of 'Trane's pioneering Atlantic recordings are compiled in one huge seven-disc set entitled THE HEAVYWEIGHT CHAMPION. As the content attests, this title is a fitting analogy.

Starting with the early recordings with Milt Jackson for the BAGS & TRANE album, the set chronologically follows Coltrane's work through the groundbreaking GIANT STEPS sessions and beyond. Many alternate takes are sprinkled throughout amidst familiar album tracks from the likes of COLTRANE JAZZ, COLTRANE PLAYS THE BLUES and the magnificent MY FAVORITE THINGS, giving a picture of the saxophonist's intense creativity at this period. Finally, for the true 'Trane collector, disc seven, in a unique package, includes twenty-five alternate and incomplete takes, false starts and rehearsal recordings of classics like "Giant Steps," "Naima" and "Like Sonny." This set is a powerful document of one of the most significant artists of the modern era in his prime.

Recorded at Atlantic Studios and A & R Studios, New York, New York between January 15, 1959 and May 25, 1961. Includes a 75-page hardbound book with liner notes by Lewis Porter, Jimmy Heath, Yusef Lateef, Charles Lloyd.
John Coltrane - The Heavyweight Champion: The Complete Atlantic Recordings {7CD Box Set Reissue 2013}


Personnel: John Coltrane (tenor & soprano saxophones); Eric Dolphy (alto saxophone, flute); Don Cherry, Freddie Hubbard (trumpet); Milt Jackson (vibraphone); Hank Jones, Cedar Walton, Tommy Flanagan, Wynton Kelly, McCoy Tyner (piano); Paul Chambers, Charlie Haden, Percy Heath, Steve Davis, Art Davis, Reggie Workman (bass); Connie Kay, Art Taylor, Jimmy Cobb, Ed Blackwell, Elvin Jones, Lex Humphries (drums).

tracklist:
CD1

01. Stairway To The Stars
02. Late Late Blues
03. Bags & Trane
04. Three Little Words
05. The Night We Called It A Day
06. Be-Bop
07. Blues Legacy
08. Centerpiece
09. Giant Steps (Alternate Version)
10. Naima (Alternate Version)
11. Like Sonny (Alternate Version)

John Coltrane - The Heavyweight Champion: The Complete Atlantic Recordings {7CD Box Set Reissue 2013}


CD2
01. Spiral
02. Countdown
03. Countdown (Alternate Take)
04. Syeeda's Song Flute
05. Syeeda's Song Flute (Alternate Take)
06. Mr. P.C.
07. Giant Steps
08. Cousin Mary
09. Cousin Mary (Alternate Take)
10. I'll Wait and Pray
11. I'll Wait and Pray (Alternate Take)
12. Little Old Lady

John Coltrane - The Heavyweight Champion: The Complete Atlantic Recordings {7CD Box Set Reissue 2013}


CD3
01. Like Sonny
02. Harmonique
03. My Shining Hour
04. Naima
05. Some Other Blues
06. Fifth House
07. Cherryco
08. The Blessing
09. Focus on Sanity
10. The Invisible
11. Bemsha Swing

John Coltrane - The Heavyweight Champion: The Complete Atlantic Recordings {7CD Box Set Reissue 2013}


CD4
01. Village Blues
02. Village Blues (Alternate Take)
03. My Favorite Things
04. Central Park West
05. Mr. Syms
06. Untitled Original (Exotica)
07. Summertime
08. Body and Soul
09. Body and Soul (Alternate Take)
10. Mr. Knight

John Coltrane - The Heavyweight Champion: The Complete Atlantic Recordings {7CD Box Set Reissue 2013}


CD5
01. Blues to Elvin (Alternate Take)
02. Blues to Elvin
03. Mr. Day
04. Blues to You (Alternate Take)
05. Blues to You
06. Blues to Bechet
07. Satellite
08. Everytime Time We Say Goodbye
09. 26-2
10. But Not for Me

John Coltrane - The Heavyweight Champion: The Complete Atlantic Recordings {7CD Box Set Reissue 2013}


CD6
01. Liberia
02. The Night Has a Thousand Eyes
03. Equinox
04. Ole
05. Dahomey Dance
06. Aisha
07. Original Untitled Ballad (To Her Ladyship)

John Coltrane - The Heavyweight Champion: The Complete Atlantic Recordings {7CD Box Set Reissue 2013}


CD7
01. Giant Steps (Alternate Version): Take 1 (Incomplete)
02. Giant Steps (Alternate Version): Take 2 (False Start)
03. Giant Steps (Alternate Version): Take 3 (Incomplete)
04. Giant Steps (Alternate Version): Take 4 (Incomplete)
05. Giant Steps (Alternate Version): Take 5 (Alternate)
06. Giant Steps (Alternate Version): Take 6 (False Start)
07. Giant Steps (Alternate Version): Take 7 (Incomplete)
08. Naima (Alternate Version): Take 1 (Incomplete)
09. Naima (Alternate Version): Take 2 (Incomplete)
10. Naima (Alternate Version): Take 4 (False Start)
11. Naima (Alternate Version): Take 5 (Alternate)
12. Naima (Alternate Version): Take 6 (I Alternate)
13. Like Sonny (Alternate Version): Rehearsal 1 (False Start)
14. Like Sonny (Alternate Version): Rehearsal 2 (Incomplete)
15. Like Sonny (Alternate Version): Take 1 (False Start)
16. Like Sonny (Alternate Version): Take 2 (Incomplete)
17. Like Sonny (Alternate Version): Take 3 (Incomplete)
18. Like Sonny (Alternate Version): Take 4 (False Start)
19. Like Sonny (Alternate Version): Take 5 (Alternate)
20. Like Sonny (Alternate Version): Take 6 (Incomplete)
21. Giant Steps: Take 3 (Incomplete)
22. Giant Steps: Take 6 (Alternate)
23. Blues to Elvin: Take 2 (False Start)
24. Blues to Elvin: Take 3 (Alternate)
25. Blues to You: Take 2 (Alternate)

John Coltrane - The Heavyweight Champion: The Complete Atlantic Recordings {7CD Box Set Reissue 2013}


Exact Audio Copy V1.3 from 2. September 2016

EAC extraction logfile from 13. July 2018, 21:33

John Coltrane / The Heavyweight Champion, The Complete Atlantic Recordings (CD1)

Used drive : ATAPI iHAS122 F Adapter: 1 ID: 2

Read mode : Secure
Utilize accurate stream : Yes
Defeat audio cache : Yes
Make use of C2 pointers : No

Read offset correction : 6
Overread into Lead-In and Lead-Out : No
Fill up missing offset samples with silence : Yes
Delete leading and trailing silent blocks : No
Null samples used in CRC calculations : Yes
Used interface : Native Win32 interface for Win NT & 2000
Gap handling : Appended to previous track

Used output format : User Defined Encoder
Selected bitrate : 1024 kBit/s
Quality : High
Add ID3 tag : No
Command line compressor : C:\Program Files (x86)\Exact Audio Copy_v1.3\Flac\flac.exe
Additional command line options : -8 -V -T "ARTIST=%artist%" -T "TITLE=%title%" -T "ALBUM=%albumtitle%" -T "DATE=%year%" -T "TRACKNUMBER=%tracknr%" -T "TOTALTRACKS=%numtracks%" -T "GENRE=%genre%" -T "ALBUMARTIST=%albumartist%" -T "ALBUM ARTIST=%albumartist%" -T "COMMENT=EAC Secure Mode, Test & Copy, AccurateRip, FLAC -8" %source%


TOC of the extracted CD

Track | Start | Length | Start sector | End sector
––––––––––––––––––––––––––––-
1 | 0:00.00 | 3:32.40 | 0 | 15939
2 | 3:32.40 | 9:36.30 | 15940 | 59169
3 | 13:08.70 | 7:26.65 | 59170 | 92684
4 | 20:35.60 | 7:30.62 | 92685 | 126496
5 | 28:06.47 | 4:22.50 | 126497 | 146196
6 | 32:29.22 | 8:01.13 | 146197 | 182284
7 | 40:30.35 | 9:04.67 | 182285 | 223151
8 | 49:35.27 | 7:09.23 | 223152 | 255349
9 | 56:44.50 | 3:44.25 | 255350 | 272174
10 | 60:29.00 | 4:31.00 | 272175 | 292499
11 | 65:00.00 | 6:02.70 | 292500 | 319719


Track 1

Filename D:\_EAC\John Coltrane - The Heavyweight Champion, The Complete Atlantic Recordings (2013) [FLAC] {8122796427}\CD1\01 - Stairway To The Stars.wav

Pre-gap length 0:00:02.00

Peak level 94.7 %
Extraction speed 5.5 X
Track quality 100.0 %
Test CRC 7CECA59B
Copy CRC 7CECA59B
Accurately ripped (confidence 24) [B073A0F8] (AR v2)
Copy OK

Track 2

Filename D:\_EAC\John Coltrane - The Heavyweight Champion, The Complete Atlantic Recordings (2013) [FLAC] {8122796427}\CD1\02 - The Late Late Blues.wav

Pre-gap length 0:00:02.63

Peak level 96.2 %
Extraction speed 7.0 X
Track quality 100.0 %
Test CRC 514E1365
Copy CRC 514E1365
Accurately ripped (confidence 24) [D2354F1A] (AR v2)
Copy OK

Track 3

Filename D:\_EAC\John Coltrane - The Heavyweight Champion, The Complete Atlantic Recordings (2013) [FLAC] {8122796427}\CD1\03 - Bags And Trane.wav

Pre-gap length 0:00:02.63

Peak level 95.5 %
Extraction speed 7.1 X
Track quality 99.9 %
Test CRC DA67F94B
Copy CRC DA67F94B
Accurately ripped (confidence 24) [2C6F1CAB] (AR v2)
Copy OK

Track 4

Filename D:\_EAC\John Coltrane - The Heavyweight Champion, The Complete Atlantic Recordings (2013) [FLAC] {8122796427}\CD1\04 - Three Little Words.wav

Pre-gap length 0:00:02.63

Peak level 93.4 %
Extraction speed 7.8 X
Track quality 99.9 %
Test CRC 4112FFC4
Copy CRC 4112FFC4
Accurately ripped (confidence 24) [0992EE8C] (AR v2)
Copy OK

Track 5

Filename D:\_EAC\John Coltrane - The Heavyweight Champion, The Complete Atlantic Recordings (2013) [FLAC] {8122796427}\CD1\05 - The Night We Called It A Day.wav

Pre-gap length 0:00:02.62

Peak level 100.0 %
Extraction speed 8.8 X
Track quality 100.0 %
Test CRC A5A02D4D
Copy CRC A5A02D4D
Accurately ripped (confidence 24) [B9FCFC94] (AR v2)
Copy OK

Track 6

Filename D:\_EAC\John Coltrane - The Heavyweight Champion, The Complete Atlantic Recordings (2013) [FLAC] {8122796427}\CD1\06 - Be-Bop.wav

Pre-gap length 0:00:02.62

Peak level 99.3 %
Extraction speed 9.8 X
Track quality 100.0 %
Test CRC 7926EF77
Copy CRC 7926EF77
Accurately ripped (confidence 24) [8DAE37B3] (AR v2)
Copy OK

Track 7

Filename D:\_EAC\John Coltrane - The Heavyweight Champion, The Complete Atlantic Recordings (2013) [FLAC] {8122796427}\CD1\07 - Blues Legacy.wav

Pre-gap length 0:00:02.63

Peak level 98.5 %
Extraction speed 10.3 X
Track quality 100.0 %
Test CRC B9766017
Copy CRC B9766017
Accurately ripped (confidence 24) [944C7576] (AR v2)
Copy OK

Track 8

Filename D:\_EAC\John Coltrane - The Heavyweight Champion, The Complete Atlantic Recordings (2013) [FLAC] {8122796427}\CD1\08 - Centerpiece.wav

Pre-gap length 0:00:02.62

Peak level 100.0 %
Extraction speed 10.8 X
Track quality 100.0 %
Test CRC B7847361
Copy CRC B7847361
Accurately ripped (confidence 24) [2952B946] (AR v2)
Copy OK

Track 9

Filename D:\_EAC\John Coltrane - The Heavyweight Champion, The Complete Atlantic Recordings (2013) [FLAC] {8122796427}\CD1\09 - Giant Steps (Alternate Version).wav

Pre-gap length 0:00:02.63

Peak level 96.4 %
Extraction speed 10.4 X
Track quality 100.0 %
Test CRC 49BAE1C5
Copy CRC 49BAE1C5
Accurately ripped (confidence 24) [37BE4097] (AR v2)
Copy OK

Track 10

Filename D:\_EAC\John Coltrane - The Heavyweight Champion, The Complete Atlantic Recordings (2013) [FLAC] {8122796427}\CD1\10 - Naima (Alternate Version).wav

Pre-gap length 0:00:02.63

Peak level 86.8 %
Extraction speed 11.1 X
Track quality 100.0 %
Test CRC C7772B49
Copy CRC C7772B49
Accurately ripped (confidence 24) [69430940] (AR v2)
Copy OK

Track 11

Filename D:\_EAC\John Coltrane - The Heavyweight Champion, The Complete Atlantic Recordings (2013) [FLAC] {8122796427}\CD1\11 - Like Sonny (Alternate Version).wav

Pre-gap length 0:00:02.63

Peak level 100.0 %
Extraction speed 11.9 X
Track quality 100.0 %
Test CRC 55ECCAE7
Copy CRC 55ECCAE7
Accurately ripped (confidence 24) [CB2FFC43] (AR v2)
Copy OK


All tracks accurately ripped

No errors occurred

End of status report

–– CUETools DB Plugin V2.1.6

[CTDB TOCID: T2JMvpwiVWThe2DPciTM6z99ZQM-] found
Submit result: T2JMvpwiVWThe2DPciTM6z99ZQM- has been confirmed
Track | CTDB Status
1 | (91/91) Accurately ripped
2 | (90/91) Accurately ripped
3 | (91/91) Accurately ripped
4 | (90/91) Accurately ripped
5 | (91/91) Accurately ripped
6 | (91/91) Accurately ripped
7 | (90/91) Accurately ripped
8 | (91/91) Accurately ripped
9 | (91/91) Accurately ripped
10 | (91/91) Accurately ripped
11 | (89/91) Accurately ripped


==== Log checksum F2CFB3BD954FE6644621742FE6D907F5A1FAAB4DB7ED5D73EC1FC60F0B255373 ====
Exact Audio Copy V1.3 from 2. September 2016

EAC extraction logfile from 13. July 2018, 21:51

John Coltrane / The Heavyweight Champion, The Complete Atlantic Recordings (CD2)

Used drive : ATAPI iHAS122 F Adapter: 1 ID: 2

Read mode : Secure
Utilize accurate stream : Yes
Defeat audio cache : Yes
Make use of C2 pointers : No

Read offset correction : 6
Overread into Lead-In and Lead-Out : No
Fill up missing offset samples with silence : Yes
Delete leading and trailing silent blocks : No
Null samples used in CRC calculations : Yes
Used interface : Native Win32 interface for Win NT & 2000
Gap handling : Appended to previous track

Used output format : User Defined Encoder
Selected bitrate : 1024 kBit/s
Quality : High
Add ID3 tag : No
Command line compressor : C:\Program Files (x86)\Exact Audio Copy_v1.3\Flac\flac.exe
Additional command line options : -8 -V -T "ARTIST=%artist%" -T "TITLE=%title%" -T "ALBUM=%albumtitle%" -T "DATE=%year%" -T "TRACKNUMBER=%tracknr%" -T "TOTALTRACKS=%numtracks%" -T "GENRE=%genre%" -T "ALBUMARTIST=%albumartist%" -T "ALBUM ARTIST=%albumartist%" -T "COMMENT=EAC Secure Mode, Test & Copy, AccurateRip, FLAC -8" %source%


TOC of the extracted CD

Track | Start | Length | Start sector | End sector
––––––––––––––––––––––––––––-
1 | 0:00.00 | 5:59.20 | 0 | 26944
2 | 5:59.20 | 2:24.03 | 26945 | 37747
3 | 8:23.23 | 4:34.72 | 37748 | 58369
4 | 12:58.20 | 7:03.50 | 58370 | 90144
5 | 20:01.70 | 7:07.05 | 90145 | 122174
6 | 27:09.00 | 6:59.68 | 122175 | 153667
7 | 34:08.68 | 4:46.30 | 153668 | 175147
8 | 38:55.23 | 5:48.55 | 175148 | 201302
9 | 44:44.03 | 5:47.20 | 201303 | 227347
10 | 50:31.23 | 3:34.57 | 227348 | 243454
11 | 54:06.05 | 3:28.15 | 243455 | 259069
12 | 57:34.20 | 4:24.13 | 259070 | 278882


Track 1

Filename D:\_EAC\John Coltrane - The Heavyweight Champion, The Complete Atlantic Recordings (2013) [FLAC] {8122796427}\CD2\01 - Spiral.wav

Pre-gap length 0:00:02.00

Peak level 99.7 %
Extraction speed 5.9 X
Track quality 100.0 %
Test CRC DDCA35C9
Copy CRC DDCA35C9
Accurately ripped (confidence 15) [C2A71B9D] (AR v2)
Copy OK

Track 2

Filename D:\_EAC\John Coltrane - The Heavyweight Champion, The Complete Atlantic Recordings (2013) [FLAC] {8122796427}\CD2\02 - Countdown.wav

Peak level 87.6 %
Extraction speed 5.8 X
Track quality 100.0 %
Test CRC 4FF0AF61
Copy CRC 4FF0AF61
Accurately ripped (confidence 15) [54C6B054] (AR v2)
Copy OK

Track 3

Filename D:\_EAC\John Coltrane - The Heavyweight Champion, The Complete Atlantic Recordings (2013) [FLAC] {8122796427}\CD2\03 - Countdown (Alternate Take).wav

Peak level 82.1 %
Extraction speed 6.8 X
Track quality 100.0 %
Test CRC B57EFA61
Copy CRC B57EFA61
Accurately ripped (confidence 15) [F4893BFC] (AR v2)
Copy OK

Track 4

Filename D:\_EAC\John Coltrane - The Heavyweight Champion, The Complete Atlantic Recordings (2013) [FLAC] {8122796427}\CD2\04 - Syeeda's Song Flute.wav

Peak level 100.0 %
Extraction speed 7.7 X
Track quality 100.0 %
Test CRC 3329D406
Copy CRC 3329D406
Accurately ripped (confidence 15) [A71A888F] (AR v2)
Copy OK

Track 5

Filename D:\_EAC\John Coltrane - The Heavyweight Champion, The Complete Atlantic Recordings (2013) [FLAC] {8122796427}\CD2\05 - Syeeda's Song Flute (Alternate Take).wav

Peak level 100.0 %
Extraction speed 8.5 X
Track quality 100.0 %
Test CRC CB205146
Copy CRC CB205146
Accurately ripped (confidence 15) [832A8FD5] (AR v2)
Copy OK

Track 6

Filename D:\_EAC\John Coltrane - The Heavyweight Champion, The Complete Atlantic Recordings (2013) [FLAC] {8122796427}\CD2\06 - Mr. P.C..wav

Peak level 97.4 %
Extraction speed 9.1 X
Track quality 100.0 %
Test CRC 07F0F652
Copy CRC 07F0F652
Accurately ripped (confidence 15) [840D2A95] (AR v2)
Copy OK

Track 7

Filename D:\_EAC\John Coltrane - The Heavyweight Champion, The Complete Atlantic Recordings (2013) [FLAC] {8122796427}\CD2\07 - Giant Steps.wav

Peak level 100.0 %
Extraction speed 9.3 X
Track quality 100.0 %
Test CRC 794B84BA
Copy CRC 794B84BA
Accurately ripped (confidence 15) [6FD2D2A8] (AR v2)
Copy OK

Track 8

Filename D:\_EAC\John Coltrane - The Heavyweight Champion, The Complete Atlantic Recordings (2013) [FLAC] {8122796427}\CD2\08 - Cousin Mary.wav

Peak level 89.7 %
Extraction speed 9.9 X
Track quality 100.0 %
Test CRC BC62FC02
Copy CRC BC62FC02
Accurately ripped (confidence 15) [569C17F7] (AR v2)
Copy OK

Track 9

Filename D:\_EAC\John Coltrane - The Heavyweight Champion, The Complete Atlantic Recordings (2013) [FLAC] {8122796427}\CD2\09 - Cousin Mary (Alternate Take).wav

Peak level 92.9 %
Extraction speed 8.8 X
Track quality 99.9 %
Test CRC CBDFF8D8
Copy CRC CBDFF8D8
Accurately ripped (confidence 15) [6B8EC730] (AR v2)
Copy OK

Track 10

Filename D:\_EAC\John Coltrane - The Heavyweight Champion, The Complete Atlantic Recordings (2013) [FLAC] {8122796427}\CD2\10 - I'll Wait And Pray.wav

Peak level 95.5 %
Extraction speed 8.3 X
Track quality 99.9 %
Test CRC E1C103CE
Copy CRC E1C103CE
Accurately ripped (confidence 15) [18B0F6A6] (AR v2)
Copy OK

Track 11

Filename D:\_EAC\John Coltrane - The Heavyweight Champion, The Complete Atlantic Recordings (2013) [FLAC] {8122796427}\CD2\11 - I'll Wait And Pray (Alternate Take).wav

Peak level 100.0 %
Extraction speed 10.2 X
Track quality 100.0 %
Test CRC F01E42EC
Copy CRC F01E42EC
Accurately ripped (confidence 14) [606313A9] (AR v2)
Copy OK

Track 12

Filename D:\_EAC\John Coltrane - The Heavyweight Champion, The Complete Atlantic Recordings (2013) [FLAC] {8122796427}\CD2\12 - Little Old Lady.wav

Peak level 96.1 %
Extraction speed 10.7 X
Track quality 100.0 %
Test CRC 800E435C
Copy CRC 800E435C
Accurately ripped (confidence 15) [4BF3D60C] (AR v2)
Copy OK


All tracks accurately ripped

No errors occurred

End of status report

–– CUETools DB Plugin V2.1.6

[CTDB TOCID: S0TCKOfrbBobsqNwphyZUxb_rcI-] found
Submit result: S0TCKOfrbBobsqNwphyZUxb_rcI- has been confirmed
Track | CTDB Status
1 | (112/113) Accurately ripped
2 | (113/113) Accurately ripped
3 | (113/113) Accurately ripped
4 | (112/113) Accurately ripped
5 | (113/113) Accurately ripped
6 | (112/113) Accurately ripped
7 | (113/113) Accurately ripped
8 | (113/113) Accurately ripped
9 | (112/113) Accurately ripped
10 | (113/113) Accurately ripped
11 | (113/113) Accurately ripped
12 | (112/113) Accurately ripped


==== Log checksum 98AEF30955F8E4E7BD1CCB68104A09F539A9888CDC6CBA881869A244BA9DB516 ====
Exact Audio Copy V1.3 from 2. September 2016

EAC extraction logfile from 13. July 2018, 22:13

John Coltrane / The Heavyweight Champion, The Complete Atlantic Recordings (CD3)

Used drive : ATAPI iHAS122 F Adapter: 1 ID: 2

Read mode : Secure
Utilize accurate stream : Yes
Defeat audio cache : Yes
Make use of C2 pointers : No

Read offset correction : 6
Overread into Lead-In and Lead-Out : No
Fill up missing offset samples with silence : Yes
Delete leading and trailing silent blocks : No
Null samples used in CRC calculations : Yes
Used interface : Native Win32 interface for Win NT & 2000
Gap handling : Appended to previous track

Used output format : User Defined Encoder
Selected bitrate : 1024 kBit/s
Quality : High
Add ID3 tag : No
Command line compressor : C:\Program Files (x86)\Exact Audio Copy_v1.3\Flac\flac.exe
Additional command line options : -8 -V -T "ARTIST=%artist%" -T "TITLE=%title%" -T "ALBUM=%albumtitle%" -T "DATE=%year%" -T "TRACKNUMBER=%tracknr%" -T "TOTALTRACKS=%numtracks%" -T "GENRE=%genre%" -T "ALBUMARTIST=%albumartist%" -T "ALBUM ARTIST=%albumartist%" -T "COMMENT=EAC Secure Mode, Test & Copy, AccurateRip, FLAC -8" %source%


TOC of the extracted CD

Track | Start | Length | Start sector | End sector
––––––––––––––––––––––––––––-
1 | 0:00.00 | 5:55.42 | 0 | 26666
2 | 5:55.42 | 4:13.08 | 26667 | 45649
3 | 10:08.50 | 4:52.57 | 45650 | 67606
4 | 15:01.32 | 4:22.68 | 67607 | 87324
5 | 19:24.25 | 5:36.50 | 87325 | 112574
6 | 25:01.00 | 4:41.57 | 112575 | 133706
7 | 29:42.57 | 6:47.18 | 133707 | 164249
8 | 36:30.00 | 7:53.37 | 164250 | 199761
9 | 44:23.37 | 12:13.50 | 199762 | 254786
10 | 56:37.12 | 4:12.65 | 254787 | 273751
11 | 60:50.02 | 5:04.33 | 273752 | 296584


Track 1

Filename D:\_EAC\John Coltrane - The Heavyweight Champion, The Complete Atlantic Recordings (2013) [FLAC] {8122796427}\CD3\01 - Like Sonny.wav

Pre-gap length 0:00:02.00

Peak level 95.0 %
Extraction speed 5.3 X
Track quality 99.9 %
Test CRC A681C6FC
Copy CRC A681C6FC
Accurately ripped (confidence 23) [A09F9FDD] (AR v2)
Copy OK

Track 2

Filename D:\_EAC\John Coltrane - The Heavyweight Champion, The Complete Atlantic Recordings (2013) [FLAC] {8122796427}\CD3\02 - Harmonique.wav

Pre-gap length 0:00:02.55

Peak level 96.8 %
Extraction speed 6.5 X
Track quality 100.0 %
Test CRC 366132EB
Copy CRC 366132EB
Accurately ripped (confidence 23) [E485648A] (AR v2)
Copy OK

Track 3

Filename D:\_EAC\John Coltrane - The Heavyweight Champion, The Complete Atlantic Recordings (2013) [FLAC] {8122796427}\CD3\03 - My Shining Hour.wav

Pre-gap length 0:00:02.58

Peak level 91.1 %
Extraction speed 7.2 X
Track quality 100.0 %
Test CRC F79EEAFB
Copy CRC F79EEAFB
Accurately ripped (confidence 23) [D31A6FB4] (AR v2)
Copy OK

Track 4

Filename D:\_EAC\John Coltrane - The Heavyweight Champion, The Complete Atlantic Recordings (2013) [FLAC] {8122796427}\CD3\04 - Naima.wav

Pre-gap length 0:00:02.57

Peak level 97.7 %
Extraction speed 6.3 X
Track quality 99.9 %
Test CRC 250A8B93
Copy CRC 250A8B93
Accurately ripped (confidence 23) [C3A6FA59] (AR v2)
Copy OK

Track 5

Filename D:\_EAC\John Coltrane - The Heavyweight Champion, The Complete Atlantic Recordings (2013) [FLAC] {8122796427}\CD3\05 - Some Other Blues.wav

Pre-gap length 0:00:02.63

Peak level 95.9 %
Extraction speed 7.1 X
Track quality 99.9 %
Test CRC 020A7D08
Copy CRC 020A7D08
Accurately ripped (confidence 23) [6C528223] (AR v2)
Copy OK

Track 6

Filename D:\_EAC\John Coltrane - The Heavyweight Champion, The Complete Atlantic Recordings (2013) [FLAC] {8122796427}\CD3\06 - Fifth House.wav

Pre-gap length 0:00:02.53

Peak level 98.4 %
Extraction speed 8.5 X
Track quality 100.0 %
Test CRC 102B1328
Copy CRC 102B1328
Accurately ripped (confidence 23) [E15B2EBD] (AR v2)
Copy OK

Track 7

Filename D:\_EAC\John Coltrane - The Heavyweight Champion, The Complete Atlantic Recordings (2013) [FLAC] {8122796427}\CD3\07 - Cherryco.wav

Pre-gap length 0:00:02.55

Peak level 100.0 %
Extraction speed 9.4 X
Track quality 100.0 %
Test CRC A11C7969
Copy CRC A11C7969
Accurately ripped (confidence 23) [8C40093E] (AR v2)
Copy OK

Track 8

Filename D:\_EAC\John Coltrane - The Heavyweight Champion, The Complete Atlantic Recordings (2013) [FLAC] {8122796427}\CD3\08 - The Blessing.wav

Pre-gap length 0:00:02.55

Peak level 97.4 %
Extraction speed 10.2 X
Track quality 100.0 %
Test CRC C8D810F9
Copy CRC C8D810F9
Accurately ripped (confidence 23) [375AB177] (AR v2)
Copy OK

Track 9

Filename D:\_EAC\John Coltrane - The Heavyweight Champion, The Complete Atlantic Recordings (2013) [FLAC] {8122796427}\CD3\09 - Focus On Sanity.wav

Pre-gap length 0:00:02.55

Peak level 100.0 %
Extraction speed 10.6 X
Track quality 100.0 %
Test CRC CF986B59
Copy CRC CF986B59
Accurately ripped (confidence 23) [4EE97514] (AR v2)
Copy OK

Track 10

Filename D:\_EAC\John Coltrane - The Heavyweight Champion, The Complete Atlantic Recordings (2013) [FLAC] {8122796427}\CD3\10 - The Invisible.wav

Pre-gap length 0:00:02.55

Peak level 97.2 %
Extraction speed 10.1 X
Track quality 100.0 %
Test CRC D73D655D
Copy CRC D73D655D
Accurately ripped (confidence 23) [7D6CAA7B] (AR v2)
Copy OK

Track 11

Filename D:\_EAC\John Coltrane - The Heavyweight Champion, The Complete Atlantic Recordings (2013) [FLAC] {8122796427}\CD3\11 - Bemsha Swing.wav

Pre-gap length 0:00:02.57

Peak level 100.0 %
Extraction speed 8.3 X
Track quality 99.9 %
Test CRC FEAD5422
Copy CRC FEAD5422
Accurately ripped (confidence 23) [ACB17E60] (AR v2)
Copy OK


All tracks accurately ripped

No errors occurred

End of status report

–– CUETools DB Plugin V2.1.6

[CTDB TOCID: VP3CvKi9Pw0eSDSUz86WG3UWWfc-] found
Submit result: VP3CvKi9Pw0eSDSUz86WG3UWWfc- has been confirmed
Track | CTDB Status
1 | (84/85) Accurately ripped
2 | (85/85) Accurately ripped
3 | (85/85) Accurately ripped
4 | (84/85) Accurately ripped
5 | (85/85) Accurately ripped
6 | (84/85) Accurately ripped
7 | (84/85) Accurately ripped
8 | (85/85) Accurately ripped
9 | (85/85) Accurately ripped
10 | (85/85) Accurately ripped
11 | (85/85) Accurately ripped


==== Log checksum 204FC30C7CF518B6F99151B611D06BEDE8E244A95CEB01037BAAC1C72E0FEDC0 ====
Exact Audio Copy V1.3 from 2. September 2016

EAC extraction logfile from 13. July 2018, 22:31

John Coltrane / The Heavyweight Champion, The Complete Atlantic Recordings (CD4)

Used drive : ATAPI iHAS122 F Adapter: 1 ID: 2

Read mode : Secure
Utilize accurate stream : Yes
Defeat audio cache : Yes
Make use of C2 pointers : No

Read offset correction : 6
Overread into Lead-In and Lead-Out : No
Fill up missing offset samples with silence : Yes
Delete leading and trailing silent blocks : No
Null samples used in CRC calculations : Yes
Used interface : Native Win32 interface for Win NT & 2000
Gap handling : Appended to previous track

Used output format : User Defined Encoder
Selected bitrate : 1024 kBit/s
Quality : High
Add ID3 tag : No
Command line compressor : C:\Program Files (x86)\Exact Audio Copy_v1.3\Flac\flac.exe
Additional command line options : -8 -V -T "ARTIST=%artist%" -T "TITLE=%title%" -T "ALBUM=%albumtitle%" -T "DATE=%year%" -T "TRACKNUMBER=%tracknr%" -T "TOTALTRACKS=%numtracks%" -T "GENRE=%genre%" -T "ALBUMARTIST=%albumartist%" -T "ALBUM ARTIST=%albumartist%" -T "COMMENT=EAC Secure Mode, Test & Copy, AccurateRip, FLAC -8" %source%


TOC of the extracted CD

Track | Start | Length | Start sector | End sector
––––––––––––––––––––––––––––-
1 | 0:00.00 | 5:23.62 | 0 | 24286
2 | 5:23.62 | 6:17.40 | 24287 | 52601
3 | 11:41.27 | 13:44.15 | 52602 | 114416
4 | 25:25.42 | 4:14.45 | 114417 | 133511
5 | 29:40.12 | 5:22.68 | 133512 | 157729
6 | 35:03.05 | 5:22.42 | 157730 | 181921
7 | 40:25.47 | 11:34.18 | 181922 | 233989
8 | 51:59.65 | 5:38.52 | 233990 | 259391
9 | 57:38.42 | 5:59.38 | 259392 | 286354
10 | 63:38.05 | 7:31.20 | 286355 | 320199


Track 1

Filename D:\_EAC\John Coltrane - The Heavyweight Champion, The Complete Atlantic Recordings (2013) [FLAC] {8122796427}\CD4\01 - Village Blues.wav

Pre-gap length 0:00:02.00

Peak level 100.0 %
Extraction speed 5.9 X
Track quality 100.0 %
Test CRC A6384505
Copy CRC A6384505
Accurately ripped (confidence 23) [051F2D83] (AR v2)
Copy OK

Track 2

Filename D:\_EAC\John Coltrane - The Heavyweight Champion, The Complete Atlantic Recordings (2013) [FLAC] {8122796427}\CD4\02 - Village Blues (Alternate Take).wav

Pre-gap length 0:00:02.55

Peak level 99.9 %
Extraction speed 6.8 X
Track quality 100.0 %
Test CRC C03B7DF3
Copy CRC C03B7DF3
Accurately ripped (confidence 23) [16699340] (AR v2)
Copy OK

Track 3

Filename D:\_EAC\John Coltrane - The Heavyweight Champion, The Complete Atlantic Recordings (2013) [FLAC] {8122796427}\CD4\03 - My Favorite Things.wav

Pre-gap length 0:00:02.52

Peak level 100.0 %
Extraction speed 8.1 X
Track quality 100.0 %
Test CRC CFEDDF21
Copy CRC CFEDDF21
Accurately ripped (confidence 23) [617B9F92] (AR v2)
Copy OK

Track 4

Filename D:\_EAC\John Coltrane - The Heavyweight Champion, The Complete Atlantic Recordings (2013) [FLAC] {8122796427}\CD4\04 - Central Park West.wav

Pre-gap length 0:00:02.60

Peak level 96.1 %
Extraction speed 7.0 X
Track quality 99.9 %
Test CRC 03678642
Copy CRC 03678642
Accurately ripped (confidence 23) [D0D6BB3D] (AR v2)
Copy OK

Track 5

Filename D:\_EAC\John Coltrane - The Heavyweight Champion, The Complete Atlantic Recordings (2013) [FLAC] {8122796427}\CD4\05 - Mr. Syms.wav

Pre-gap length 0:00:02.57

Peak level 100.0 %
Extraction speed 9.1 X
Track quality 100.0 %
Test CRC 661A7136
Copy CRC 661A7136
Accurately ripped (confidence 23) [5DCEA381] (AR v2)
Copy OK

Track 6

Filename D:\_EAC\John Coltrane - The Heavyweight Champion, The Complete Atlantic Recordings (2013) [FLAC] {8122796427}\CD4\06 - Untitled Original (Exotica).wav

Pre-gap length 0:00:02.60

Peak level 96.2 %
Extraction speed 9.5 X
Track quality 100.0 %
Test CRC 5CD14246
Copy CRC 5CD14246
Accurately ripped (confidence 23) [6281B2C1] (AR v2)
Copy OK

Track 7

Filename D:\_EAC\John Coltrane - The Heavyweight Champion, The Complete Atlantic Recordings (2013) [FLAC] {8122796427}\CD4\07 - Summertime.wav

Pre-gap length 0:00:02.60

Peak level 93.3 %
Extraction speed 10.7 X
Track quality 100.0 %
Test CRC 31111E03
Copy CRC 31111E03
Accurately ripped (confidence 23) [36A003E4] (AR v2)
Copy OK

Track 8

Filename D:\_EAC\John Coltrane - The Heavyweight Champion, The Complete Atlantic Recordings (2013) [FLAC] {8122796427}\CD4\08 - Body And Soul.wav

Pre-gap length 0:00:02.58

Peak level 99.9 %
Extraction speed 10.8 X
Track quality 100.0 %
Test CRC F6289288
Copy CRC F6289288
Accurately ripped (confidence 23) [0C794F5C] (AR v2)
Copy OK

Track 9

Filename D:\_EAC\John Coltrane - The Heavyweight Champion, The Complete Atlantic Recordings (2013) [FLAC] {8122796427}\CD4\09 - Body And Soul (Alternate Take).wav

Pre-gap length 0:00:03.02

Peak level 100.0 %
Extraction speed 9.6 X
Track quality 99.9 %
Test CRC 925A4758
Copy CRC 925A4758
Accurately ripped (confidence 23) [CA47E7D0] (AR v2)
Copy OK

Track 10

Filename D:\_EAC\John Coltrane - The Heavyweight Champion, The Complete Atlantic Recordings (2013) [FLAC] {8122796427}\CD4\10 - Mr. Knight.wav

Pre-gap length 0:00:02.53

Peak level 94.5 %
Extraction speed 11.8 X
Track quality 100.0 %
Test CRC 83B114C4
Copy CRC 83B114C4
Accurately ripped (confidence 23) [619C6C6B] (AR v2)
Copy OK


All tracks accurately ripped

No errors occurred

End of status report

–– CUETools DB Plugin V2.1.6

[CTDB TOCID: sqV6KTVFjfVyjA0re8Ua9W.ZoCw-] found
Submit result: sqV6KTVFjfVyjA0re8Ua9W.ZoCw- has been confirmed
Track | CTDB Status
1 | (87/87) Accurately ripped
2 | (87/87) Accurately ripped
3 | (87/87) Accurately ripped
4 | (87/87) Accurately ripped
5 | (87/87) Accurately ripped
6 | (87/87) Accurately ripped
7 | (87/87) Accurately ripped
8 | (87/87) Accurately ripped
9 | (87/87) Accurately ripped
10 | (87/87) Accurately ripped


==== Log checksum 0FD46842A3CEDD5AE9540FE81586F4A7EFD9EDD11457152DA9164F84222B9943 ====
Exact Audio Copy V1.3 from 2. September 2016

EAC extraction logfile from 13. July 2018, 23:26

John Coltrane / The Heavyweight Champion, The Complete Atlantic Recordings (CD5)

Used drive : ATAPI iHAS122 F Adapter: 1 ID: 2

Read mode : Secure
Utilize accurate stream : Yes
Defeat audio cache : Yes
Make use of C2 pointers : No

Read offset correction : 6
Overread into Lead-In and Lead-Out : No
Fill up missing offset samples with silence : Yes
Delete leading and trailing silent blocks : No
Null samples used in CRC calculations : Yes
Used interface : Native Win32 interface for Win NT & 2000
Gap handling : Appended to previous track

Used output format : User Defined Encoder
Selected bitrate : 1024 kBit/s
Quality : High
Add ID3 tag : No
Command line compressor : C:\Program Files (x86)\Exact Audio Copy_v1.3\Flac\flac.exe
Additional command line options : -8 -V -T "ARTIST=%artist%" -T "TITLE=%title%" -T "ALBUM=%albumtitle%" -T "DATE=%year%" -T "TRACKNUMBER=%tracknr%" -T "TOTALTRACKS=%numtracks%" -T "GENRE=%genre%" -T "ALBUMARTIST=%albumartist%" -T "ALBUM ARTIST=%albumartist%" -T "COMMENT=EAC Secure Mode, Test & Copy, AccurateRip, FLAC -8" %source%


TOC of the extracted CD

Track | Start | Length | Start sector | End sector
––––––––––––––––––––––––––––-
1 | 0:00.00 | 11:01.27 | 0 | 49601
2 | 11:01.27 | 7:53.45 | 49602 | 85121
3 | 18:54.72 | 7:56.15 | 85122 | 120836
4 | 26:51.12 | 5:35.25 | 120837 | 145986
5 | 32:26.37 | 6:29.03 | 145987 | 175164
6 | 38:55.40 | 5:46.32 | 175165 | 201146
7 | 44:41.72 | 5:51.30 | 201147 | 227501
8 | 50:33.27 | 5:41.48 | 227502 | 253124
9 | 56:15.00 | 6:13.00 | 253125 | 281099
10 | 62:28.00 | 9:34.50 | 281100 | 324199


Track 1

Filename D:\_EAC\John Coltrane - The Heavyweight Champion, The Complete Atlantic Recordings (2013) [FLAC] {8122796427}\CD5\01 - Blues To Elvin (Alternate Take).wav

Pre-gap length 0:00:02.00

Peak level 95.8 %
Extraction speed 6.2 X
Track quality 99.9 %
Test CRC 454CF675
Copy CRC 454CF675
Accurately ripped (confidence 23) [881D0D43] (AR v2)
Copy OK

Track 2

Filename D:\_EAC\John Coltrane - The Heavyweight Champion, The Complete Atlantic Recordings (2013) [FLAC] {8122796427}\CD5\02 - Blues To Elvin.wav

Pre-gap length 0:00:02.65

Peak level 100.0 %
Extraction speed 7.7 X
Track quality 100.0 %
Test CRC 40EE8FD7
Copy CRC 40EE8FD7
Accurately ripped (confidence 23) [020B1A21] (AR v2)
Copy OK

Track 3

Filename D:\_EAC\John Coltrane - The Heavyweight Champion, The Complete Atlantic Recordings (2013) [FLAC] {8122796427}\CD5\03 - Mr. Day.wav

Pre-gap length 0:00:02.60

Peak level 97.6 %
Extraction speed 8.5 X
Track quality 100.0 %
Test CRC C30A7244
Copy CRC C30A7244
Accurately ripped (confidence 23) [EB38E230] (AR v2)
Copy OK

Track 4

Filename D:\_EAC\John Coltrane - The Heavyweight Champion, The Complete Atlantic Recordings (2013) [FLAC] {8122796427}\CD5\04 - Blues To You (Alternate Take).wav

Pre-gap length 0:00:02.57

Peak level 95.6 %
Extraction speed 7.6 X
Track quality 99.9 %
Test CRC B8D71450
Copy CRC B8D71450
Accurately ripped (confidence 23) [4AA5BAC0] (AR v2)
Copy OK

Track 5

Filename D:\_EAC\John Coltrane - The Heavyweight Champion, The Complete Atlantic Recordings (2013) [FLAC] {8122796427}\CD5\05 - Blues To You.wav

Pre-gap length 0:00:02.57

Peak level 95.3 %
Extraction speed 9.5 X
Track quality 100.0 %
Test CRC 06AC6DD6
Copy CRC 06AC6DD6
Accurately ripped (confidence 23) [744AEF1A] (AR v2)
Copy OK

Track 6

Filename D:\_EAC\John Coltrane - The Heavyweight Champion, The Complete Atlantic Recordings (2013) [FLAC] {8122796427}\CD5\06 - Blues To Bechet.wav

Pre-gap length 0:00:02.58

Peak level 93.6 %
Extraction speed 9.7 X
Track quality 100.0 %
Test CRC 92A35B17
Copy CRC 92A35B17
Accurately ripped (confidence 23) [0D8ABECF] (AR v2)
Copy OK

Track 7

Filename D:\_EAC\John Coltrane - The Heavyweight Champion, The Complete Atlantic Recordings (2013) [FLAC] {8122796427}\CD5\07 - Satellite.wav

Pre-gap length 0:00:02.57

Peak level 96.6 %
Extraction speed 10.3 X
Track quality 100.0 %
Test CRC E706BC78
Copy CRC E706BC78
Accurately ripped (confidence 23) [658CD6E9] (AR v2)
Copy OK

Track 8

Filename D:\_EAC\John Coltrane - The Heavyweight Champion, The Complete Atlantic Recordings (2013) [FLAC] {8122796427}\CD5\08 - Everytime We Say Goodbye.wav

Pre-gap length 0:00:02.60

Peak level 94.5 %
Extraction speed 9.0 X
Track quality 99.9 %
Test CRC ABFED712
Copy CRC ABFED712
Accurately ripped (confidence 23) [FE169568] (AR v2)
Copy OK

Track 9

Filename D:\_EAC\John Coltrane - The Heavyweight Champion, The Complete Atlantic Recordings (2013) [FLAC] {8122796427}\CD5\09 - 26-2.wav

Pre-gap length 0:00:02.60

Peak level 97.7 %
Extraction speed 11.1 X
Track quality 100.0 %
Test CRC 9AE26172
Copy CRC 9AE26172
Accurately ripped (confidence 23) [37DCDF33] (AR v2)
Copy OK

Track 10

Filename D:\_EAC\John Coltrane - The Heavyweight Champion, The Complete Atlantic Recordings (2013) [FLAC] {8122796427}\CD5\10 - But Not For Me.wav

Pre-gap length 0:00:02.58

Peak level 95.2 %
Extraction speed 10.7 X
Track quality 99.9 %
Test CRC 219A31C2
Copy CRC 219A31C2
Accurately ripped (confidence 23) [E286B01C] (AR v2)
Copy OK


All tracks accurately ripped

No errors occurred

End of status report

–– CUETools DB Plugin V2.1.6

[CTDB TOCID: oPs_oJkaS8l0yHFQG8e0EBJ.C2U-] found
Submit result: oPs_oJkaS8l0yHFQG8e0EBJ.C2U- has been confirmed
Track | CTDB Status
1 | (82/83) Accurately ripped
2 | (82/83) Accurately ripped
3 | (82/83) Accurately ripped
4 | (82/83) Accurately ripped
5 | (82/83) Accurately ripped
6 | (82/83) Accurately ripped
7 | (82/83) Accurately ripped
8 | (82/83) Accurately ripped
9 | (81/83) Accurately ripped
10 | (81/83) Accurately ripped


==== Log checksum 786215E35F6BA4BA3DD283E93841C9C4614FD302FF8D94E80C52A9EEBAB7C127 ====
Exact Audio Copy V1.3 from 2. September 2016

EAC extraction logfile from 13. July 2018, 23:49

John Coltrane / The Heavyweight Champion, The Complete Atlantic Recordings (CD6)

Used drive : ATAPI iHAS122 F Adapter: 1 ID: 2

Read mode : Secure
Utilize accurate stream : Yes
Defeat audio cache : Yes
Make use of C2 pointers : No

Read offset correction : 6
Overread into Lead-In and Lead-Out : No
Fill up missing offset samples with silence : Yes
Delete leading and trailing silent blocks : No
Null samples used in CRC calculations : Yes
Used interface : Native Win32 interface for Win NT & 2000
Gap handling : Appended to previous track

Used output format : User Defined Encoder
Selected bitrate : 1024 kBit/s
Quality : High
Add ID3 tag : No
Command line compressor : C:\Program Files (x86)\Exact Audio Copy_v1.3\Flac\flac.exe
Additional command line options : -8 -V -T "ARTIST=%artist%" -T "TITLE=%title%" -T "ALBUM=%albumtitle%" -T "DATE=%year%" -T "TRACKNUMBER=%tracknr%" -T "TOTALTRACKS=%numtracks%" -T "GENRE=%genre%" -T "ALBUMARTIST=%albumartist%" -T "ALBUM ARTIST=%albumartist%" -T "COMMENT=EAC Secure Mode, Test & Copy, AccurateRip, FLAC -8" %source%


TOC of the extracted CD

Track | Start | Length | Start sector | End sector
––––––––––––––––––––––––––––-
1 | 0:00.00 | 6:52.07 | 0 | 30906
2 | 6:52.07 | 6:51.25 | 30907 | 61756
3 | 13:43.32 | 8:35.08 | 61757 | 100389
4 | 22:18.40 | 18:15.45 | 100390 | 182559
5 | 40:34.10 | 10:52.32 | 182560 | 231491
6 | 51:26.42 | 7:39.30 | 231492 | 265946
7 | 59:05.72 | 8:58.63 | 265947 | 306359


Track 1

Filename D:\_EAC\John Coltrane - The Heavyweight Champion, The Complete Atlantic Recordings (2013) [FLAC] {8122796427}\CD6\01 - Liberia.wav

Pre-gap length 0:00:02.00

Peak level 93.9 %
Extraction speed 6.3 X
Track quality 100.0 %
Test CRC B2706218
Copy CRC B2706218
Accurately ripped (confidence 23) [41240D60] (AR v2)
Copy OK

Track 2

Filename D:\_EAC\John Coltrane - The Heavyweight Champion, The Complete Atlantic Recordings (2013) [FLAC] {8122796427}\CD6\02 - The Night Has A Thousand Eyes.wav

Pre-gap length 0:00:02.57

Peak level 94.1 %
Extraction speed 6.4 X
Track quality 99.9 %
Test CRC 6DF9C14C
Copy CRC 6DF9C14C
Accurately ripped (confidence 23) [7247BD47] (AR v2)
Copy OK

Track 3

Filename D:\_EAC\John Coltrane - The Heavyweight Champion, The Complete Atlantic Recordings (2013) [FLAC] {8122796427}\CD6\03 - Equinox.wav

Pre-gap length 0:00:02.62

Peak level 96.0 %
Extraction speed 8.2 X
Track quality 100.0 %
Test CRC AFB83676
Copy CRC AFB83676
Accurately ripped (confidence 23) [89D77D07] (AR v2)
Copy OK

Track 4

Filename D:\_EAC\John Coltrane - The Heavyweight Champion, The Complete Atlantic Recordings (2013) [FLAC] {8122796427}\CD6\04 - Ole.wav

Pre-gap length 0:00:02.57

Peak level 100.0 %
Extraction speed 8.7 X
Track quality 99.9 %
Test CRC DBCA0A2B
Copy CRC DBCA0A2B
Accurately ripped (confidence 23) [D994AEF7] (AR v2)
Copy OK

Track 5

Filename D:\_EAC\John Coltrane - The Heavyweight Champion, The Complete Atlantic Recordings (2013) [FLAC] {8122796427}\CD6\05 - Dahomey Dance.wav

Pre-gap length 0:00:02.54

Peak level 99.3 %
Extraction speed 10.6 X
Track quality 100.0 %
Test CRC DA163003
Copy CRC DA163003
Accurately ripped (confidence 23) [603B8018] (AR v2)
Copy OK

Track 6

Filename D:\_EAC\John Coltrane - The Heavyweight Champion, The Complete Atlantic Recordings (2013) [FLAC] {8122796427}\CD6\06 - Aisha.wav

Pre-gap length 0:00:02.55

Peak level 94.5 %
Extraction speed 8.3 X
Track quality 100.0 %
Test CRC 93D1DC95
Copy CRC 93D1DC95
Accurately ripped (confidence 23) [29737C22] (AR v2)
Copy OK

Track 7

Filename D:\_EAC\John Coltrane - The Heavyweight Champion, The Complete Atlantic Recordings (2013) [FLAC] {8122796427}\CD6\07 - Original Untitled Ballad (To Her Ladyship).wav

Pre-gap length 0:00:02.57

Peak level 100.0 %
Extraction speed 9.8 X
Track quality 99.9 %
Test CRC 1B77947D
Copy CRC 1B77947D
Accurately ripped (confidence 22) [D448293C] (AR v2)
Copy OK


All tracks accurately ripped

No errors occurred

End of status report

–– CUETools DB Plugin V2.1.6

[CTDB TOCID: i7JoAbQdEoXc_nmTcEif8BxVB_o-] found
Submit result: i7JoAbQdEoXc_nmTcEif8BxVB_o- has been confirmed
Track | CTDB Status
1 | (86/86) Accurately ripped
2 | (86/86) Accurately ripped
3 | (86/86) Accurately ripped
4 | (86/86) Accurately ripped
5 | (86/86) Accurately ripped
6 | (86/86) Accurately ripped
7 | (85/86) Accurately ripped


==== Log checksum 8497788D426CA7720C9E84069007820C0F3FACC7FA67999AF944DD1B1D619F8C ====
Exact Audio Copy V1.3 from 2. September 2016

EAC extraction logfile from 14. July 2018, 0:12

John Coltrane / The Heavyweight Champion, The Complete Atlantic Recordings (CD7)

Used drive : ATAPI iHAS122 F Adapter: 1 ID: 2

Read mode : Secure
Utilize accurate stream : Yes
Defeat audio cache : Yes
Make use of C2 pointers : No

Read offset correction : 6
Overread into Lead-In and Lead-Out : No
Fill up missing offset samples with silence : Yes
Delete leading and trailing silent blocks : No
Null samples used in CRC calculations : Yes
Used interface : Native Win32 interface for Win NT & 2000
Gap handling : Appended to previous track

Used output format : User Defined Encoder
Selected bitrate : 1024 kBit/s
Quality : High
Add ID3 tag : No
Command line compressor : C:\Program Files (x86)\Exact Audio Copy_v1.3\Flac\flac.exe
Additional command line options : -8 -V -T "ARTIST=%artist%" -T "TITLE=%title%" -T "ALBUM=%albumtitle%" -T "DATE=%year%" -T "TRACKNUMBER=%tracknr%" -T "TOTALTRACKS=%numtracks%" -T "GENRE=%genre%" -T "ALBUMARTIST=%albumartist%" -T "ALBUM ARTIST=%albumartist%" -T "COMMENT=EAC Secure Mode, Test & Copy, AccurateRip, FLAC -8" %source%


TOC of the extracted CD

Track | Start | Length | Start sector | End sector
––––––––––––––––––––––––––––-
1 | 0:00.00 | 4:44.55 | 0 | 21354
2 | 4:44.55 | 0:14.02 | 21355 | 22406
3 | 4:58.57 | 2:51.25 | 22407 | 35256
4 | 7:50.07 | 1:19.63 | 35257 | 41244
5 | 9:09.70 | 3:40.32 | 41245 | 57776
6 | 12:50.27 | 0:32.18 | 57777 | 60194
7 | 13:22.45 | 4:12.50 | 60195 | 79144
8 | 17:35.20 | 3:20.00 | 79145 | 94144
9 | 20:55.20 | 3:24.02 | 94145 | 109446
10 | 24:19.22 | 0:15.65 | 109447 | 110636
11 | 24:35.12 | 3:50.58 | 110637 | 127944
12 | 28:25.70 | 3:38.10 | 127945 | 144304
13 | 32:04.05 | 0:09.30 | 144305 | 145009
14 | 32:13.35 | 1:32.65 | 145010 | 151974
15 | 33:46.25 | 0:20.12 | 151975 | 153486
16 | 34:06.37 | 3:09.50 | 153487 | 167711
17 | 37:16.12 | 1:08.25 | 167712 | 172836
18 | 38:24.37 | 0:07.63 | 172837 | 173424
19 | 38:32.25 | 8:24.50 | 173425 | 211274
20 | 46:57.00 | 1:09.32 | 211275 | 216481
21 | 48:06.32 | 4:06.23 | 216482 | 234954
22 | 52:12.55 | 4:54.67 | 234955 | 257071
23 | 57:07.47 | 0:10.23 | 257072 | 257844
24 | 57:17.70 | 6:02.30 | 257845 | 285024
25 | 63:20.25 | 5:30.40 | 285025 | 309814


Track 1

Filename D:\_EAC\John Coltrane - The Heavyweight Champion, The Complete Atlantic Recordings (2013) [FLAC] {8122796427}\CD7\01 - Giant Steps - Take 1 [Incomplete].wav

Pre-gap length 0:00:02.00

Peak level 100.0 %
Extraction speed 5.8 X
Track quality 100.0 %
Test CRC 5104F3B8
Copy CRC 5104F3B8
Accurately ripped (confidence 22) [5167238B] (AR v2)
Copy OK

Track 2

Filename D:\_EAC\John Coltrane - The Heavyweight Champion, The Complete Atlantic Recordings (2013) [FLAC] {8122796427}\CD7\02 - Giant Steps - Take 2 [False Start].wav

Pre-gap length 0:00:16.50

Peak level 84.5 %
Extraction speed 1.8 X
Track quality 100.0 %
Test CRC C3025B82
Copy CRC C3025B82
Accurately ripped (confidence 22) [C65247F1] (AR v2)
Copy OK

Track 3

Filename D:\_EAC\John Coltrane - The Heavyweight Champion, The Complete Atlantic Recordings (2013) [FLAC] {8122796427}\CD7\03 - Giant Steps - Take 3 [Incomplete].wav

Pre-gap length 0:00:07.05

Peak level 97.4 %
Extraction speed 4.6 X
Track quality 99.9 %
Test CRC B6104426
Copy CRC B6104426
Accurately ripped (confidence 22) [65042F3D] (AR v2)
Copy OK

Track 4

Filename D:\_EAC\John Coltrane - The Heavyweight Champion, The Complete Atlantic Recordings (2013) [FLAC] {8122796427}\CD7\04 - Giant Steps - Take 4 [Incomplete].wav

Pre-gap length 0:00:17.12

Peak level 91.9 %
Extraction speed 5.2 X
Track quality 100.0 %
Test CRC FB5902E5
Copy CRC FB5902E5
Accurately ripped (confidence 22) [1A1D076A] (AR v2)
Copy OK

Track 5

Filename D:\_EAC\John Coltrane - The Heavyweight Champion, The Complete Atlantic Recordings (2013) [FLAC] {8122796427}\CD7\05 - Giant Steps - Take 5 [Alternate].wav

Pre-gap length 0:00:12.08

Peak level 95.9 %
Extraction speed 5.4 X
Track quality 99.9 %
Test CRC D07364F6
Copy CRC D07364F6
Accurately ripped (confidence 22) [3E2E4B30] (AR v2)
Copy OK

Track 6

Filename D:\_EAC\John Coltrane - The Heavyweight Champion, The Complete Atlantic Recordings (2013) [FLAC] {8122796427}\CD7\06 - Giant Steps - Take 6 [False Start].wav

Pre-gap length 0:00:13.55

Peak level 86.6 %
Extraction speed 3.7 X
Track quality 100.0 %
Test CRC 6A421E23
Copy CRC 6A421E23
Accurately ripped (confidence 22) [63CCD870] (AR v2)
Copy OK

Track 7

Filename D:\_EAC\John Coltrane - The Heavyweight Champion, The Complete Atlantic Recordings (2013) [FLAC] {8122796427}\CD7\07 - Giant Steps - Take 7 [Incomplete].wav

Pre-gap length 0:00:14.00

Peak level 93.5 %
Extraction speed 6.0 X
Track quality 99.9 %
Test CRC FB4C3FB4
Copy CRC FB4C3FB4
Accurately ripped (confidence 22) [4E34ACC9] (AR v2)
Copy OK

Track 8

Filename D:\_EAC\John Coltrane - The Heavyweight Champion, The Complete Atlantic Recordings (2013) [FLAC] {8122796427}\CD7\08 - Naima - Take 1 [Incomplete].wav

Pre-gap length 0:00:20.58

Peak level 78.8 %
Extraction speed 7.4 X
Track quality 100.0 %
Test CRC 0F3AE158
Copy CRC 0F3AE158
Accurately ripped (confidence 22) [F8338203] (AR v2)
Copy OK

Track 9

Filename D:\_EAC\John Coltrane - The Heavyweight Champion, The Complete Atlantic Recordings (2013) [FLAC] {8122796427}\CD7\09 - Naima - Take 2 [Incomplete].wav

Pre-gap length 0:00:11.40

Peak level 77.5 %
Extraction speed 7.9 X
Track quality 100.0 %
Test CRC 5A2812B0
Copy CRC 5A2812B0
Accurately ripped (confidence 22) [AE5FB6CD] (AR v2)
Copy OK

Track 10

Filename D:\_EAC\John Coltrane - The Heavyweight Champion, The Complete Atlantic Recordings (2013) [FLAC] {8122796427}\CD7\10 - Naima - Take 4 [False Start].wav

Pre-gap length 0:00:16.62

Peak level 56.8 %
Extraction speed 2.8 X
Track quality 100.0 %
Test CRC 7A5F3E88
Copy CRC 7A5F3E88
Accurately ripped (confidence 22) [50EB0A94] (AR v2)
Copy OK

Track 11

Filename D:\_EAC\John Coltrane - The Heavyweight Champion, The Complete Atlantic Recordings (2013) [FLAC] {8122796427}\CD7\11 - Naima - Take 5 [Alternate].wav

Pre-gap length 0:00:04.25

Peak level 95.3 %
Extraction speed 8.3 X
Track quality 100.0 %
Test CRC E533A642
Copy CRC E533A642
Accurately ripped (confidence 22) [F1438EBC] (AR v2)
Copy OK

Track 12

Filename D:\_EAC\John Coltrane - The Heavyweight Champion, The Complete Atlantic Recordings (2013) [FLAC] {8122796427}\CD7\12 - Naima - Take 6 [Alternate].wav

Pre-gap length 0:00:29.59

Peak level 95.6 %
Extraction speed 6.9 X
Track quality 99.9 %
Test CRC 5E8B9C61
Copy CRC 5E8B9C61
Accurately ripped (confidence 22) [0D57414C] (AR v2)
Copy OK

Track 13

Filename D:\_EAC\John Coltrane - The Heavyweight Champion, The Complete Atlantic Recordings (2013) [FLAC] {8122796427}\CD7\13 - Like Sonny - Rehearsal 1 [False Start].wav

Pre-gap length 0:00:24.28

Peak level 47.3 %
Extraction speed 2.0 X
Track quality 100.0 %
Test CRC 2550D7AF
Copy CRC 2550D7AF
Accurately ripped (confidence 22) [7BB2BFDE] (AR v2)
Copy OK

Track 14

Filename D:\_EAC\John Coltrane - The Heavyweight Champion, The Complete Atlantic Recordings (2013) [FLAC] {8122796427}\CD7\14 - Like Sonny - Rehearsal 2 [Incomplete].wav

Pre-gap length 0:00:03.05

Peak level 84.1 %
Extraction speed 7.3 X
Track quality 100.0 %
Test CRC E66A5C3C
Copy CRC E66A5C3C
Accurately ripped (confidence 22) [75769BBE] (AR v2)
Copy OK

Track 15

Filename D:\_EAC\John Coltrane - The Heavyweight Champion, The Complete Atlantic Recordings (2013) [FLAC] {8122796427}\CD7\15 - Like Sonny - Take 1 [False Start].wav

Pre-gap length 0:00:13.18

Peak level 33.5 %
Extraction speed 3.7 X
Track quality 100.0 %
Test CRC 2534E105
Copy CRC 2534E105
Accurately ripped (confidence 22) [575059D2] (AR v2)
Copy OK

Track 16

Filename D:\_EAC\John Coltrane - The Heavyweight Champion, The Complete Atlantic Recordings (2013) [FLAC] {8122796427}\CD7\16 - Like Sonny - Take 2 [Incomplete].wav

Pre-gap length 0:00:13.15

Peak level 91.5 %
Extraction speed 8.7 X
Track quality 100.0 %
Test CRC 80CFAA74
Copy CRC 80CFAA74
Accurately ripped (confidence 22) [315FFE23] (AR v2)
Copy OK

Track 17

Filename D:\_EAC\John Coltrane - The Heavyweight Champion, The Complete Atlantic Recordings (2013) [FLAC] {8122796427}\CD7\17 - Like Sonny - Take 3 [Incomplete].wav

Pre-gap length 0:00:15.72

Peak level 70.3 %
Extraction speed 6.7 X
Track quality 100.0 %
Test CRC 01E4EE34
Copy CRC 01E4EE34
Accurately ripped (confidence 22) [E8AF0EBD] (AR v2)
Copy OK

Track 18

Filename D:\_EAC\John Coltrane - The Heavyweight Champion, The Complete Atlantic Recordings (2013) [FLAC] {8122796427}\CD7\18 - Like Sonny - Take 4 [False Start].wav

Pre-gap length 0:00:12.52

Peak level 51.9 %
Extraction speed 1.8 X
Track quality 100.0 %
Test CRC 942F6ACE
Copy CRC 942F6ACE
Accurately ripped (confidence 22) [1A8599E6] (AR v2)
Copy OK

Track 19

Filename D:\_EAC\John Coltrane - The Heavyweight Champion, The Complete Atlantic Recordings (2013) [FLAC] {8122796427}\CD7\19 - Like Sonny - Take 5 [Alternate].wav

Pre-gap length 0:00:03.63

Peak level 94.6 %
Extraction speed 10.2 X
Track quality 100.0 %
Test CRC 85DA2D8A
Copy CRC 85DA2D8A
Accurately ripped (confidence 22) [F1297FA7] (AR v2)
Copy OK

Track 20

Filename D:\_EAC\John Coltrane - The Heavyweight Champion, The Complete Atlantic Recordings (2013) [FLAC] {8122796427}\CD7\20 - Like Sonny - Take 6 [Incomplete].wav

Pre-gap length 0:00:14.05

Peak level 56.8 %
Extraction speed 7.4 X
Track quality 100.0 %
Test CRC 2D08244E
Copy CRC 2D08244E
Accurately ripped (confidence 22) [936AEA42] (AR v2)
Copy OK

Track 21

Filename D:\_EAC\John Coltrane - The Heavyweight Champion, The Complete Atlantic Recordings (2013) [FLAC] {8122796427}\CD7\21 - Giant Steps - Take 3 [Incomplete].wav

Pre-gap length 0:00:06.47

Peak level 100.0 %
Extraction speed 8.1 X
Track quality 99.9 %
Test CRC 5E1DCC07
Copy CRC 5E1DCC07
Accurately ripped (confidence 22) [BBD5B0C2] (AR v2)
Copy OK

Track 22

Filename D:\_EAC\John Coltrane - The Heavyweight Champion, The Complete Atlantic Recordings (2013) [FLAC] {8122796427}\CD7\22 - Giant Steps - Take 6 [Alternate].wav

Pre-gap length 0:00:10.25

Peak level 90.0 %
Extraction speed 10.6 X
Track quality 100.0 %
Test CRC 0E9A306A
Copy CRC 0E9A306A
Accurately ripped (confidence 22) [7288E08D] (AR v2)
Copy OK

Track 23

Filename D:\_EAC\John Coltrane - The Heavyweight Champion, The Complete Atlantic Recordings (2013) [FLAC] {8122796427}\CD7\23 - Blues To Elvin - Take 2 [False Start].wav

Pre-gap length 0:00:05.22

Peak level 38.5 %
Extraction speed 1.1 X
Track quality 98.9 %
Test CRC 7BB90B2D
Copy CRC 7BB90B2D
Accurately ripped (confidence 21) [7D632CE8] (AR v2)
Copy OK

Track 24

Filename D:\_EAC\John Coltrane - The Heavyweight Champion, The Complete Atlantic Recordings (2013) [FLAC] {8122796427}\CD7\24 - Blues To Elvin - Take 3 [Alternate].wav

Pre-gap length 0:00:04.13

Peak level 95.4 %
Extraction speed 11.1 X
Track quality 100.0 %
Test CRC F19D2630
Copy CRC F19D2630
Accurately ripped (confidence 22) [0337BAC6] (AR v2)
Copy OK

Track 25

Filename D:\_EAC\John Coltrane - The Heavyweight Champion, The Complete Atlantic Recordings (2013) [FLAC] {8122796427}\CD7\25 - Blues To You - Take 2 [Alternate].wav

Pre-gap length 0:00:11.10

Peak level 91.0 %
Extraction speed 11.2 X
Track quality 100.0 %
Test CRC EABCAD79
Copy CRC EABCAD79
Accurately ripped (confidence 22) [7EB45CE6] (AR v2)
Copy OK


All tracks accurately ripped

No errors occurred

End of status report

–– CUETools DB Plugin V2.1.6

[CTDB TOCID: PPcVEEdaadm.cPbbZ9LzFO2UfEg-] found
Submit result: PPcVEEdaadm.cPbbZ9LzFO2UfEg- has been confirmed
Track | CTDB Status
1 | (80/81) Accurately ripped
2 | (80/81) Accurately ripped
3 | (80/81) Accurately ripped
4 | (80/81) Accurately ripped
5 | (80/81) Accurately ripped
6 | (80/81) Accurately ripped
7 | (80/81) Accurately ripped
8 | (80/81) Accurately ripped
9 | (80/81) Accurately ripped
10 | (80/81) Accurately ripped
11 | (80/81) Accurately ripped
12 | (80/81) Accurately ripped
13 | (80/81) Accurately ripped
14 | (80/81) Accurately ripped
15 | (80/81) Accurately ripped
16 | (80/81) Accurately ripped
17 | (80/81) Accurately ripped
18 | (80/81) Accurately ripped
19 | (80/81) Accurately ripped
20 | (80/81) Accurately ripped
21 | (80/81) Accurately ripped
22 | (79/81) Accurately ripped
23 | (80/81) Accurately ripped
24 | (80/81) Accurately ripped
25 | (80/81) Accurately ripped


==== Log checksum 436F803E0A7FE84573C8B3E35408AD4DC2745AE2BC12E9D64A1EE340C7181587 ====


John Coltrane - The Heavyweight Champion: The Complete Atlantic Recordings {7CD Box Set Reissue 2013}

John Coltrane - The Heavyweight Champion: The Complete Atlantic Recordings {7CD Box Set Reissue 2013}

John Coltrane - The Heavyweight Champion: The Complete Atlantic Recordings {7CD Box Set Reissue 2013}

John Coltrane - The Heavyweight Champion: The Complete Atlantic Recordings {7CD Box Set Reissue 2013}



===