Subcategories

Davy Spillane - Atlantic Bridge (1986)

Posted By: intothe
Davy Spillane - Atlantic Bridge (1986)

Davy Spillane - Atlantic Bridge (1986)
Celtic | EAC rip (FLAC+CUE+LOG) | 262 MB | full scans
Tara | 43:43 | RAR with 5% recovery


EAC extraction logfile from 3. May 2009, 7:39

Davy Spillane / Atlantic Bridge

Used drive : _NEC DVD_RW ND-3500AG Adapter: 0 ID: 0

Read mode : Secure
Utilize accurate stream : Yes
Defeat audio cache : Yes
Make use of C2 pointers : No

Read offset correction : 48
Overread into Lead-In and Lead-Out : No
Fill up missing offset samples with silence : Yes
Delete leading and trailing silent blocks : No
Null samples used in CRC calculations : Yes
Used interface : Native Win32 interface for Win NT & 2000

Used output format : User Defined Encoder
Selected bitrate : 768 kBit/s
Quality : High
Add ID3 tag : No
Command line compressor : C:\Program Files\Exact Audio Copy\FLAC\FLAC.EXE
Additional command line options : -6 -V -T "ARTIST=%a" -T "TITLE=%t" -T "ALBUM=%g" -T "DATE=%y" -T "TRACKNUMBER=%n" -T "GENRE=%m" -T "COMMENT=%e" %s -o %d


TOC of the extracted CD

Track | Start | Length | Start sector | End sector
––––––––––––––––––––––––––––-
1 | 0:00.57 | 3:36.28 | 57 | 16284
2 | 3:37.10 | 5:22.47 | 16285 | 40481
3 | 8:59.57 | 3:34.53 | 40482 | 56584
4 | 12:34.35 | 3:06.10 | 56585 | 70544
5 | 15:40.45 | 5:51.55 | 70545 | 96924
6 | 21:32.25 | 7:41.40 | 96925 | 131539
7 | 29:13.65 | 2:58.22 | 131540 | 144911
8 | 32:12.12 | 2:43.55 | 144912 | 157191
9 | 34:55.67 | 2:45.70 | 157192 | 169636
10 | 37:41.62 | 5:49.70 | 169637 | 195881
11 | 43:31.57 | 0:12.43 | 195882 | 196824


Range status and errors

Selected range

Filename J:\eMusic\Rip\Davy Spillane - Atlantic Bridge.wav

Copy aborted

End of status report

––––––––––––––––––––––––––––––

Exact Audio Copy V0.99 prebeta 4 from 23. January 2008

EAC extraction logfile from 3. May 2009, 7:54

Davy Spillane / Atlantic Bridge

Used drive : _NEC DVD_RW ND-3500AG Adapter: 0 ID: 0

Read mode : Secure
Utilize accurate stream : Yes
Defeat audio cache : Yes
Make use of C2 pointers : No

Read offset correction : 48
Overread into Lead-In and Lead-Out : No
Fill up missing offset samples with silence : Yes
Delete leading and trailing silent blocks : No
Null samples used in CRC calculations : Yes
Used interface : Native Win32 interface for Win NT & 2000

Used output format : User Defined Encoder
Selected bitrate : 768 kBit/s
Quality : High
Add ID3 tag : No
Command line compressor : C:\Program Files\Exact Audio Copy\FLAC\FLAC.EXE
Additional command line options : -6 -V -T "ARTIST=%a" -T "TITLE=%t" -T "ALBUM=%g" -T "DATE=%y" -T "TRACKNUMBER=%n" -T "GENRE=%m" -T "COMMENT=%e" %s -o %d


TOC of the extracted CD

Track | Start | Length | Start sector | End sector
––––––––––––––––––––––––––––-
1 | 0:00.57 | 3:36.28 | 57 | 16284
2 | 3:37.10 | 5:22.47 | 16285 | 40481
3 | 8:59.57 | 3:34.53 | 40482 | 56584
4 | 12:34.35 | 3:06.10 | 56585 | 70544
5 | 15:40.45 | 5:51.55 | 70545 | 96924
6 | 21:32.25 | 7:41.40 | 96925 | 131539
7 | 29:13.65 | 2:58.22 | 131540 | 144911
8 | 32:12.12 | 2:43.55 | 144912 | 157191
9 | 34:55.67 | 2:45.70 | 157192 | 169636
10 | 37:41.62 | 5:49.70 | 169637 | 195881
11 | 43:31.57 | 0:12.43 | 195882 | 196824


Range status and errors

Selected range

Filename J:\eMusic\Rip\Davy Spillane - Atlantic Bridge.wav

Peak level 99.9 %
Range quality 100.0 %
Copy CRC 49934B27
Copy OK

No errors occurred


AccurateRip summary

Track 1 accurately ripped (confidence 2) [21B54000]
Track 2 accurately ripped (confidence 2) [89842E83]
Track 3 accurately ripped (confidence 2) [F5570919]
Track 4 accurately ripped (confidence 2) [D532D1DA]
Track 5 accurately ripped (confidence 2) [6E95090B]
Track 6 accurately ripped (confidence 2) [CD995199]
Track 7 accurately ripped (confidence 2) [96052D58]
Track 8 accurately ripped (confidence 2) [CF9BC22B]
Track 9 accurately ripped (confidence 2) [34091620]
Track 10 accurately ripped (confidence 2) [1B91C381]
Track 11 accurately ripped (confidence 2) [2690201B]

All tracks accurately ripped

End of status report


Shortly after Moving Hearts disbanded, Spillane recorded his debut solo album, Atlantic Bridge. Joined by American musicians including Bela Fleck, Jerry Douglas and Albert Lee, Spillane used the album to focus on the connections between Celtic music and bluegrass. -by Craig Harris, AMG

Tracks:
1. Davy's Reels (Davy Spillane) 3:36
2. Atlantic Bridge (Davy Spillane) 5:22
3. Daire's Dream (Davy Spillane) 3:34
4. Tribute To Johnny Doran (Traditional/arr. Davy Spillane) 3:06
5. O'Neill's Statement (Eoghan O'Neill) 5:51
6. By The River Of Gems (Traditional/arr. Davy Spillane/Eoghan O'Neill/P.J. Curtis) 7:41
7. Sliverish (Bela Fleck) 2:58
8. The Pigeon On The Gate (Davy Spillane/Eoghan O'Neill) 2:43
9. In My Life (John Lennon/Paul McCartney) 2:45
10. Landsdowne Blues (Davy Spillane/Albert Lee/Greg Boland/Eoghan O'Neill) 5:49
11. Davy's Surprise Guitar (Davy Spillane) 0:12

Personnel:
Davy Spillane (Uilleann Pipes, Low Whistles, Hammered Dulcimer and Guitar)
Albert Lee (Guitar and Piano) - 1,5,8-10
Bela Fleck (Banjo and Acoustic Guitar) - 2,3,6,7
Jerry Douglas (Dobro) - 2,3,6,7
Greg Boland (Guitar) - 1,3,5,8-10
Eoghan O'Neill (Bass Guitar, Acoutic Guitar and Backing Vocals) - 1-3,5-10
Christy Moore (Bodhran) - 1,2,5,8
Noel Eccles (Percussion) - 1-3,5,6,8,9
John Donnelly (Drums) - 1,5,8,10

Dlink