Tags
Language
Tags

Deafheaven - Ordinary Corrupt Human Love (2018)

Posted By: delpotro
Deafheaven - Ordinary Corrupt Human Love (2018)

Deafheaven - Ordinary Corrupt Human Love (2018)
XLD Rip | FLAC (tracks+log+.cue) - 433 Mb | MP3 CBR 320 kbps - 151 Mb | Scans included | 01:01:39
Post-Black Metal, Post-Rock, Shoegaze | Label: ANTI‐

The most extreme thing about Deafheaven’s remarkable fourth album is how subdued it sounds. It suggests devastation without placing you at the center of it.

Deafheaven’s music is not made for the everyday. No two of their four records sound quite alike, but their mood is immediately identifiable. It’s a place where serious subjects—love and loss, emotional apocalypse, existence—are amplified like sunlight through a magnifying glass. They make a kaleidoscope out of heavy music’s most introspective corners: The tortured shrieks and blast beats of black metal ripple through shoegaze’s immersive guitar tones, all building with the skyward patience of starry-eyed post-rock. You don’t put these records on casually.

Given their penchant for grand gestures, the most extreme thing about Ordinary Corrupt Human Love is how subdued it sounds. It’s the first release from the Los Angeles-based quintet that feels more like a collection of songs than one unbroken piece, and it exposes shades of their work that have primarily been kept to the peripheries. The slow, dramatic opener “You Without End” blooms from muted piano and slide guitar, instruments that lend a mournful touch to their typically explosive melodies. Other songs incorporate clean singing in contrast to vocalist George Clarke’s characteristic howl. “Night People,” with lead vocals from goth-folk singer-songwriter Chelsea Wolfe and multi-instrumentalist Ben Chisholm, is their most spectral and fragile recording to date. This music suggests devastation without placing you at the center of it.

Over the past few years, Deafheaven have discussed hitting various personal lows in the wake of 2015’s restless and intense New Bermuda, citing depression, creative fatigue, and substance abuse. Bassist Stephen Clark quit the band once the tour was over. Guitarist Kerry McCoy got sober. Taking a more metaphorical refuge, Clarke became interested in candid photography, collaborating with artist Nick Steinhardt to create stark portraits like Sean Stout’s photograph that graces Human Love’s cover. “I told him I didn’t want anything extraordinary,” he explained about the collaborative visual project. “Just people in their everyday routine.”

This shift in perspective, from the vast to the ordinary, is the point. On Human Love, Deafheaven tell unglamorous stories, examining intimate scenes that go down when no one is watching. “I’m reluctant to stay sad” goes an early lyric, and the record follows suit, as dark moods roll by like faraway clouds. Clarke’s piercing voice continues to evoke the highest reaches of human pain, yet he’s grown more adept at exposing subtler melancholy. In the surging, dreamlike “Honeycomb,” he writes like a goth beat poet surveying the city: Words like “geese,” “mariachi,” and “Cortázar” have never been sung with such brutality.

The band matches Clarke in all his passing visions. They’ve become as expressive in their slowcore balladry (“Near”) as their more bracing epics (the duel-guitar-laden second half of “Worthless Animal”). Their best songs, like centerpiece “Canary Yellow,” explore all these various modes in ragged, epiphanic cycles. While peers like Sannhet have grown more airtight with each new album, Deafheaven still love letting their seams show: Drop the needle at any point on Human Love, and you might hear a completely different band—one aiming for arenas, or mosh pits, or the soundtrack of a climactic makeout scene in a prestige television show. Five years removed from their landmark Sunbather, Deafheaven have never seemed less interested in being fashionable—as a result, they sound newly content.

In its hour-long runtime, Human Love unfolds as an even-handed showing of Deafheaven’s strengths. Like Sunbather and New Bermuda, it’s marked by fleeting moments of sheer beauty. Many of these arrive thanks to McCoy’s guitar playing, a direct and intuitive line of communication that complements Clarke’s illegible emotion. Some of his best riffs are scattered throughout “Glint,” a song that evolves magnificently as Clarke intertwines visions of marital bliss with fantasies of self-destruction. It’s an instant addition to their canon of showstoppers, walking the tightrope of extreme music and radio-friendly ’90s alt-rock without sinking into the cheesy, histrionic center of that Venn diagram. That they sound less interested in risking that fate only makes their successes feel more triumphant.

There have always been two ways to hear Deafheaven’s music. There’s the micro approach, which involves dissecting the band’s influences and navigating their records like a mixtape without a tracklist. (What’s that familiar melody? What emotion are they trying to express? What genre is this?) On Human Love, they recall the atmospheres of a wide variety of bands without explicitly copping their styles: Touchstones like Slowdive, the Smashing Pumpkins, and the Smiths are all suggested at various points within this music. Like watching a magic show backstage, looking for these references can draw admiration as much as disillusionment at how it all comes together.

The other angle to admire Deafheaven is more macro—which particularly benefits this album—as you stand back and surrender to the squall. Human Love is Deafheaven’s subtlest, prettiest music, and it aims for a different kind of transcendence. For all the influences their music conjures, you’d never mistake these songs for any other band. The record’s title is taken from Graham Greene’s 1951 novel The End of the Affair, words spoken by a narrator who is uncommonly torn between love and hate. In the place of his all-consuming obsessions, he longs for something benign and ignorable to ponder on the way to work—the type of fantasies he imagines occupying the mind of more contented people. It’s a common dream, though, for some of us, it’s unrealistic. Human Love thrives in the moments where the extraordinary and the commonplace collide and become indistinguishable. In search of something quietly universal, Deafheaven can’t help but notice the tiny miracle in each breath.
Tracklist:
1. You Without End (07:36)
2. Honeycomb (11:04)
3. Canary Yellow (12:17)
4. Near (05:28)
5. Glint (10:57)
6. Night People (04:07)
7. Worthless Animal (10:07)

X Lossless Decoder version 20170729 (150.3)

XLD extraction logfile from 2018-07-16 14:45:01 -0400

Deafheaven / Ordinary Corrupt Human Love

Used drive : TS8XDVDS TRANSCEND (revision 1.00)
Media type : Pressed CD

Ripper mode : XLD Secure Ripper
Disable audio cache : OK for the drive with a cache less than 1375KiB
Make use of C2 pointers : NO
Read offset correction : 6
Max retry count : 100
Gap status : Analyzed, Appended (except HTOA)

TOC of the extracted CD
Track | Start | Length | Start sector | End sector
––––––––––––––––––––––––––––-
1 | 00:00:00 | 07:36:33 | 0 | 34232
2 | 07:36:33 | 11:04:33 | 34233 | 84065
3 | 18:40:66 | 12:17:30 | 84066 | 139370
4 | 30:58:21 | 05:28:48 | 139371 | 164018
5 | 36:26:69 | 10:57:01 | 164019 | 213294
6 | 47:23:70 | 04:07:73 | 213295 | 231892
7 | 51:31:68 | 10:07:63 | 231893 | 277480

AccurateRip Summary
Disc not found in AccurateRip DB.

All Tracks
Album gain : -9.51 dB
Peak : 0.974854
Statistics
Read error : 0
Jitter error (maybe fixed) : 0
Retry sector count : 0
Damaged sector count : 0

Track 01
Filename : /NWCD - Genuflect/Deafheaven - Ordinary Corrupt Human Love (2018) {87582-2 CD}/01 You Without End.flac
/NWCD - Genuflect/Deafheaven - Ordinary Corrupt Human Love (2018) {87582-2 CD}/01 You Without End(320).mp3
/NWCD - Genuflect/Deafheaven - Ordinary Corrupt Human Love (2018) {87582-2 CD}/01 You Without End(V0).mp3
Pre-gap length : 00:02:00

Track gain : -9.03 dB
Peak : 0.950409
CRC32 hash (test run) : 3929C614
CRC32 hash : 3929C614
CRC32 hash (skip zero) : FDFD4A75
AccurateRip v1 signature : 646A35D0
AccurateRip v2 signature : 5B83FDE5
->Track not present in AccurateRip database.
Statistics
Read error : 0
Jitter error (maybe fixed) : 0
Retry sector count : 0
Damaged sector count : 0

Track 02
Filename : /NWCD - Genuflect/Deafheaven - Ordinary Corrupt Human Love (2018) {87582-2 CD}/02 Honeycomb.flac
/NWCD - Genuflect/Deafheaven - Ordinary Corrupt Human Love (2018) {87582-2 CD}/02 Honeycomb(320).mp3
/NWCD - Genuflect/Deafheaven - Ordinary Corrupt Human Love (2018) {87582-2 CD}/02 Honeycomb(V0).mp3

Track gain : -9.85 dB
Peak : 0.963043
CRC32 hash (test run) : A7C9E6E1
CRC32 hash : A7C9E6E1
CRC32 hash (skip zero) : 5174D70F
AccurateRip v1 signature : CD2B20F5
AccurateRip v2 signature : 23ECC1F6
->Track not present in AccurateRip database.
Statistics
Read error : 0
Jitter error (maybe fixed) : 0
Retry sector count : 0
Damaged sector count : 0

Track 03
Filename : /NWCD - Genuflect/Deafheaven - Ordinary Corrupt Human Love (2018) {87582-2 CD}/03 Canary Yellow.flac
/NWCD - Genuflect/Deafheaven - Ordinary Corrupt Human Love (2018) {87582-2 CD}/03 Canary Yellow(320).mp3
/NWCD - Genuflect/Deafheaven - Ordinary Corrupt Human Love (2018) {87582-2 CD}/03 Canary Yellow(V0).mp3

Track gain : -9.74 dB
Peak : 0.974854
CRC32 hash (test run) : 613E49B0
CRC32 hash : 613E49B0
CRC32 hash (skip zero) : E6EBDE09
AccurateRip v1 signature : CFF098F5
AccurateRip v2 signature : 1A565B67
->Track not present in AccurateRip database.
Statistics
Read error : 0
Jitter error (maybe fixed) : 0
Retry sector count : 0
Damaged sector count : 0

Track 04
Filename : /NWCD - Genuflect/Deafheaven - Ordinary Corrupt Human Love (2018) {87582-2 CD}/04 Near.flac
/NWCD - Genuflect/Deafheaven - Ordinary Corrupt Human Love (2018) {87582-2 CD}/04 Near(320).mp3
/NWCD - Genuflect/Deafheaven - Ordinary Corrupt Human Love (2018) {87582-2 CD}/04 Near(V0).mp3

Track gain : -6.26 dB
Peak : 0.953583
CRC32 hash (test run) : 5DA0CBB0
CRC32 hash : 5DA0CBB0
CRC32 hash (skip zero) : E5DEE3B3
AccurateRip v1 signature : EAF8A542
AccurateRip v2 signature : E5B5A103
->Track not present in AccurateRip database.
Statistics
Read error : 0
Jitter error (maybe fixed) : 0
Retry sector count : 0
Damaged sector count : 0

Track 05
Filename : /NWCD - Genuflect/Deafheaven - Ordinary Corrupt Human Love (2018) {87582-2 CD}/05 Glint.flac
/NWCD - Genuflect/Deafheaven - Ordinary Corrupt Human Love (2018) {87582-2 CD}/05 Glint(320).mp3
/NWCD - Genuflect/Deafheaven - Ordinary Corrupt Human Love (2018) {87582-2 CD}/05 Glint(V0).mp3

Track gain : -9.47 dB
Peak : 0.964203
CRC32 hash (test run) : 0674DF23
CRC32 hash : 0674DF23
CRC32 hash (skip zero) : 94891702
AccurateRip v1 signature : D83C012E
AccurateRip v2 signature : E1E5CF13
->Track not present in AccurateRip database.
Statistics
Read error : 0
Jitter error (maybe fixed) : 0
Retry sector count : 0
Damaged sector count : 0

Track 06
Filename : /NWCD - Genuflect/Deafheaven - Ordinary Corrupt Human Love (2018) {87582-2 CD}/06 Night People.flac
/NWCD - Genuflect/Deafheaven - Ordinary Corrupt Human Love (2018) {87582-2 CD}/06 Night People(320).mp3
/NWCD - Genuflect/Deafheaven - Ordinary Corrupt Human Love (2018) {87582-2 CD}/06 Night People(V0).mp3

Track gain : -7.33 dB
Peak : 0.945618
CRC32 hash (test run) : 36B2CE72
CRC32 hash : 36B2CE72
CRC32 hash (skip zero) : 9CF0550D
AccurateRip v1 signature : C5A13D26
AccurateRip v2 signature : 4B51FB57
->Track not present in AccurateRip database.
Statistics
Read error : 0
Jitter error (maybe fixed) : 0
Retry sector count : 0
Damaged sector count : 0

Track 07
Filename : /NWCD - Genuflect/Deafheaven - Ordinary Corrupt Human Love (2018) {87582-2 CD}/07 Worthless Animal.flac
/NWCD - Genuflect/Deafheaven - Ordinary Corrupt Human Love (2018) {87582-2 CD}/07 Worthless Animal(320).mp3
/NWCD - Genuflect/Deafheaven - Ordinary Corrupt Human Love (2018) {87582-2 CD}/07 Worthless Animal(V0).mp3

Track gain : -9.57 dB
Peak : 0.962891
CRC32 hash (test run) : DBDB76C0
CRC32 hash : DBDB76C0
CRC32 hash (skip zero) : 1BDFD2D6
AccurateRip v1 signature : 0518CA4C
AccurateRip v2 signature : 5760C985
->Track not present in AccurateRip database.
Statistics
Read error : 0
Jitter error (maybe fixed) : 0
Retry sector count : 0
Damaged sector count : 0

No errors occurred

End of status report

––-BEGIN XLD SIGNATURE––-
FkH.uSxgY.Uh6lg1OIO8yg86G7lYso1qMKb2c2pW.jubl4V1.bp5S9u_3NlQO39mLjmHdz68TS3cvwLU9IkvIS5kz0.swOH7c8IbGn4
––-END XLD SIGNATURE––-

Thanks to the Original ripper Xerus !