Subcategories

Dimitris Mitropanos - All my life an excursion Vol 3 (3CD, 2013)

Posted By: Speedyclick
Dimitris Mitropanos - All my life an excursion Vol 3 (3CD, 2013)

Dimitris Mitropanos - All my life an excursion Vol 3 (3CD, 2013)
EAC Rip | FLAC (image & cue & log) & mp3 @ 320 kbps | tracks: 45 | Scans | 2:21:27 | ~ 1,00 Gb & 350 Mb
Label: MINOS-EMI | 5% recovery record | Ethnik, folk, Greek love ballads

This is the 3rd volume of the outstanding compilation "All my life an excursion" dedicated to the best selling "laika" songs of Dimitris Mitropanos, the unforgettable Greek singer and performer. As with the 1st and 2nd volumes of the compilation, you will find excellent zeibekika, chassapika and other greek songs from his 45 year brilliant career, interpreted with his unique, powerful and expressive voice. Enjoy.

TRACKLIST

CD01 (48:30 | ~ 374 Mb & 134 Mb)
01. Turn off the moon (Svise to fegari)
02. Love archangel (Erotas arhangelos)
03. I'll come at midnight (Tha 'rtho ta mesanihta)
04. World you became a wound for me (Kosme mou 'gines pligi)
05. Kiss after kiss I loved you (Fili fili s' agapisa)
06. If you love me (An m' agapas)
07. A station here (Mia stasi edo)
08. The kite (O hartaetos)
09. My unborn love (Agapi mou ageniti)
10. Life's store (Tis zois to magazi)
11. Where are you going my girl (Pou pas koritsi mou pou pas)
12. Submarine (Ipovrihio)
13. Get out to your doorstep (Evga sto katofli)
14. See my eyes (Des ta matia mou)
15. Bitter coffee (Pikros kafes)

CD02 (40:50 | ~ 299 Mb & 97 Mb)
01. We'll never find Kithira (Ta Kithira pote de tha ta vroume) [duet with Christiana]
02. I remember you always leaving (Mia zoi se thimame na fevgis)
03. Some left for Chios (Alos gia Chio travixe)
04. My mother my lover (Mana ki agapitikia mou)
05. The buggy was in front (I sousta pigene mprosta)
06. I didn't ask for a knife (De sou girepsa maheri)
07. Men who love (I antres p' agapane)
08. The only son of pain (O monahogios tou ponou)
09. Why you want the little spoon (Ti to thes to koutalaki)
10. Nikoli Nikoli
11. Two friends from Volos (Dio fili ap' to Volo)
12. Five more five less (Pente pano pente kato)
13. Fall down and you'll see (Pese kato ke tha dis)
14. Get the moon and come (Pare to fegari ki ela)
15. The world's heart is dry (Stegnose i kardia tou kosmou)

CD03 (52:07 | ~ 354 Mb & 119 Mb)
01. The bitter Saturdays (Ta pikrosavata)
02. At Smirni and Aivali (Sti Smirni ke to Aivali)
03. Mirror (Kathreftis)
04. Tell me where they sell hearts (Pes mou pou poulan kardies)
05. I am ready to forgive you (Sou 'ho etimi signomi)
06. Keep one minute of silence my heart (Krata kardia mou enos leptou sigi)
07. We are all friends (Mia parea imaste)
08. My complain (Parapono mou)
09. Casablanca
10. Now that I sing (Tora pou tragoudo)
11. How many years (Posa hronia)
12. Dead goodafternoons (Pethamenes kalisperes)
13. I am not a fool (Trelos den ime)
14. First autumn (Proto fthinoporo)
15. My mesmerized mind (Sa magemeno to mialo mou)

Exact Audio Copy V1.0 beta 3 from 29. August 2011

EAC extraction logfile from 11. January 2013, 20:13

Dimitris Mitropanos / Mia ekdromi einai i zoi mou CD1

Used drive : HL-DT-STDVDRAM GH10N Adapter: 1 ID: 1

Read mode : Secure
Utilize accurate stream : Yes
Defeat audio cache : Yes
Make use of C2 pointers : No

Read offset correction : 667
Overread into Lead-In and Lead-Out : No
Fill up missing offset samples with silence : Yes
Delete leading and trailing silent blocks : No
Null samples used in CRC calculations : Yes
Used interface : Native Win32 interface for Win NT & 2000

Used output format : User Defined Encoder
Selected bitrate : 1024 kBit/s
Quality : High
Add ID3 tag : Yes
Command line compressor : C:\Program Files\Exact Audio Copy New\Flac\flac.exe
Additional command line options : -V -5 -T "artist=%artist%" -T "title=%title%" -T "album=%albumtitle%" -T "tracknumber=%tracknr2%" -T "genre=%genre%" -5 %source%


TOC of the extracted CD

Track | Start | Length | Start sector | End sector
––––––––––––––––––––––––––––-
1 | 0:00.00 | 4:05.73 | 0 | 18447
2 | 4:05.73 | 3:02.17 | 18448 | 32114
3 | 7:08.15 | 2:44.17 | 32115 | 44431
4 | 9:52.32 | 4:05.24 | 44432 | 62830
5 | 13:57.56 | 2:44.50 | 62831 | 75180
6 | 16:42.31 | 3:07.28 | 75181 | 89233
7 | 19:49.59 | 3:42.49 | 89234 | 105932
8 | 23:32.33 | 3:03.65 | 105933 | 119722
9 | 26:36.23 | 3:38.10 | 119723 | 136082
10 | 30:14.33 | 2:45.21 | 136083 | 148478
11 | 32:59.54 | 3:04.37 | 148479 | 162315
12 | 36:04.16 | 4:04.35 | 162316 | 180650
13 | 40:08.51 | 2:33.15 | 180651 | 192140
14 | 42:41.66 | 2:32.57 | 192141 | 203597
15 | 45:14.48 | 3:15.32 | 203598 | 218254


Range status and errors

Selected range

Filename S:\MUSIC\Uploaded\GREEK\Dimitris Mitropanos - Mia ekdromi einai i zoi mou 3 (3CD)\DimMitC-1\Dimitris Mitropanos - Mia ekdromi einai i zoi mou CD1.wav

Peak level 100.0 %
Extraction speed 3.7 X
Range quality 100.0 %
Test CRC 5EB69D65
Copy CRC 5EB69D65
Copy OK

No errors occurred


AccurateRip summary

Track 1 not present in database
Track 2 not present in database
Track 3 not present in database
Track 4 not present in database
Track 5 not present in database
Track 6 not present in database
Track 7 not present in database
Track 8 not present in database
Track 9 not present in database
Track 10 not present in database
Track 11 not present in database
Track 12 not present in database
Track 13 not present in database
Track 14 not present in database
Track 15 not present in database

None of the tracks are present in the AccurateRip database

End of status report

–– CUETools DB Plugin V2.1.3

[CTDB TOCID: bU94pfsPiL7l1_vZ8o.bQVq2ASk-] disk not present in database, Submit result: bU94pfsPiL7l1_vZ8o.bQVq2ASk- has been uploaded


==== Log checksum E256D85ACF9824B204AAF076C550C0B9171764E0E92441374D7E6D19A171554F ====

Exact Audio Copy V1.0 beta 3 from 29. August 2011

EAC extraction logfile from 11. January 2013, 23:44

Dimitris Mitropanos / Mia ekdromi einai i zoi mou 3 CD2

Used drive : HL-DT-STDVDRAM GH10N Adapter: 1 ID: 1

Read mode : Secure
Utilize accurate stream : Yes
Defeat audio cache : Yes
Make use of C2 pointers : No

Read offset correction : 667
Overread into Lead-In and Lead-Out : No
Fill up missing offset samples with silence : Yes
Delete leading and trailing silent blocks : No
Null samples used in CRC calculations : Yes
Used interface : Native Win32 interface for Win NT & 2000

Used output format : User Defined Encoder
Selected bitrate : 1024 kBit/s
Quality : High
Add ID3 tag : Yes
Command line compressor : C:\Program Files\Exact Audio Copy New\Flac\flac.exe
Additional command line options : -V -5 -T "artist=%artist%" -T "title=%title%" -T "album=%albumtitle%" -T "tracknumber=%tracknr2%" -T "genre=%genre%" -5 %source%


TOC of the extracted CD

Track | Start | Length | Start sector | End sector
––––––––––––––––––––––––––––-
1 | 0:00.00 | 2:38.08 | 0 | 11857
2 | 2:38.08 | 2:53.26 | 11858 | 24858
3 | 5:31.34 | 3:06.20 | 24859 | 38828
4 | 8:37.54 | 2:45.22 | 38829 | 51225
5 | 11:23.01 | 3:02.67 | 51226 | 64942
6 | 14:25.68 | 2:23.04 | 64943 | 75671
7 | 16:48.72 | 3:25.46 | 75672 | 91092
8 | 20:14.43 | 2:31.32 | 91093 | 102449
9 | 22:46.00 | 2:26.64 | 102450 | 113463
10 | 25:12.64 | 2:06.13 | 113464 | 122926
11 | 27:19.02 | 2:46.25 | 122927 | 135401
12 | 30:05.27 | 2:48.20 | 135402 | 148021
13 | 32:53.47 | 2:38.24 | 148022 | 159895
14 | 35:31.71 | 2:35.48 | 159896 | 171568
15 | 38:07.44 | 2:42.59 | 171569 | 183777


Range status and errors

Selected range

Filename S:\MUSIC\Uploaded\GREEK\Dimitris Mitropanos - Mia ekdromi einai i zoi mou 3 (3CD)\DimMitC-2\Dimitris Mitropanos - Mia ekdromi einai i zoi mou 3 CD2.wav

Peak level 100.0 %
Extraction speed 5.6 X
Range quality 100.0 %
Test CRC 46351FE2
Copy CRC 46351FE2
Copy OK

No errors occurred


AccurateRip summary

Track 1 not present in database
Track 2 not present in database
Track 3 not present in database
Track 4 not present in database
Track 5 not present in database
Track 6 not present in database
Track 7 not present in database
Track 8 not present in database
Track 9 not present in database
Track 10 not present in database
Track 11 not present in database
Track 12 not present in database
Track 13 not present in database
Track 14 not present in database
Track 15 not present in database

None of the tracks are present in the AccurateRip database

End of status report

–– CUETools DB Plugin V2.1.3

[CTDB TOCID: bF9hwnhUYl9qergfWSOGjjZOnLI-] found, Submit result: bF9hwnhUYl9qergfWSOGjjZOnLI- has been confirmed
[56823d6a] (1/1) Accurately ripped


==== Log checksum 8FBF887EFF6DA623BD710F6E7E9D504E00216D861B2D3132D70F69130AF2F7D8 ====

Exact Audio Copy V1.0 beta 3 from 29. August 2011

EAC extraction logfile from 13. January 2013, 1:14

Dimitris Mitropanos / Mia ekdromi einai i zoi mou 3 CD3

Used drive : HL-DT-STDVDRAM GH10N Adapter: 1 ID: 1

Read mode : Secure
Utilize accurate stream : Yes
Defeat audio cache : Yes
Make use of C2 pointers : No

Read offset correction : 667
Overread into Lead-In and Lead-Out : No
Fill up missing offset samples with silence : Yes
Delete leading and trailing silent blocks : No
Null samples used in CRC calculations : Yes
Used interface : Native Win32 interface for Win NT & 2000

Used output format : User Defined Encoder
Selected bitrate : 1024 kBit/s
Quality : High
Add ID3 tag : Yes
Command line compressor : C:\Program Files\Exact Audio Copy New\Flac\flac.exe
Additional command line options : -V -5 -T "artist=%artist%" -T "title=%title%" -T "album=%albumtitle%" -T "tracknumber=%tracknr2%" -T "genre=%genre%" -5 %source%


TOC of the extracted CD

Track | Start | Length | Start sector | End sector
––––––––––––––––––––––––––––-
1 | 0:00.00 | 3:12.72 | 0 | 14471
2 | 3:12.72 | 3:37.69 | 14472 | 30815
3 | 6:50.66 | 3:41.44 | 30816 | 47434
4 | 10:32.35 | 2:59.58 | 47435 | 60917
5 | 13:32.18 | 3:44.36 | 60918 | 77753
6 | 17:16.54 | 3:21.43 | 77754 | 92871
7 | 20:38.22 | 3:09.29 | 92872 | 107075
8 | 23:47.51 | 3:46.03 | 107076 | 124028
9 | 27:33.54 | 3:47.44 | 124029 | 141097
10 | 31:21.23 | 2:55.39 | 141098 | 154261
11 | 34:16.62 | 3:08.00 | 154262 | 168361
12 | 37:24.62 | 4:24.01 | 168362 | 188162
13 | 41:48.63 | 3:26.26 | 188163 | 203638
14 | 45:15.14 | 3:50.37 | 203639 | 220925
15 | 49:05.51 | 3:02.07 | 220926 | 234582


Range status and errors

Selected range

Filename S:\MUSIC\Uploaded\GREEK\Dimitris Mitropanos - Mia ekdromi einai i zoi mou 3 (3CD)\DimMitC-3\Dimitris Mitropanos - Mia ekdromi einai i zoi mou 3 CD3.wav

Peak level 100.0 %
Extraction speed 5.8 X
Range quality 99.9 %
Test CRC 4DA01A3F
Copy CRC 4DA01A3F
Copy OK

No errors occurred


AccurateRip summary

Track 1 not present in database
Track 2 not present in database
Track 3 not present in database
Track 4 not present in database
Track 5 not present in database
Track 6 not present in database
Track 7 not present in database
Track 8 not present in database
Track 9 not present in database
Track 10 not present in database
Track 11 not present in database
Track 12 not present in database
Track 13 not present in database
Track 14 not present in database
Track 15 not present in database

None of the tracks are present in the AccurateRip database

End of status report

–– CUETools DB Plugin V2.1.3

[CTDB TOCID: eS.h0OrKtjvmBu43iUTLlw3aNuw-] disk not present in database, Submit result: eS.h0OrKtjvmBu43iUTLlw3aNuw- has been uploaded


==== Log checksum 21510508AEC8024AE40EBB1DEBE8F86C010AE2DFEEC31983293899F037EF5E40 ====