Tags
Language
Tags

Donny Osmond & Marie Osmond - 20th Century Masters - The Millennium Collection: The Best of Donny & Marie Osmond (2002)

Posted By: delpotro
Donny Osmond & Marie Osmond - 20th Century Masters - The Millennium Collection: The Best of Donny & Marie Osmond (2002)

Donny Osmond & Marie Osmond - 20th Century Masters - The Millennium Collection: The Best of Donny & Marie Osmond (2002)
EAC Rip | FLAC (tracks+log+.cue) - 229 Mb | MP3 CBR 320 kbps - 86 Mb | 00:37:19
Pop | Label: Polydor Records

12 of the biggest '70s hits and most memorable duets that Donny and Marie Osmond recorded before taking their superstar act to TV! Includes their smooth pop hits I'm Leaving It (All) Up to You; Morning Side of the Mountain; Deep Purple; Make the World Go Away; Paper Roses and more.

AllMusic Review by Heather Phares
20th Century Masters - The Millennium Collection: The Best of Donny & Marie Osmond collects a dozen of the brother and sister duo's best-known and definitive performances, including "Leaving It All Up to You," "It Takes Two," "Deep Purple," and "Paper Roses." Though some of the songs the duo tackles venture into rock and disco influences, for the most part their work stayed in the '70s AM pop style that Donny's teenage solo career began with, and is epitomized by songs like "One of These Days" and their version of "Let It Be." Though their sound never quite hit the transcendent highs of the Carpenters' work, at its best Donny & Marie's output had a smooth, airy agreeable quality that has made it date surprisingly well. Not many Osmond retrospectives focus just on Donny & Marie's work, so 20th Century Masters - The Millennium Collection: The Best of Donny & Marie Osmond fills that gap competently.
Tracklist:
1. Donny Osmond & Marie Osmond – I'm Leaving It (All) Up to You (02:51)
2. Donny Osmond & Marie Osmond – Morning Side of the Mountain (03:03)
3. Donny Osmond & Marie Osmond – Let It Be Me (03:11)
4. Donny Osmond & Marie Osmond – It Takes Two (02:50)
5. Donny Osmond & Marie Osmond – One of These Days (04:21)
6. Donny Osmond & Marie Osmond – Make the World Go Away (02:49)
7. Donny Osmond & Marie Osmond – Living on My Suspicion (03:56)
8. Donny Osmond & Marie Osmond – It's All in the Game (03:23)
9. Donny Osmond & Marie Osmond – Deep Purple (02:47)
10. Marie Osmond – Paper Roses (02:38)
11. Marie Osmond – In My Little Corner of the World (02:48)
12. Marie Osmond – Who's Sorry Now (02:08)

Exact Audio Copy V1.3 from 2. September 2016

EAC extraction logfile from 26. June 2019, 13:29

Donny & Marie Osmond / 20th Century Masters - The Millennium Collection - The Best Of

Used drive : Dell DVD+/-RW DW316 Adapter: 1 ID: 0

Read mode : Secure
Utilize accurate stream : Yes
Defeat audio cache : Yes
Make use of C2 pointers : No

Read offset correction : 6
Overread into Lead-In and Lead-Out : No
Fill up missing offset samples with silence : Yes
Delete leading and trailing silent blocks : No
Null samples used in CRC calculations : Yes
Used interface : Native Win32 interface for Win NT & 2000
Gap handling : Appended to previous track

Used output format : User Defined Encoder
Selected bitrate : 1024 kBit/s
Quality : High
Add ID3 tag : No
Command line compressor : D:\OrpheusToolbox v1.00 - Windows\Codecs\flac-1.3.2\win64\flac.exe
Additional command line options : -8 -e -p -V -T "ARTIST=%artist%" -T "TITLE=%title%" -T "ALBUM=%albumtitle%" -T "DATE=%year%" -T "TRACKNUMBER=%tracknr%" -T "GENRE=%genre%" -T "PERFORMER=%albuminterpret%" -T "COMPOSER=%composer%" %haslyrics%–tag-from-file=LYRICS="%lyricsfile%"%haslyrics% -T "ALBUMARTIST=%albumartist%" -T "DISCNUMBER=%cdnumber%" -T "TOTALDISCS=%totalcds%" -T "TOTALTRACKS=%numtracks%" -T "COMMENT=%comment%" %source% -o %dest%


TOC of the extracted CD

Track | Start | Length | Start sector | End sector
––––––––––––––––––––––––––––-
1 | 0:00.00 | 2:54.18 | 0 | 13067
2 | 2:54.18 | 3:05.72 | 13068 | 27014
3 | 6:00.15 | 3:14.33 | 27015 | 41597
4 | 9:14.48 | 2:52.57 | 41598 | 54554
5 | 12:07.30 | 4:24.03 | 54555 | 74357
6 | 16:31.33 | 2:51.69 | 74358 | 87251
7 | 19:23.27 | 3:58.58 | 87252 | 105159
8 | 23:22.10 | 3:25.50 | 105160 | 120584
9 | 26:47.60 | 2:49.65 | 120585 | 133324
10 | 29:37.50 | 2:41.43 | 133325 | 145442
11 | 32:19.18 | 2:51.17 | 145443 | 158284
12 | 35:10.35 | 2:08.45 | 158285 | 167929


Track 1

Filename D:\20th Century Masters - The Millennium Collection - The Best Of\01 I'm Leaving It All Up To You.wav

Pre-gap length 0:00:02.00

Peak level 98.8 %
Extraction speed 1.0 X
Track quality 100.0 %
Test CRC 0A73C269
Copy CRC 0A73C269
Accurately ripped (confidence 3) [3F340510] (AR v1)
Copy OK

Track 2

Filename D:\20th Century Masters - The Millennium Collection - The Best Of\02 Morning Side Of The Mountain.wav

Pre-gap length 0:00:02.44

Peak level 98.6 %
Extraction speed 1.2 X
Track quality 100.0 %
Test CRC A45F84EB
Copy CRC A45F84EB
Accurately ripped (confidence 3) [EA2141FA] (AR v1)
Copy OK

Track 3

Filename D:\20th Century Masters - The Millennium Collection - The Best Of\03 Let It Be Me.wav

Pre-gap length 0:00:02.44

Peak level 98.5 %
Extraction speed 1.2 X
Track quality 100.0 %
Test CRC 3591B6E5
Copy CRC 3591B6E5
Accurately ripped (confidence 3) [557B99B8] (AR v1)
Copy OK

Track 4

Filename D:\20th Century Masters - The Millennium Collection - The Best Of\04 It Takes Two.wav

Pre-gap length 0:00:02.45

Peak level 99.1 %
Extraction speed 1.3 X
Track quality 100.0 %
Test CRC 3807B90A
Copy CRC 3807B90A
Accurately ripped (confidence 3) [B8568ABF] (AR v1)
Copy OK

Track 5

Filename D:\20th Century Masters - The Millennium Collection - The Best Of\05 One Of These Days.wav

Pre-gap length 0:00:02.44

Peak level 99.9 %
Extraction speed 1.5 X
Track quality 100.0 %
Test CRC E58DA390
Copy CRC E58DA390
Accurately ripped (confidence 3) [D70BA5C2] (AR v1)
Copy OK

Track 6

Filename D:\20th Century Masters - The Millennium Collection - The Best Of\06 Make The World Go Away.wav

Pre-gap length 0:00:02.44

Peak level 96.0 %
Extraction speed 1.5 X
Track quality 100.0 %
Test CRC EC42BBC4
Copy CRC EC42BBC4
Accurately ripped (confidence 3) [78F54124] (AR v1)
Copy OK

Track 7

Filename D:\20th Century Masters - The Millennium Collection - The Best Of\07 Living On My Suspicion.wav

Pre-gap length 0:00:02.45

Peak level 97.6 %
Extraction speed 1.6 X
Track quality 100.0 %
Test CRC 89818993
Copy CRC 89818993
Accurately ripped (confidence 3) [857FAA9A] (AR v1)
Copy OK

Track 8

Filename D:\20th Century Masters - The Millennium Collection - The Best Of\08 It's All In The Game.wav

Pre-gap length 0:00:02.45

Peak level 97.9 %
Extraction speed 1.7 X
Track quality 100.0 %
Test CRC BA962B39
Copy CRC BA962B39
Accurately ripped (confidence 3) [5352A038] (AR v1)
Copy OK

Track 9

Filename D:\20th Century Masters - The Millennium Collection - The Best Of\09 Deep Purple.wav

Pre-gap length 0:00:02.44

Peak level 100.0 %
Extraction speed 1.7 X
Track quality 100.0 %
Test CRC 9A0FECF6
Copy CRC 9A0FECF6
Accurately ripped (confidence 3) [9C2DF3E7] (AR v1)
Copy OK

Track 10

Filename D:\20th Century Masters - The Millennium Collection - The Best Of\10 Marie Osmond_Paper Roses.wav

Pre-gap length 0:00:02.45

Peak level 99.9 %
Extraction speed 1.7 X
Track quality 100.0 %
Test CRC D05E2626
Copy CRC D05E2626
Accurately ripped (confidence 3) [7CF791D1] (AR v1)
Copy OK

Track 11

Filename D:\20th Century Masters - The Millennium Collection - The Best Of\11 Marie Osmond_In My Little Corner Of The World.wav

Pre-gap length 0:00:02.45

Peak level 98.7 %
Extraction speed 1.8 X
Track quality 100.0 %
Test CRC 17CFC5F8
Copy CRC 17CFC5F8
Accurately ripped (confidence 3) [1BC70ACE] (AR v1)
Copy OK

Track 12

Filename D:\20th Century Masters - The Millennium Collection - The Best Of\12 Marie Osmond_Who's Sorry Now.wav

Pre-gap length 0:00:02.44

Peak level 93.5 %
Extraction speed 1.7 X
Track quality 100.0 %
Test CRC BC73CD9D
Copy CRC BC73CD9D
Accurately ripped (confidence 3) [00B48971] (AR v1)
Copy OK


All tracks accurately ripped

No errors occurred

End of status report

–– CUETools DB Plugin V2.1.6

[CTDB TOCID: pK_lrM1ox8EEx.RpeDPbvQSqygc-] found
Submit result: pK_lrM1ox8EEx.RpeDPbvQSqygc- has been confirmed
Track | CTDB Status
1 | (6/6) Accurately ripped
2 | (6/6) Accurately ripped
3 | (6/6) Accurately ripped
4 | (6/6) Accurately ripped
5 | (6/6) Accurately ripped
6 | (6/6) Accurately ripped
7 | (6/6) Accurately ripped
8 | (6/6) Accurately ripped
9 | (6/6) Accurately ripped
10 | (6/6) Accurately ripped
11 | (6/6) Accurately ripped
12 | (6/6) Accurately ripped


==== Log checksum E23909A1CE2DEC002ED59767E7B6461D9F6870F765C750E1860CCD2FD6FEA530 ====

––––––––––––––––––––––––––––––

Exact Audio Copy V1.3 from 2. September 2016

EAC extraction logfile from 26. June 2019, 13:29

Donny & Marie Osmond / 20th Century Masters - The Millennium Collection - The Best Of

Used drive : Dell DVD+/-RW DW316 Adapter: 1 ID: 0

Read mode : Secure
Utilize accurate stream : Yes
Defeat audio cache : Yes
Make use of C2 pointers : No

Read offset correction : 6
Overread into Lead-In and Lead-Out : No
Fill up missing offset samples with silence : Yes
Delete leading and trailing silent blocks : No
Null samples used in CRC calculations : Yes
Used interface : Native Win32 interface for Win NT & 2000
Gap handling : Appended to previous track

Used output format : User Defined Encoder
Selected bitrate : 1024 kBit/s
Quality : High
Add ID3 tag : No
Command line compressor : D:\OrpheusToolbox v1.00 - Windows\Codecs\flac-1.3.2\win64\flac.exe
Additional command line options : -8 -e -p -V -T "ARTIST=%artist%" -T "TITLE=%title%" -T "ALBUM=%albumtitle%" -T "DATE=%year%" -T "TRACKNUMBER=%tracknr%" -T "GENRE=%genre%" -T "PERFORMER=%albuminterpret%" -T "COMPOSER=%composer%" %haslyrics%–tag-from-file=LYRICS="%lyricsfile%"%haslyrics% -T "ALBUMARTIST=%albumartist%" -T "DISCNUMBER=%cdnumber%" -T "TOTALDISCS=%totalcds%" -T "TOTALTRACKS=%numtracks%" -T "COMMENT=%comment%" %source% -o %dest%


TOC of the extracted CD

Track | Start | Length | Start sector | End sector
––––––––––––––––––––––––––––-
1 | 0:00.00 | 2:54.18 | 0 | 13067
2 | 2:54.18 | 3:05.72 | 13068 | 27014
3 | 6:00.15 | 3:14.33 | 27015 | 41597
4 | 9:14.48 | 2:52.57 | 41598 | 54554
5 | 12:07.30 | 4:24.03 | 54555 | 74357
6 | 16:31.33 | 2:51.69 | 74358 | 87251
7 | 19:23.27 | 3:58.58 | 87252 | 105159
8 | 23:22.10 | 3:25.50 | 105160 | 120584
9 | 26:47.60 | 2:49.65 | 120585 | 133324
10 | 29:37.50 | 2:41.43 | 133325 | 145442
11 | 32:19.18 | 2:51.17 | 145443 | 158284
12 | 35:10.35 | 2:08.45 | 158285 | 167929


Track 1

Filename D:\20th Century Masters - The Millennium Collection - The Best Of\01 I'm Leaving It All Up To You.wav

Pre-gap length 0:00:02.00

Peak level 98.8 %
Extraction speed 1.0 X
Track quality 100.0 %
Test CRC 0A73C269
Copy CRC 0A73C269
Accurately ripped (confidence 3) [3F340510] (AR v1)
Copy OK

Track 2

Filename D:\20th Century Masters - The Millennium Collection - The Best Of\02 Morning Side Of The Mountain.wav

Pre-gap length 0:00:02.44

Peak level 98.6 %
Extraction speed 1.2 X
Track quality 100.0 %
Test CRC A45F84EB
Copy CRC A45F84EB
Accurately ripped (confidence 3) [EA2141FA] (AR v1)
Copy OK

Track 3

Filename D:\20th Century Masters - The Millennium Collection - The Best Of\03 Let It Be Me.wav

Pre-gap length 0:00:02.44

Peak level 98.5 %
Extraction speed 1.2 X
Track quality 100.0 %
Test CRC 3591B6E5
Copy CRC 3591B6E5
Accurately ripped (confidence 3) [557B99B8] (AR v1)
Copy OK

Track 4

Filename D:\20th Century Masters - The Millennium Collection - The Best Of\04 It Takes Two.wav

Pre-gap length 0:00:02.45

Peak level 99.1 %
Extraction speed 1.3 X
Track quality 100.0 %
Test CRC 3807B90A
Copy CRC 3807B90A
Accurately ripped (confidence 3) [B8568ABF] (AR v1)
Copy OK

Track 5

Filename D:\20th Century Masters - The Millennium Collection - The Best Of\05 One Of These Days.wav

Pre-gap length 0:00:02.44

Peak level 99.9 %
Extraction speed 1.5 X
Track quality 100.0 %
Test CRC E58DA390
Copy CRC E58DA390
Accurately ripped (confidence 3) [D70BA5C2] (AR v1)
Copy OK

Track 6

Filename D:\20th Century Masters - The Millennium Collection - The Best Of\06 Make The World Go Away.wav

Pre-gap length 0:00:02.44

Peak level 96.0 %
Extraction speed 1.5 X
Track quality 100.0 %
Test CRC EC42BBC4
Copy CRC EC42BBC4
Accurately ripped (confidence 3) [78F54124] (AR v1)
Copy OK

Track 7

Filename D:\20th Century Masters - The Millennium Collection - The Best Of\07 Living On My Suspicion.wav

Pre-gap length 0:00:02.45

Peak level 97.6 %
Extraction speed 1.6 X
Track quality 100.0 %
Test CRC 89818993
Copy CRC 89818993
Accurately ripped (confidence 3) [857FAA9A] (AR v1)
Copy OK

Track 8

Filename D:\20th Century Masters - The Millennium Collection - The Best Of\08 It's All In The Game.wav

Pre-gap length 0:00:02.45

Peak level 97.9 %
Extraction speed 1.7 X
Track quality 100.0 %
Test CRC BA962B39
Copy CRC BA962B39
Accurately ripped (confidence 3) [5352A038] (AR v1)
Copy OK

Track 9

Filename D:\20th Century Masters - The Millennium Collection - The Best Of\09 Deep Purple.wav

Pre-gap length 0:00:02.44

Peak level 100.0 %
Extraction speed 1.7 X
Track quality 100.0 %
Test CRC 9A0FECF6
Copy CRC 9A0FECF6
Accurately ripped (confidence 3) [9C2DF3E7] (AR v1)
Copy OK

Track 10

Filename D:\20th Century Masters - The Millennium Collection - The Best Of\10 Marie Osmond_Paper Roses.wav

Pre-gap length 0:00:02.45

Peak level 99.9 %
Extraction speed 1.7 X
Track quality 100.0 %
Test CRC D05E2626
Copy CRC D05E2626
Accurately ripped (confidence 3) [7CF791D1] (AR v1)
Copy OK

Track 11

Filename D:\20th Century Masters - The Millennium Collection - The Best Of\11 Marie Osmond_In My Little Corner Of The World.wav

Pre-gap length 0:00:02.45

Peak level 98.7 %
Extraction speed 1.8 X
Track quality 100.0 %
Test CRC 17CFC5F8
Copy CRC 17CFC5F8
Accurately ripped (confidence 3) [1BC70ACE] (AR v1)
Copy OK

Track 12

Filename D:\20th Century Masters - The Millennium Collection - The Best Of\12 Marie Osmond_Who's Sorry Now.wav

Pre-gap length 0:00:02.44

Peak level 93.5 %
Extraction speed 1.7 X
Track quality 100.0 %
Test CRC BC73CD9D
Copy CRC BC73CD9D
Accurately ripped (confidence 3) [00B48971] (AR v1)
Copy OK


All tracks accurately ripped

No errors occurred

End of status report

–– CUETools DB Plugin V2.1.6

[CTDB TOCID: pK_lrM1ox8EEx.RpeDPbvQSqygc-] found
Submit result: pK_lrM1ox8EEx.RpeDPbvQSqygc- has been confirmed
Track | CTDB Status
1 | (6/6) Accurately ripped
2 | (6/6) Accurately ripped
3 | (6/6) Accurately ripped
4 | (6/6) Accurately ripped
5 | (6/6) Accurately ripped
6 | (6/6) Accurately ripped
7 | (6/6) Accurately ripped
8 | (6/6) Accurately ripped
9 | (6/6) Accurately ripped
10 | (6/6) Accurately ripped
11 | (6/6) Accurately ripped
12 | (6/6) Accurately ripped


==== Log checksum E23909A1CE2DEC002ED59767E7B6461D9F6870F765C750E1860CCD2FD6FEA530 ====

Thanks to the Original ripper !