Tags
Language
Tags
November 2022
Su Mo Tu We Th Fr Sa
30 31 1 2 3 4 5
6 7 8 9 10 11 12
13 14 15 16 17 18 19
20 21 22 23 24 25 26
27 28 29 30 1 2 3

Dr. Atmo & Mick Chillage - Ruhleben (2021)

Posted By: delpotro
Dr. Atmo & Mick Chillage - Ruhleben (2021)

Dr. Atmo & Mick Chillage - Ruhleben (2021)
EAC Rip | FLAC (tracks+log+.cue) - 339 Mb | MP3 CBR 320 kbps - 175 Mb | 01:13:37
Electronic, Ambient | Label: A Strangely Isolated Place

The connection between Dr. Atmo and Mick Chillage goes back to one of the finest ambient labels to ever grace this planet, FAX records. Many will remember the defining collective for their deep, extended excursions into the far-reaches of ambient mysticism - a style that is still revered to this day.

Ruhleben sees a welcome return for Dr. Atmo who, after appearing on some of the very first FAX releases under his own name and different guises throughout its tenure, has been somewhat elusive of late with side-steps into other genres. Now, partnering with another FAX alumni and a foundational figure within today’s ambient music genre, Mick Chillage, the pair have returned to their roots and a defining style of ambient music.
Taking Dr. Atmo’s distinctive hooks, haunting loops, and graceful melodies, Mick Chillage improvised on these foundational elements further with fine-tuned details such as delicate bass additions, rhythmic looping signals, or more organic fixtures like a finely woven Harp and extended Piano loops.

Across its four extended tracks, Ruhleben is an infinite flight into mystical formations that yearn for dramatic soundscapes. A time-lapsed, slow-motion soundtrack, where Mother Nature breathes destructive fire from the depths, breaking the Earth’s surface to form dramatic cathedrals, scarred by super-natural atmospheres and eventually flooded with the life we know today.
Tracklist:
1. Airstream (16:06)
2. Backwaters (20:01)
3. Fireflow (19:59)
4. Earth Forms (17:29)

Exact Audio Copy V1.6 from 23. October 2020

EAC extraction logfile from 7. July 2021, 15:30

Dr. Atmo & Mick Chillage / Ruhleben

Used drive : HL-DT-STBD-RE WH16NS40 Adapter: 1 ID: 0

Read mode : Secure
Utilize accurate stream : Yes
Defeat audio cache : Yes
Make use of C2 pointers : No

Read offset correction : 6
Overread into Lead-In and Lead-Out : No
Fill up missing offset samples with silence : Yes
Delete leading and trailing silent blocks : No
Null samples used in CRC calculations : Yes
Used interface : Native Win32 interface for Win NT & 2000
Gap handling : Appended to previous track

Used output format : User Defined Encoder
Selected bitrate : 1024 kBit/s
Quality : High
Add ID3 tag : No
Command line compressor : C:\Program Files\FLAC\flac.exe
Additional command line options : -8 -V -T "ARTIST=%artist%" -T "TITLE=%title%" -T "ALBUM=%albumtitle%" -T "DATE=%year%" -T "TRACKNUMBER=%tracknr%" -T "GENRE=%genre%" -T "PERFORMER=%albuminterpret%" -T "COMPOSER=%composer%" -T "ALBUMARTIST=%albumartist%" -T "DISCNUMBER=%cdnumber%" -T "TOTALDISCS=%totalcds%" -T "TOTALTRACKS=%numtracks%" -T "COMMENT=%comment%" %source% -o %dest%


TOC of the extracted CD

Track | Start | Length | Start sector | End sector
––––––––––––––––––––––––––––-
1 | 0:00.00 | 16:06.32 | 0 | 72481
2 | 16:06.32 | 20:01.73 | 72482 | 162629
3 | 36:08.30 | 19:59.74 | 162630 | 252628
4 | 56:08.29 | 17:29.32 | 252629 | 331335


Track 1

Filename C:\EAC\[ASIPV030CD] Dr. Atmo & Mick Chillage - Ruhleben (2021) [CD FLAC]\01. Dr. Atmo & Mick Chillage - Airstream.wav

Pre-gap length 0:00:02.00

Peak level 88.8 %
Extraction speed 5.6 X
Track quality 99.9 %
Test CRC 8D28B0EB
Copy CRC 8D28B0EB
Track not present in AccurateRip database
Copy OK

Track 2

Filename C:\EAC\[ASIPV030CD] Dr. Atmo & Mick Chillage - Ruhleben (2021) [CD FLAC]\02. Dr. Atmo & Mick Chillage - Backwaters.wav

Peak level 92.7 %
Extraction speed 7.7 X
Track quality 100.0 %
Test CRC F041BAC3
Copy CRC F041BAC3
Track not present in AccurateRip database
Copy OK

Track 3

Filename C:\EAC\[ASIPV030CD] Dr. Atmo & Mick Chillage - Ruhleben (2021) [CD FLAC]\03. Dr. Atmo & Mick Chillage - Fireflow.wav

Peak level 94.0 %
Extraction speed 9.2 X
Track quality 100.0 %
Test CRC F6043ACE
Copy CRC F6043ACE
Track not present in AccurateRip database
Copy OK

Track 4

Filename C:\EAC\[ASIPV030CD] Dr. Atmo & Mick Chillage - Ruhleben (2021) [CD FLAC]\04. Dr. Atmo & Mick Chillage - Earth Forms.wav

Peak level 94.0 %
Extraction speed 10.4 X
Track quality 100.0 %
Test CRC 2D56ADBD
Copy CRC 2D56ADBD
Track not present in AccurateRip database
Copy OK


None of the tracks are present in the AccurateRip database

No errors occurred

End of status report

–– CUETools DB Plugin V2.1.6

[CTDB TOCID: K0MJHud7gLl.PIApBwYj5wFp.JU-] found
Submit result: K0MJHud7gLl.PIApBwYj5wFp.JU- has been confirmed
Track | CTDB Status
1 | (1/1) Accurately ripped
2 | (1/1) Accurately ripped
3 | (1/1) Accurately ripped
4 | (1/1) Accurately ripped


==== Log checksum ECB5B1D12AB70E443E63B53C0A31793FD5BDD48EC7ABD8CA027CF3F435870E03 ====

Thanks to the Original ripper !