Subcategories

Mike Francis - Anthology (Curated by Blank & Jones) (2011) [RE-UP]

Posted By: edi1967
Mike Francis - Anthology (Curated by Blank & Jones) (2011) [RE-UP]

Mike Francis - Anthology (Curated by Blank & Jones) (2011)
EAC rip | FLAC (tracks + .log + .cue) | 2.2 GB + 5% Recovery
MP3 @ 320 Kbps | 846 MB + 5% recovery
4 CD | 71 Tracks | 06:35:31 | Covers: Full scans
Genre: Pop, Lounge, New Romantic, Synthpop, Nu Jazz | Label: Soundcolours

Mike Francis è stata una delle popstar di maggior successo italiano degli anni '80. Nato nel 1961 come Francesco Puccioni ha segnato il suo più grande successo già nel 1984. "Survivor" lo ha portato dritto al top delle classifiche italiane, che è stata seguita da primi posti in Germania e Regno Unito. Nello stesso anno ha scritto la hit "Friends" per la regina della discoteca Amii Stewart che delineati nella top 10. Molti successi che seguirono sempre focalizzati sulla sua voce unica e morbida. "Let Me In", "Features of Love" o "togehter" sono dei capolavori senza tempo, fino ad oggi.

Nei primi anni '90 Mike Francis ha registrato il suo primo album nella sua lingua madre. "In Italiano" diventò la colonna sonora dell'estate del 1991 in Italia e lo portò alla fama come Eros Ramazzotti o Raf. Ma ancora la sua musica si ispira al Soul, Funk una discoteca degli anni '80. Negli anni 2000 decise di allontanarsi dal microfono e focalizzarsi sulla composizione e scrittura della canzoni e produrre con il suo progetto "Mystic Diversions".

Blank & Jones sono cresciuti con la sua musica negli anni '80 ed hanno convinto Mike Francis nel 2005 a tornare al microfono. Insieme hanno registrato una cover di Van Morrison, "Someone Like You" classico per la loro famosa serie "Relax". L'atmosfera era giusto e quindi non hanno solo deciso di registrare un intero Blank & Jones album ("Relax Edition Three") con Mike Francis, come cantante, ma anche prodotto in cambio il suo ritorno con l'album "Inspired" (2007). Purtroppo questo fantastico cantante e persona meravigliosa è scomparso nel 2009, troppo presto.

Insieme alla sua famiglia, Blank & Jones hanno curato una colllection enorme del suo eccellente lavoro. Molte rarità come il suo primo singolo "Love Has Found You" o una registrazione dal vivo del classico di Marvin Gaye "Facciamo Get It On" si possono trovare su CD per la prima volta. Nel complesso questo 4CD Box presenta i punti salienti di tutti i suoi album che non sono disponibili da tempo, o solo come molto costose importazioni giappone. Ovviamente tutti i brani sono stati accuratamente rimasterizzati da Blank & Jones e la scatola include anche un booklet esteso con molte pictues e impressioni.

Mike Francis - Anthology (Curated by Blank & Jones) (2011) [RE-UP]

Mike Francis was one of the most successfull italian popstars of the 80s. Born in 1961 as Francesco Puccioni he scored his biggest hit already in 1984. "Survivor" led him straight to the top of the italian charts, which was followed by top spots in germany and the uk.

In the same year he wrote the hit "Friends" for disco queen Amii Stewart which charted in the top 10 as well. Many hits followed which always focussed on his unique and soft voice. "Let Me In", "Features Of Love" or "Togehter" are timeless masterpieces until this day.

In the early 90s Mike Francis recorded his first album in his native language. "In Italiano" went on to become the summer soundtrack of 1991 in italy and brought him to the same fame as Eros Ramazotti or Raf. But still his music was inspired by the Soul, Funk an Disco of the 80s. In the 00s years he decided to step away from the microphone and focussed on songwriting and producing with his project "Mystic Diversions" .

Blank & Jones grew up with his music in the 80s and convinced Mike Francis in 2005 to return to the microphone. Together they recorded a cover version of the van Morrison classic "Someone Like You" for their famous "Relax" series. The vibe was right and so they not only decided to record a whole Blank & Jones album ("Relax Edition Three") with Mike Francis as lead singer, but also produced in return his comeback album "Inspired" (2007). Sadly this fantastic singer and wonderful person passed away in 2009 far too early.

Together with his family, Blank & Jones have now curated a huge colllection of his outstanding work. Many rarities like his very first single "Love Has Found You" or a live recording of the Marvin Gaye classic "Let's Get It On" can be found on CD for the first time. Overall this 4CD Box presents the highlights of all his albums which are unavailable since a long time, or only as very expensive japan imports. Of course all songs were carefully remastered by Blank & Jones and the box also includes an extensive booklet with many pictues and impressions.

Mike Francis - Anthology (Curated by Blank & Jones) (2011) [RE-UP]

Tracklist

CD1:
01. Survivor (6:05)
02. Night Time Lady (5:20)
03. Cover Girl (4:35)
04. Late Summer Night (4:09)
05. This Love (4:02)
06. Fall In Love (5:30)
07. Let's Not Talk About It (5:32)
08. Love Has Found You (4:36)
09. Features Of Love (Club Mix) (7:12)
10. Friends (Extended Version) (7:13)
11. Let Me In (Extended Version) (7:29)
12. That Loving Feeling (with Ami Stewart) (5:44)
13. Try Love (with Ami Stewart) (3:46)
14. Time Out Of Time (Extended Version) (5:47)
15. Dreams Of A Lifetime (Extended Version) (6:27)
Exact Audio Copy V1.0 beta 3 from 29. August 2011

EAC extraction logfile from 28. December 2011, 1:20

Mike Francis / Anthology (сurated by Blank & Jones)

Used drive : HL-DT-STDVDRAM GH22NS70 Adapter: 1 ID: 4

Read mode : Secure
Utilize accurate stream : Yes
Defeat audio cache : Yes
Make use of C2 pointers : No

Read offset correction : 667
Overread into Lead-In and Lead-Out : No
Fill up missing offset samples with silence : Yes
Delete leading and trailing silent blocks : No
Null samples used in CRC calculations : Yes
Used interface : Native Win32 interface for Win NT & 2000
Gap handling : Appended to previous track

Used output format : User Defined Encoder
Selected bitrate : 896 kBit/s
Quality : High
Add ID3 tag : No
Command line compressor : C:\Program Files\Exact Audio Copy\Flac\flac.exe
Additional command line options : -8 -V -T "ARTIST=%artist%" -T "TITLE=%title%" -T "ALBUM=%albumtitle%" -T "DATE=%year%" -T "TRACKNUMBER=%tracknr%" -T "GENRE=%genre%" -T "COMMENT=ripped by DrStandBy" %source%


TOC of the extracted CD

Track | Start | Length | Start sector | End sector
––––––––––––––––––––––––––––-
1 | 0:00.00 | 6:05.52 | 0 | 27426
2 | 6:05.52 | 5:20.57 | 27427 | 51483
3 | 11:26.34 | 4:35.00 | 51484 | 72108
4 | 16:01.34 | 4:09.14 | 72109 | 90797
5 | 20:10.48 | 4:02.14 | 90798 | 108961
6 | 24:12.62 | 5:30.41 | 108962 | 133752
7 | 29:43.28 | 5:32.30 | 133753 | 158682
8 | 35:15.58 | 4:36.39 | 158683 | 179421
9 | 39:52.22 | 7:12.65 | 179422 | 211886
10 | 47:05.12 | 7:13.04 | 211887 | 244365
11 | 54:18.16 | 7:29.16 | 244366 | 278056
12 | 61:47.32 | 5:44.28 | 278057 | 303884
13 | 67:31.60 | 3:46.27 | 303885 | 320861
14 | 71:18.12 | 5:47.15 | 320862 | 346901
15 | 77:05.27 | 6:27.14 | 346902 | 375940


Track 1

Filename E:\Mike Francis\2011 - Anthology (Soundcolours #SC0327)\1-01. Mike Francis - Survivor.wav

Pre-gap length 0:00:02.00

Peak level 96.5 %
Extraction speed 1.2 X
Track quality 100.0 %
Test CRC 1CCE2118
Copy CRC 1CCE2118
Track not present in AccurateRip database
Copy OK

Track 2

Filename E:\Mike Francis\2011 - Anthology (Soundcolours #SC0327)\1-02. Mike Francis - Night Time Lady.wav

Pre-gap length 0:00:02.00

Peak level 98.3 %
Extraction speed 1.4 X
Track quality 100.0 %
Test CRC CF62614C
Copy CRC CF62614C
Track not present in AccurateRip database
Copy OK

Track 3

Filename E:\Mike Francis\2011 - Anthology (Soundcolours #SC0327)\1-03. Mike Francis - Cover Girl.wav

Pre-gap length 0:00:02.00

Peak level 97.2 %
Extraction speed 1.5 X
Track quality 100.0 %
Test CRC 59D85542
Copy CRC 59D85542
Track not present in AccurateRip database
Copy OK

Track 4

Filename E:\Mike Francis\2011 - Anthology (Soundcolours #SC0327)\1-04. Mike Francis - Late Summer Night.wav

Pre-gap length 0:00:02.00

Peak level 97.4 %
Extraction speed 1.5 X
Track quality 100.0 %
Test CRC AADB2CF7
Copy CRC AADB2CF7
Track not present in AccurateRip database
Copy OK

Track 5

Filename E:\Mike Francis\2011 - Anthology (Soundcolours #SC0327)\1-05. Mike Francis - This Love.wav

Pre-gap length 0:00:02.00

Peak level 96.7 %
Extraction speed 1.6 X
Track quality 100.0 %
Test CRC 6AFC8C4A
Copy CRC 6AFC8C4A
Track not present in AccurateRip database
Copy OK

Track 6

Filename E:\Mike Francis\2011 - Anthology (Soundcolours #SC0327)\1-06. Mike Francis - Fall In Love.wav

Pre-gap length 0:00:02.00

Peak level 96.8 %
Extraction speed 1.8 X
Track quality 100.0 %
Test CRC E8F98402
Copy CRC E8F98402
Track not present in AccurateRip database
Copy OK

Track 7

Filename E:\Mike Francis\2011 - Anthology (Soundcolours #SC0327)\1-07. Mike Francis - Let's Not Talk About It.wav

Pre-gap length 0:00:02.00

Peak level 96.6 %
Extraction speed 1.9 X
Track quality 100.0 %
Test CRC A327BC67
Copy CRC A327BC67
Track not present in AccurateRip database
Copy OK

Track 8

Filename E:\Mike Francis\2011 - Anthology (Soundcolours #SC0327)\1-08. Mike Francis - Love Has Found You.wav

Pre-gap length 0:00:02.00

Peak level 94.4 %
Extraction speed 1.7 X
Track quality 99.9 %
Test CRC F8FF533B
Copy CRC F8FF533B
Track not present in AccurateRip database
Copy OK

Track 9

Filename E:\Mike Francis\2011 - Anthology (Soundcolours #SC0327)\1-09. Mike Francis - Features Of Love (Club Mix).wav

Pre-gap length 0:00:02.00

Peak level 96.7 %
Extraction speed 2.1 X
Track quality 100.0 %
Test CRC 4B23E8E7
Copy CRC 4B23E8E7
Track not present in AccurateRip database
Copy OK

Track 10

Filename E:\Mike Francis\2011 - Anthology (Soundcolours #SC0327)\1-10. Mike Francis - Friends (Extended Version).wav

Pre-gap length 0:00:02.00

Peak level 99.9 %
Extraction speed 2.3 X
Track quality 100.0 %
Test CRC 4A5E5CB3
Copy CRC 4A5E5CB3
Track not present in AccurateRip database
Copy OK

Track 11

Filename E:\Mike Francis\2011 - Anthology (Soundcolours #SC0327)\1-11. Mike Francis - Let Me In (Extended Version).wav

Pre-gap length 0:00:02.00

Peak level 96.1 %
Extraction speed 2.2 X
Track quality 99.9 %
Test CRC 57C54C54
Copy CRC 57C54C54
Track not present in AccurateRip database
Copy OK

Track 12

Filename E:\Mike Francis\2011 - Anthology (Soundcolours #SC0327)\1-12. Mike Francis with Amii Stewart - That Loving Feeling.wav

Pre-gap length 0:00:02.00

Peak level 98.0 %
Extraction speed 2.5 X
Track quality 100.0 %
Test CRC F4BA60D4
Copy CRC F4BA60D4
Track not present in AccurateRip database
Copy OK

Track 13

Filename E:\Mike Francis\2011 - Anthology (Soundcolours #SC0327)\1-13. Mike Francis with Amii Stewart - Try Love.wav

Pre-gap length 0:00:02.00

Peak level 96.0 %
Extraction speed 2.3 X
Track quality 100.0 %
Test CRC 59182EB5
Copy CRC 59182EB5
Track not present in AccurateRip database
Copy OK

Track 14

Filename E:\Mike Francis\2011 - Anthology (Soundcolours #SC0327)\1-14. Mike Francis - Time Out Of Time (Extended Version).wav

Pre-gap length 0:00:02.00

Peak level 99.9 %
Extraction speed 2.5 X
Track quality 100.0 %
Test CRC 8D38E122
Copy CRC 8D38E122
Track not present in AccurateRip database
Copy OK

Track 15

Filename E:\Mike Francis\2011 - Anthology (Soundcolours #SC0327)\1-15. Mike Francis - Dreams Of A Lifetime (Extended Version).wav

Pre-gap length 0:00:02.00

Peak level 99.9 %
Extraction speed 2.7 X
Track quality 100.0 %
Test CRC 2A0888C6
Copy CRC 2A0888C6
Track not present in AccurateRip database
Copy OK


None of the tracks are present in the AccurateRip database

No errors occurred

End of status report

–– CUETools DB Plugin V2.1.3

[CTDB TOCID: f0LK5h.CY2qHhJmECIBr7wkEA3k-] disk not present in database, Submit result: f0LK5h.CY2qHhJmECIBr7wkEA3k- has been uploaded


==== Log checksum 706B12AAC17B7904491E9B167DD1EE03ECEFA8A82821A3744F17AA747D6932F7 ====


CD2:
01. Lovely Day (5:10)
02. Upside Down (5:54)
03. You Can't Get Out Of My Heart (4:28)
04. I'm Not In Love (4:36)
05. Special Girl (4:05)
06. Still I'm Running Back To You (2:55)
07. Don't Start Giving Up (4:49)
08. Dusty Road (4:30)
09. I Want You (3:44)
10. I Don't Care (3:31)
11. Fallin' On Down (4:42)
12. Message In The Eyes (4:48)
13. I Want You (4:13)
14. Together (Extended Version) (9:38)
15. Iron It Out (Remix) (9:23)
16. Suddenly Back To Me (Extended Version) (7:02)
Exact Audio Copy V1.0 beta 3 from 29. August 2011

EAC extraction logfile from 28. December 2011, 18:22

Mike Francis / Anthology (сurated By Blank & Jones)

Used drive : HL-DT-STDVDRAM GH22NS70 Adapter: 1 ID: 4

Read mode : Secure
Utilize accurate stream : Yes
Defeat audio cache : Yes
Make use of C2 pointers : No

Read offset correction : 667
Overread into Lead-In and Lead-Out : No
Fill up missing offset samples with silence : Yes
Delete leading and trailing silent blocks : No
Null samples used in CRC calculations : Yes
Used interface : Native Win32 interface for Win NT & 2000
Gap handling : Appended to previous track

Used output format : User Defined Encoder
Selected bitrate : 128 kBit/s
Quality : High
Add ID3 tag : No
Command line compressor : C:\Program Files\Exact Audio Copy\Flac\flac.exe
Additional command line options : -8 -V -T "ARTIST=%artist%" -T "TITLE=%title%" -T "ALBUM=%albumtitle%" -T "DATE=%year%" -T "TRACKNUMBER=%tracknr%" -T "GENRE=%genre%" -T "COMPOSER=%composer%" -T "COMMENT=ripped by DrStandBy" %source%


TOC of the extracted CD

Track | Start | Length | Start sector | End sector
––––––––––––––––––––––––––––-
1 | 0:00.00 | 5:10.09 | 0 | 23258
2 | 5:10.09 | 5:54.27 | 23259 | 49835
3 | 11:04.36 | 4:28.14 | 49836 | 69949
4 | 15:32.50 | 4:36.50 | 69950 | 90699
5 | 20:09.25 | 4:05.41 | 90700 | 109115
6 | 24:14.66 | 2:55.65 | 109116 | 122305
7 | 27:10.56 | 4:49.63 | 122306 | 144043
8 | 32:00.44 | 4:30.60 | 144044 | 164353
9 | 36:31.29 | 3:44.35 | 164354 | 181188
10 | 40:15.64 | 3:31.70 | 181189 | 197083
11 | 43:47.59 | 4:42.08 | 197084 | 218241
12 | 48:29.67 | 4:48.74 | 218242 | 239915
13 | 53:18.66 | 4:13.07 | 239916 | 258897
14 | 57:31.73 | 9:38.48 | 258898 | 302295
15 | 67:10.46 | 9:23.71 | 302296 | 344591
16 | 76:34.42 | 7:02.47 | 344592 | 376288


Track 1

Filename E:\Mike Francis\2011 - Anthology (Soundcolours #SC0327)\2-01. Mike Francis - Lovely Day.wav

Pre-gap length 0:00:02.00

Peak level 99.9 %
Extraction speed 1.2 X
Track quality 100.0 %
Test CRC 0571AA9C
Copy CRC 0571AA9C
Track not present in AccurateRip database
Copy OK

Track 2

Filename E:\Mike Francis\2011 - Anthology (Soundcolours #SC0327)\2-02. Mike Francis - Upside Down.wav

Pre-gap length 0:00:02.00

Peak level 99.8 %
Extraction speed 1.4 X
Track quality 100.0 %
Test CRC 313F4584
Copy CRC 313F4584
Track not present in AccurateRip database
Copy OK

Track 3

Filename E:\Mike Francis\2011 - Anthology (Soundcolours #SC0327)\2-03. Mike Francis - You Can't Get Out Of My Heart.wav

Pre-gap length 0:00:02.00

Peak level 99.9 %
Extraction speed 1.4 X
Track quality 100.0 %
Test CRC ED83F174
Copy CRC ED83F174
Track not present in AccurateRip database
Copy OK

Track 4

Filename E:\Mike Francis\2011 - Anthology (Soundcolours #SC0327)\2-04. Mike Francis - I'm Not In Love.wav

Pre-gap length 0:00:02.00

Peak level 99.6 %
Extraction speed 1.6 X
Track quality 100.0 %
Test CRC 176B2B35
Copy CRC 176B2B35
Track not present in AccurateRip database
Copy OK

Track 5

Filename E:\Mike Francis\2011 - Anthology (Soundcolours #SC0327)\2-05. Mike Francis - Special Girl.wav

Pre-gap length 0:00:02.00

Peak level 99.9 %
Extraction speed 1.6 X
Track quality 100.0 %
Test CRC 78234997
Copy CRC 78234997
Track not present in AccurateRip database
Copy OK

Track 6

Filename E:\Mike Francis\2011 - Anthology (Soundcolours #SC0327)\2-06. Mike Francis - Still I'm Running Back To You.wav

Pre-gap length 0:00:02.00

Peak level 99.9 %
Extraction speed 1.6 X
Track quality 100.0 %
Test CRC 50E5E766
Copy CRC 50E5E766
Track not present in AccurateRip database
Copy OK

Track 7

Filename E:\Mike Francis\2011 - Anthology (Soundcolours #SC0327)\2-07. Mike Francis - Don't Start Giving Up.wav

Pre-gap length 0:00:02.00

Peak level 99.9 %
Extraction speed 1.6 X
Track quality 99.9 %
Test CRC 0F61BA84
Copy CRC 0F61BA84
Track not present in AccurateRip database
Copy OK

Track 8

Filename E:\Mike Francis\2011 - Anthology (Soundcolours #SC0327)\2-08. Mike Francis - Dusty Road.wav

Pre-gap length 0:00:02.00

Peak level 99.9 %
Extraction speed 1.9 X
Track quality 100.0 %
Test CRC A7274BAD
Copy CRC A7274BAD
Track not present in AccurateRip database
Copy OK

Track 9

Filename E:\Mike Francis\2011 - Anthology (Soundcolours #SC0327)\2-09. Mike Francis - I Want You.wav

Pre-gap length 0:00:02.00

Peak level 99.6 %
Extraction speed 1.9 X
Track quality 100.0 %
Test CRC 3BFEE7F6
Copy CRC 3BFEE7F6
Track not present in AccurateRip database
Copy OK

Track 10

Filename E:\Mike Francis\2011 - Anthology (Soundcolours #SC0327)\2-10. Mike Francis - I Don't Care.wav

Pre-gap length 0:00:02.00

Peak level 99.9 %
Extraction speed 2.0 X
Track quality 100.0 %
Test CRC 90D2BC1B
Copy CRC 90D2BC1B
Track not present in AccurateRip database
Copy OK

Track 11

Filename E:\Mike Francis\2011 - Anthology (Soundcolours #SC0327)\2-11. Mike Francis - Fallin' On Down.wav

Pre-gap length 0:00:02.00

Peak level 99.9 %
Extraction speed 2.1 X
Track quality 100.0 %
Test CRC 364B4F8A
Copy CRC 364B4F8A
Track not present in AccurateRip database
Copy OK

Track 12

Filename E:\Mike Francis\2011 - Anthology (Soundcolours #SC0327)\2-12. Mike Francis - Message In The Eyes.wav

Pre-gap length 0:00:01.74

Peak level 99.9 %
Extraction speed 1.9 X
Track quality 99.9 %
Test CRC 074EA160
Copy CRC 074EA160
Track not present in AccurateRip database
Copy OK

Track 13

Filename E:\Mike Francis\2011 - Anthology (Soundcolours #SC0327)\2-13. Mike Francis - I Want You.wav

Pre-gap length 0:00:02.00

Peak level 99.9 %
Extraction speed 2.2 X
Track quality 100.0 %
Test CRC 5A547A65
Copy CRC 5A547A65
Track not present in AccurateRip database
Copy OK

Track 14

Filename E:\Mike Francis\2011 - Anthology (Soundcolours #SC0327)\2-14. Mike Francis - Together (Extended Version).wav

Pre-gap length 0:00:02.00

Peak level 99.9 %
Extraction speed 2.4 X
Track quality 99.9 %
Test CRC 8FF6A8A1
Copy CRC 8FF6A8A1
Track not present in AccurateRip database
Copy OK

Track 15

Filename E:\Mike Francis\2011 - Anthology (Soundcolours #SC0327)\2-15. Mike Francis - Iron It Out (Remix).wav

Pre-gap length 0:00:02.00

Peak level 99.9 %
Extraction speed 2.6 X
Track quality 100.0 %
Test CRC B6764F1F
Copy CRC B6764F1F
Track not present in AccurateRip database
Copy OK

Track 16

Filename E:\Mike Francis\2011 - Anthology (Soundcolours #SC0327)\2-16. Mike Francis - Suddenly Back To Me (Extended Version).wav

Pre-gap length 0:00:02.00

Peak level 99.9 %
Extraction speed 2.5 X
Track quality 99.9 %
Test CRC CBDB2200
Copy CRC CBDB2200
Track not present in AccurateRip database
Copy OK


None of the tracks are present in the AccurateRip database

No errors occurred

End of status report

–– CUETools DB Plugin V2.1.3

[CTDB TOCID: 9jekDrHAuzIcMdiUGjttobF6cVA-] disk not present in database, Submit result: 9jekDrHAuzIcMdiUGjttobF6cVA- has been uploaded


==== Log checksum 7DDA73D498CF3368E745CF089E05B96357CD658242486CA88A1FB20BAED00A00 ====


CD3:
01. On And On (3:01)
02. Body Thrill (2:55)
03. Fantasy Island (4:22)
04. Good And Bad Times (4:55)
05. Settle Down (3:38)
06. Don't Rock My Soul (5:34)
07. Noi (1:38)
08. Almeno Con Te (4:44)
09. Come Si Spiega (4:18)
10. La Piccola Canzone (3:51)
11. Complici (4:21)
12. Sigarette (4:32)
13. Ciao, Senza Rimorsi (3:25)
14. Bellissima Occhi Chiusi (4:52)
15. Chi Ama (4:58)
16. Ahi Amor (4:16)
17. Calmi Calmi (3:51)
18. Distesa (3:46)
19. Ci Credo Ancora (3:52)
20. Il Mio Amore Libero Per Te (3:53)
21. Se Non Avro' Che Te (2:25)
Exact Audio Copy V1.0 beta 3 from 29. August 2011

EAC extraction logfile from 28. December 2011, 23:43

Mike Francis / Anthology (curated By Blank & Jones)

Used drive : HL-DT-STDVDRAM GH22NS50 Adapter: 1 ID: 5

Read mode : Secure
Utilize accurate stream : Yes
Defeat audio cache : Yes
Make use of C2 pointers : No

Read offset correction : 667
Overread into Lead-In and Lead-Out : No
Fill up missing offset samples with silence : Yes
Delete leading and trailing silent blocks : No
Null samples used in CRC calculations : Yes
Used interface : Native Win32 interface for Win NT & 2000
Gap handling : Appended to previous track

Used output format : User Defined Encoder
Selected bitrate : 128 kBit/s
Quality : High
Add ID3 tag : No
Command line compressor : C:\Program Files\Exact Audio Copy\Flac\flac.exe
Additional command line options : -8 -V -T "ARTIST=%artist%" -T "TITLE=%title%" -T "ALBUM=%albumtitle%" -T "DATE=%year%" -T "TRACKNUMBER=%tracknr%" -T "GENRE=%genre%" -T "COMMENT=ripped by DrStandBy" %source%


TOC of the extracted CD

Track | Start | Length | Start sector | End sector
––––––––––––––––––––––––––––-
1 | 0:00.00 | 3:01.24 | 0 | 13598
2 | 3:01.24 | 2:55.16 | 13599 | 26739
3 | 5:56.40 | 4:22.38 | 26740 | 46427
4 | 10:19.03 | 4:55.04 | 46428 | 68556
5 | 15:14.07 | 3:38.12 | 68557 | 84918
6 | 18:52.19 | 5:34.33 | 84919 | 110001
7 | 24:26.52 | 1:38.40 | 110002 | 117391
8 | 26:05.17 | 4:44.11 | 117392 | 138702
9 | 30:49.28 | 4:18.36 | 138703 | 158088
10 | 35:07.64 | 3:51.55 | 158089 | 175468
11 | 38:59.44 | 4:21.60 | 175469 | 195103
12 | 43:21.29 | 4:32.27 | 195104 | 215530
13 | 47:53.56 | 3:25.43 | 215531 | 230948
14 | 51:19.24 | 4:52.19 | 230949 | 252867
15 | 56:11.43 | 4:58.10 | 252868 | 275227
16 | 61:09.53 | 4:16.22 | 275228 | 294449
17 | 65:26.00 | 3:51.59 | 294450 | 311833
18 | 69:17.59 | 3:46.55 | 311834 | 328838
19 | 73:04.39 | 3:52.09 | 328839 | 346247
20 | 76:56.48 | 3:53.35 | 346248 | 363757
21 | 80:50.08 | 2:25.10 | 363758 | 374642


Track 1

Filename E:\Mike Francis\2011 - Anthology (Soundcolours #SC0327)\3-01. Mike Francis - On And On.wav

Pre-gap length 0:00:02.00

Peak level 96.0 %
Extraction speed 1.1 X
Track quality 100.0 %
Test CRC EA7D1216
Copy CRC EA7D1216
Track not present in AccurateRip database
Copy OK

Track 2

Filename E:\Mike Francis\2011 - Anthology (Soundcolours #SC0327)\3-02. Mike Francis - Body Thrill.wav

Peak level 94.4 %
Extraction speed 1.1 X
Track quality 100.0 %
Test CRC 8788448C
Copy CRC 8788448C
Track not present in AccurateRip database
Copy OK

Track 3

Filename E:\Mike Francis\2011 - Anthology (Soundcolours #SC0327)\3-03. Mike Francis - Fantasy Island.wav

Pre-gap length 0:00:01.74

Peak level 95.6 %
Extraction speed 1.3 X
Track quality 100.0 %
Test CRC 1196001E
Copy CRC 1196001E
Track not present in AccurateRip database
Copy OK

Track 4

Filename E:\Mike Francis\2011 - Anthology (Soundcolours #SC0327)\3-04. Mike Francis - Good And Bad Times.wav

Pre-gap length 0:00:01.74

Peak level 94.6 %
Extraction speed 1.4 X
Track quality 100.0 %
Test CRC E89A7287
Copy CRC E89A7287
Track not present in AccurateRip database
Copy OK

Track 5

Filename E:\Mike Francis\2011 - Anthology (Soundcolours #SC0327)\3-05. Mike Francis - Settle Down.wav

Pre-gap length 0:00:01.74

Peak level 97.5 %
Extraction speed 1.5 X
Track quality 100.0 %
Test CRC 6DD7E250
Copy CRC 6DD7E250
Track not present in AccurateRip database
Copy OK

Track 6

Filename E:\Mike Francis\2011 - Anthology (Soundcolours #SC0327)\3-06. Mike Francis - Don't Rock My Soul.wav

Pre-gap length 0:00:01.74

Peak level 96.4 %
Extraction speed 1.7 X
Track quality 100.0 %
Test CRC B2C56E86
Copy CRC B2C56E86
Track not present in AccurateRip database
Copy OK

Track 7

Filename E:\Mike Francis\2011 - Anthology (Soundcolours #SC0327)\3-07. Mike Francis - Noi.wav

Pre-gap length 0:00:04.14

Peak level 96.8 %
Extraction speed 1.3 X
Track quality 100.0 %
Test CRC 2840CDBA
Copy CRC 2840CDBA
Track not present in AccurateRip database
Copy OK

Track 8

Filename E:\Mike Francis\2011 - Anthology (Soundcolours #SC0327)\3-08. Mike Francis - Almeno Con Te.wav

Pre-gap length 0:00:01.74

Peak level 97.5 %
Extraction speed 1.8 X
Track quality 100.0 %
Test CRC BA03581F
Copy CRC BA03581F
Track not present in AccurateRip database
Copy OK

Track 9

Filename E:\Mike Francis\2011 - Anthology (Soundcolours #SC0327)\3-09. Mike Francis - Come Si Spiega.wav

Pre-gap length 0:00:01.74

Peak level 98.6 %
Extraction speed 1.8 X
Track quality 100.0 %
Test CRC 3F95D5CF
Copy CRC 3F95D5CF
Track not present in AccurateRip database
Copy OK

Track 10

Filename E:\Mike Francis\2011 - Anthology (Soundcolours #SC0327)\3-10. Mike Francis - La Piccola Canzone.wav

Pre-gap length 0:00:01.74

Peak level 97.8 %
Extraction speed 1.6 X
Track quality 99.9 %
Test CRC 8003653F
Copy CRC 8003653F
Track not present in AccurateRip database
Copy OK

Track 11

Filename E:\Mike Francis\2011 - Anthology (Soundcolours #SC0327)\3-11. Mike Francis - Complici.wav

Pre-gap length 0:00:01.74

Peak level 98.1 %
Extraction speed 2.0 X
Track quality 100.0 %
Test CRC B9550B4B
Copy CRC B9550B4B
Track not present in AccurateRip database
Copy OK

Track 12

Filename E:\Mike Francis\2011 - Anthology (Soundcolours #SC0327)\3-12. Mike Francis - Sigarette.wav

Pre-gap length 0:00:01.74

Peak level 95.0 %
Extraction speed 2.1 X
Track quality 100.0 %
Test CRC E7DEE88D
Copy CRC E7DEE88D
Track not present in AccurateRip database
Copy OK

Track 13

Filename E:\Mike Francis\2011 - Anthology (Soundcolours #SC0327)\3-13. Mike Francis - Ciao, Senza Rimorsi.wav

Pre-gap length 0:00:01.74

Peak level 95.8 %
Extraction speed 2.1 X
Track quality 100.0 %
Test CRC E5105C64
Copy CRC E5105C64
Track not present in AccurateRip database
Copy OK

Track 14

Filename E:\Mike Francis\2011 - Anthology (Soundcolours #SC0327)\3-14. Mike Francis - Bellissima Occhi Chiusi.wav

Pre-gap length 0:00:01.74

Peak level 88.7 %
Extraction speed 2.2 X
Track quality 100.0 %
Test CRC D0859382
Copy CRC D0859382
Track not present in AccurateRip database
Copy OK

Track 15

Filename E:\Mike Francis\2011 - Anthology (Soundcolours #SC0327)\3-15. Mike Francis - Chi Ama.wav

Pre-gap length 0:00:01.73

Peak level 95.5 %
Extraction speed 2.0 X
Track quality 99.9 %
Test CRC D62175F8
Copy CRC D62175F8
Track not present in AccurateRip database
Copy OK

Track 16

Filename E:\Mike Francis\2011 - Anthology (Soundcolours #SC0327)\3-16. Mike Francis - Ahi Amor.wav

Pre-gap length 0:00:01.74

Peak level 94.6 %
Extraction speed 2.0 X
Track quality 99.9 %
Test CRC 85FB2E6B
Copy CRC 85FB2E6B
Track not present in AccurateRip database
Copy OK

Track 17

Filename E:\Mike Francis\2011 - Anthology (Soundcolours #SC0327)\3-17. Mike Francis - Calmi Calmi.wav

Pre-gap length 0:00:01.74

Peak level 96.2 %
Extraction speed 2.4 X
Track quality 100.0 %
Test CRC 0BE87D84
Copy CRC 0BE87D84
Track not present in AccurateRip database
Copy OK

Track 18

Filename E:\Mike Francis\2011 - Anthology (Soundcolours #SC0327)\3-18. Mike Francis - Distesa.wav

Pre-gap length 0:00:01.74

Peak level 96.8 %
Extraction speed 2.1 X
Track quality 99.9 %
Test CRC 42026978
Copy CRC 42026978
Track not present in AccurateRip database
Copy OK

Track 19

Filename E:\Mike Francis\2011 - Anthology (Soundcolours #SC0327)\3-19. Mike Francis - Ci Credo Ancora.wav

Pre-gap length 0:00:01.74

Peak level 94.3 %
Extraction speed 2.5 X
Track quality 100.0 %
Test CRC 8EE964DD
Copy CRC 8EE964DD
Track not present in AccurateRip database
Copy OK

Track 20

Filename E:\Mike Francis\2011 - Anthology (Soundcolours #SC0327)\3-20. Mike Francis - Il Mio Amore Libero Per Te.wav

Pre-gap length 0:00:01.74

Peak level 95.1 %
Extraction speed 2.5 X
Track quality 100.0 %
Test CRC 26A1E734
Copy CRC 26A1E734
Track not present in AccurateRip database
Copy OK

Track 21

Filename E:\Mike Francis\2011 - Anthology (Soundcolours #SC0327)\3-21. Mike Francis - Se Non Avro' Che Te.wav

Pre-gap length 0:00:01.74

Peak level 95.0 %
Extraction speed 2.0 X
Track quality 99.9 %
Test CRC BD5E27EA
Copy CRC BD5E27EA
Track not present in AccurateRip database
Copy OK


None of the tracks are present in the AccurateRip database

No errors occurred

End of status report

–– CUETools DB Plugin V2.1.3

[CTDB TOCID: nywlCq0.YwvLZ4ytkXslIFG_POs-] disk not present in database, Submit result: nywlCq0.YwvLZ4ytkXslIFG_POs- has been uploaded


==== Log checksum 7A7CB60637BD3C789707594EB1AD62C551AF8667D2B59B78DF9B0BC16F0C6DDC ====


CD4:
01. City Lights (4:29)
02. Summer Breeze (4:21)
03. Someone Like You (5:12)
04. Survivor (4:05)
05. Quedate (4:19)
06. Don't Let Me Be Lonely Tonight (2:33)
07. Thinking Of You (3:21)
08. Bossa Per Emilia (2:48)
09. Time (3:24)
10. That Loving Feeling (5:43)
11. Perfect Love (4:01)
12. Down (4:08)
13. Friends (4:41)
14. Roots - Nothing Can Come Between Us (7:05)
15. I Love You (Late Night Mix) (4:34)
16. Lovin' It Up (with Bros2) (3:56)
17. Still The Same (3:40)
18. Let's Get It On (Live) (4:25)
19. Say Love (Live) (4:28)
Exact Audio Copy V1.0 beta 3 from 29. August 2011

EAC extraction logfile from 29. December 2011, 7:17

Mike Francis / Anthology (curated By Blank & Jones)

Used drive : HL-DT-STDVDRAM GH22NS50 Adapter: 1 ID: 5

Read mode : Secure
Utilize accurate stream : Yes
Defeat audio cache : Yes
Make use of C2 pointers : No

Read offset correction : 667
Overread into Lead-In and Lead-Out : No
Fill up missing offset samples with silence : Yes
Delete leading and trailing silent blocks : No
Null samples used in CRC calculations : Yes
Used interface : Native Win32 interface for Win NT & 2000
Gap handling : Appended to previous track

Used output format : User Defined Encoder
Selected bitrate : 128 kBit/s
Quality : High
Add ID3 tag : No
Command line compressor : C:\Program Files\Exact Audio Copy\Flac\flac.exe
Additional command line options : -8 -V -T "ARTIST=%artist%" -T "TITLE=%title%" -T "ALBUM=%albumtitle%" -T "DATE=%year%" -T "TRACKNUMBER=%tracknr%" -T "GENRE=%genre%" -T "COMMENT=ripped by DrStandBy" %source%


TOC of the extracted CD

Track | Start | Length | Start sector | End sector
––––––––––––––––––––––––––––-
1 | 0:00.00 | 4:29.64 | 0 | 20238
2 | 4:29.64 | 4:21.00 | 20239 | 39813
3 | 8:50.64 | 5:12.34 | 39814 | 63247
4 | 14:03.23 | 4:05.44 | 63248 | 81666
5 | 18:08.67 | 4:19.63 | 81667 | 101154
6 | 22:28.55 | 2:33.37 | 101155 | 112666
7 | 25:02.17 | 3:21.33 | 112667 | 127774
8 | 28:23.50 | 2:48.52 | 127775 | 140426
9 | 31:12.27 | 3:24.36 | 140427 | 155762
10 | 34:36.63 | 5:43.28 | 155763 | 181515
11 | 40:20.16 | 4:01.08 | 181516 | 199598
12 | 44:21.24 | 4:08.31 | 199599 | 218229
13 | 48:29.55 | 4:41.58 | 218230 | 239362
14 | 53:11.38 | 7:05.19 | 239363 | 271256
15 | 60:16.57 | 4:34.38 | 271257 | 291844
16 | 64:51.20 | 3:56.02 | 291845 | 309546
17 | 68:47.22 | 3:40.36 | 309547 | 326082
18 | 72:27.58 | 4:25.62 | 326083 | 346019
19 | 76:53.45 | 4:28.23 | 346020 | 366142


Track 1

Filename E:\Mike Francis\2011 - Anthology (Soundcolours #SC0327)\4-01. Mike Francis - City Lights.wav

Pre-gap length 0:00:02.00

Peak level 98.0 %
Extraction speed 1.2 X
Track quality 100.0 %
Test CRC 3A3CF742
Copy CRC 3A3CF742
Track not present in AccurateRip database
Copy OK

Track 2

Filename E:\Mike Francis\2011 - Anthology (Soundcolours #SC0327)\4-02. Mike Francis - Summer Breeze.wav

Pre-gap length 0:00:02.00

Peak level 95.7 %
Extraction speed 1.3 X
Track quality 100.0 %
Test CRC 973BCE17
Copy CRC 973BCE17
Track not present in AccurateRip database
Copy OK

Track 3

Filename E:\Mike Francis\2011 - Anthology (Soundcolours #SC0327)\4-03. Mike Francis - Someone Like You.wav

Pre-gap length 0:00:02.00

Peak level 99.9 %
Extraction speed 1.4 X
Track quality 100.0 %
Test CRC C7B3830A
Copy CRC C7B3830A
Track not present in AccurateRip database
Copy OK

Track 4

Filename E:\Mike Francis\2011 - Anthology (Soundcolours #SC0327)\4-04. Mike Francis - Survivor.wav

Pre-gap length 0:00:02.00

Peak level 99.6 %
Extraction speed 1.5 X
Track quality 100.0 %
Test CRC E4E5AE9B
Copy CRC E4E5AE9B
Track not present in AccurateRip database
Copy OK

Track 5

Filename E:\Mike Francis\2011 - Anthology (Soundcolours #SC0327)\4-05. Mike Francis - Quedate.wav

Pre-gap length 0:00:02.00

Peak level 99.9 %
Extraction speed 1.6 X
Track quality 100.0 %
Test CRC 03BC9074
Copy CRC 03BC9074
Track not present in AccurateRip database
Copy OK

Track 6

Filename E:\Mike Francis\2011 - Anthology (Soundcolours #SC0327)\4-06. Mike Francis - Don't Let Me Be Lonely Tonight.wav

Pre-gap length 0:00:02.00

Peak level 96.1 %
Extraction speed 1.5 X
Track quality 100.0 %
Test CRC 6B7DED3C
Copy CRC 6B7DED3C
Track not present in AccurateRip database
Copy OK

Track 7

Filename E:\Mike Francis\2011 - Anthology (Soundcolours #SC0327)\4-07. Mike Francis - Thinking Of You.wav

Pre-gap length 0:00:02.00

Peak level 95.1 %
Extraction speed 1.6 X
Track quality 100.0 %
Test CRC 9E294A29
Copy CRC 9E294A29
Track not present in AccurateRip database
Copy OK

Track 8

Filename E:\Mike Francis\2011 - Anthology (Soundcolours #SC0327)\4-08. Mike Francis - Bossa Per Emilia.wav

Pre-gap length 0:00:02.00

Peak level 95.2 %
Extraction speed 1.7 X
Track quality 100.0 %
Test CRC 35DEB7F8
Copy CRC 35DEB7F8
Track not present in AccurateRip database
Copy OK

Track 9

Filename E:\Mike Francis\2011 - Anthology (Soundcolours #SC0327)\4-09. Mike Francis - Time.wav

Pre-gap length 0:00:02.00

Peak level 92.2 %
Extraction speed 1.5 X
Track quality 99.9 %
Test CRC 62D8DECB
Copy CRC 62D8DECB
Track not present in AccurateRip database
Copy OK

Track 10

Filename E:\Mike Francis\2011 - Anthology (Soundcolours #SC0327)\4-10. Mike Francis - That Loving Feeling.wav

Pre-gap length 0:00:02.00

Peak level 92.2 %
Extraction speed 2.0 X
Track quality 100.0 %
Test CRC 375EFCE7
Copy CRC 375EFCE7
Track not present in AccurateRip database
Copy OK

Track 11

Filename E:\Mike Francis\2011 - Anthology (Soundcolours #SC0327)\4-11. Mike Francis - Perfect Love.wav

Pre-gap length 0:00:02.00

Peak level 92.8 %
Extraction speed 2.0 X
Track quality 100.0 %
Test CRC E414877B
Copy CRC E414877B
Track not present in AccurateRip database
Copy OK

Track 12

Filename E:\Mike Francis\2011 - Anthology (Soundcolours #SC0327)\4-12. Mike Francis - Down.wav

Pre-gap length 0:00:03.55

Peak level 99.8 %
Extraction speed 2.1 X
Track quality 100.0 %
Test CRC 0BC93859
Copy CRC 0BC93859
Track not present in AccurateRip database
Copy OK

Track 13

Filename E:\Mike Francis\2011 - Anthology (Soundcolours #SC0327)\4-13. Mike Francis - Friends.wav

Pre-gap length 0:00:01.74

Peak level 93.7 %
Extraction speed 2.1 X
Track quality 100.0 %
Test CRC EF579F81
Copy CRC EF579F81
Track not present in AccurateRip database
Copy OK

Track 14

Filename E:\Mike Francis\2011 - Anthology (Soundcolours #SC0327)\4-14. Roots - Nothing Can Come Between Us.wav

Pre-gap length 0:00:02.00

Peak level 99.9 %
Extraction speed 2.3 X
Track quality 100.0 %
Test CRC 762E71F8
Copy CRC 762E71F8
Track not present in AccurateRip database
Copy OK

Track 15

Filename E:\Mike Francis\2011 - Anthology (Soundcolours #SC0327)\4-15. Mike Francis - I Love You (Late Night Mix).wav

Pre-gap length 0:00:02.00

Peak level 95.4 %
Extraction speed 2.3 X
Track quality 100.0 %
Test CRC 412E7FF7
Copy CRC 412E7FF7
Track not present in AccurateRip database
Copy OK

Track 16

Filename E:\Mike Francis\2011 - Anthology (Soundcolours #SC0327)\4-16. Mike Francis with Bros2 - Lovin' It Up.wav

Pre-gap length 0:00:02.00

Peak level 98.1 %
Extraction speed 2.0 X
Track quality 99.9 %
Test CRC 1087A647
Copy CRC 1087A647
Track not present in AccurateRip database
Copy OK

Track 17

Filename E:\Mike Francis\2011 - Anthology (Soundcolours #SC0327)\4-17. Mike Francis - Still The Same.wav

Pre-gap length 0:00:02.00

Peak level 94.7 %
Extraction speed 2.4 X
Track quality 100.0 %
Test CRC FFD8BCEE
Copy CRC FFD8BCEE
Track not present in AccurateRip database
Copy OK

Track 18

Filename E:\Mike Francis\2011 - Anthology (Soundcolours #SC0327)\4-18. Mike Francis - Let's Get It On (Live).wav

Pre-gap length 0:00:02.00

Peak level 98.9 %
Extraction speed 2.4 X
Track quality 100.0 %
Test CRC 5DBCDE07
Copy CRC 5DBCDE07
Track not present in AccurateRip database
Copy OK

Track 19

Filename E:\Mike Francis\2011 - Anthology (Soundcolours #SC0327)\4-19. Mike Francis - Say Love (Live).wav

Peak level 99.9 %
Extraction speed 2.5 X
Track quality 100.0 %
Test CRC 292B865E
Copy CRC 292B865E
Track not present in AccurateRip database
Copy OK


None of the tracks are present in the AccurateRip database

No errors occurred

End of status report

–– CUETools DB Plugin V2.1.3

[CTDB TOCID: PbdOyxLH4KWlCHYC8kwRDFPGTnw-] disk not present in database, Submit result: PbdOyxLH4KWlCHYC8kwRDFPGTnw- has been uploaded


==== Log checksum 02FF2B91306DA27FDC5AFDC6D1FF667069756D9044D6C818E724A78343062126 ====


Try before you might buy. Support the artists you like and buy their stuff whenever you can afford it.


Please DO NOT MIRROR

If you'll find that my links are dead please let me know through the Private Messages.

>>> Visit My Blog Here <<<

Subscribe to My Newsletter!

Mike Francis - Anthology (Curated by Blank & Jones) (2011) [RE-UP]
Password: music