Tags
Language
Tags

Eleni Karaindrou - Music For The Theatre - Μουσική για το Θέατρο (2010) {3CDSet, Mikri Arktos MA15232-24 rec 1986 -2010}

Posted By: ruskaval
Eleni Karaindrou - Music For The Theatre - Μουσική για το Θέατρο (2010) {3CDSet, Mikri Arktos MA15232-24 rec 1986 -2010}

Eleni Karaindrou - Music For The Theatre - Μουσική για το Θέατρο (2010) {3CDSet, Mikri Arktos MA15232-24 rec 1986 -2010}
EAC rip (secure mode) | FLAC (tracks)+CUE+LOG -> 823 Mb | MP3 @320 -> 429 Mb
Full Artwork @ 600 dpi (jpg) -> 98 Mb | 5% repair rar
© 1986-2010 Eleni Karaindrou / Mikri Arktos | MA 15232-24
Jazz / Classical / Electronic / Stage & Screen / Ambient

These recordings which were assembled to keep alive the memory of unique moments and meetings, are those prime compositions that were written in a state of excitement, with the passion and innocence of first look. Eleni Karaindrou / From the liner notes

Eleni Karaindrou - Music For The Theatre - Μουσική για το Θέατρο (2010) {3CDSet, Mikri Arktos MA15232-24 rec 1986 -2010}


Music lovers of Eleni Karaindrou have every reason to rejoice. More than 3 hours of music, written for 22 plays, directed by Antonis Antypas (1986-2010) moved to a historical version - documentary on the Mikri Arktos, a 3 CD to accompany an elegant book, enriched with photographs of performances, reviews and information on the recordings.

The cooperation of Eleni Karaindrou director and partner Anthony Antipa began in 1986 when he suggested she composed music for "Victory" by Loula Anagnostakis.

3 CD set in the dramaturgy of the sign itself composers, including musical themes that embrace a period of 24 years of cooperation through the play "Who's Afraid of Virginia Woolf '(1 the Music Award - theatrical audience awards ATHINORAMA 2010).

Eleni Karaindrou - Music For The Theatre - Μουσική για το Θέατρο (2010) {3CDSet, Mikri Arktos MA15232-24 rec 1986 -2010}


The public and especially the theatergoers will enjoy compositions by Uprooting, A husband, A moon for misbegotten, the Shadow of Mart, the Rosmersholm, Long Day’s Journey into Night, the Birthday Party, The Glass Menagerie, Nike etc.

Wonderful interpretations of great soloists (Nick Ginos, Vangelis Christopoulos, Stella Gadedi, David Lynch, Vangelis Skouras, and many others), the first executions revive authentic magical atmospheres of representations which have been loved from the audience.

Eleni Karaindrou - Music For The Theatre - Μουσική για το Θέατρο (2010) {3CDSet, Mikri Arktos MA15232-24 rec 1986 -2010}


This wonderful journey into the musical world of Eleni Karaindrou and award-winning music for theater, complete the "Album" for 20 years of " Cultural Organization Range - STANDARD THEATRE " in Anthony Antypas .
For the director, Anthony Antypas, "the issue This seems to be the voice of the album, "something like the soundtrack of the performances.

For the songwriter, "The music pieces of each work, all together, look to me like a musical mosaic which unfolds the story of two persons who deeply loved the theatre which travelled them beyond the time"

The cover of the book is crafted with the project "Water" by Andreas Georgiadis .
The release is a Paraskevas Karasoulos production, design by Andreas Georgiadis and editing Paraskevi Gerolymatou.
Eleni Karaindrou - Music For The Theatre - Μουσική για το Θέατρο (2010) {3CDSet, Mikri Arktos MA15232-24 rec 1986 -2010}


Personnel:
Eleni Karaindrou piano
Vangelis Christopoulos oboe
Spyros Kazianis bassoon
Stela Gadedi flute
Christos Sfetsas cello
David Lynch tenox sax
Spyros Goumas bouzouki
Giorgos Georgiadis bass
Stavros Lantsias piano
Nikos Guinos clarinet
[see artwork for more…]

tracklist in English:
CD1

Brian Friel – Translations

1. Translations
2. The new map
3. I like the way that you speak. It has a music.
4. Feast
5. The love of M?ire and Yolland
6. Urbs Antiqua fuit

Henrik Ibsen – Ghosts

7. Ghosts
8. What happens Mrs Alving
9. Fire in the orphanage
10. The sun-the sun

Harold Pinter – The Birthday Party

11. Threat
12. Goldberg’s and McCann arrival
13. Stanley hits the tambour
14. But, what the hell, where is he?
15. She disappear
16. McCann’s song
17. They bring Stankey
18. Don't let them do what they want
19. I was the queen of the evening

Brian Friel – Faith healer

20. Aberarder, Aberiron
21. Questions
22. Mother’s death
23. I am a creature of his imagination
24. I don’t give importance in accidental

Leonidas Prousalidis – Seven logical answers

25. House wreck
26. Don’t ever say “I had finished with this”
27. Twenty two years before
28. Let tell him that it’s not his fault
29. It ‘s a little girl
30. Polixeni‘s memory
31. You know where they have found her?
32. Dream
33. The phone call
34. Clarinet I
35. Anna’s song
36. Father’s theme
37. Clarinet II
38. Don’t wait for me, I will not come

Edward Albee – Who’s afraid of Virginia Woolf

39. Playing and learning
40. The night of the sorceress
41. George and Martha’s theme
42. Men, march!
43. Our boy is dead
44. The exorcism
45. Me, George, me

Eugene O’Neill – Long Day’s Journey into Night

46. Morning mist
47. I apologize that I spoke
48. There ‘s no use anymore
49. Suspicions I
50. Why I feel so lonely
51. What cure?
52. I don’t know what are you talking about, James
53. Suspicions II
54. For a while I was very happy

Eleni Karaindrou - Music For The Theatre - Μουσική για το Θέατρο (2010) {3CDSet, Mikri Arktos MA15232-24 rec 1986 -2010}


CD2

David Hare – The breath of life

1. The meeting
2. Searching for answers
3. As the night pass
4. Painful recollection
5. Breath of life

Italo Svevo – A Husband

6. The presentiment
7. Remembrance of Clara
8. Inconsiderateness
9. The letter
10. Exit
11. Federico’s doubts
12. Only tears will save me
13. Clara’s wedding dress

David Mamet – Oleanna

14. The crack
15. Threatening web
16. Party with surprises
17. The list
18. Statement of failure

Franz Xaver Kroetz - New Horizons

19. Preparations
20. Account
21. Farewell
22. The cage

Fran?oise Sagan - Bonheur, impair et pass?

23. Duel in Petersburg
24. Coup de foudre
25. To make my suitcases
26. The departure
27. The jealousy
28. Vladimir’s confession
29. The triumph of love
30. I love only you

Brian Friel – Molly Sweeney

31. Illusions
32. The painful hope
33. Desperation – Rocks in Ireland

Harold Pinter – Moonlight

34. Night without moon
35. All the past in acloud
36. Neither consolation nor shelter
37. Alienation
38. Presentiment of death
39. What they wait for?
40. Bridget in the moonlight

Eugene O’Neill – A moon for misbegotten

41. A moon for misbegotten
42. I like when someone takes care for me
43. Waiting
44. Midnight with daydreams
45. Train song
46. Forgiveness
47. Josie’s wish

Eleni Karaindrou - Music For The Theatre - Μουσική για το Θέατρο (2010) {3CDSet, Mikri Arktos MA15232-24 rec 1986 -2010}


CD3

Tennessee Williams – The Glass Menagerie

1. Recollection – Tom’s theme
2. The Glass Menagerie
3. Nocturnal blues
4. Uneasiness
5. See how I was waltzing
6. Dancing club “The Paradise”
7. The Glass Menagerie
8. Waltz
9. Tango
10. Blow out the candles Laura

Stig Dagerman - The Shadow of Mart

11. The Shadow of Mart
12. Parade – recollection
13. Mart’s portrait
14. Therese plays the piano
15. A hero
16. A quatre mains
17. Gabriel

Anton Chekhov – The seagull

18. The seagull
19. Nina’s theme
20. The sorcery of the lake
21. The killed seagull
22. Kostia’s theme
23. Don’t speak to me for love

Joe Orton – Loot

24. The mystery of the locked wardrobe
25. The glass eye
26. The investigation
27. The unwrap
28. The empty coffin
29. The Pretenses

Harold Pinter – No man’s land

30. For a drink
31. Jack Straw’s Pub
32. As the night pass
33. The album

Henrik Ibsen – Rosmersholm

34. Rebecca’s waiting
35. Goodnight. I ‘m going to my room
36. The stream of the mill I
37. Me to I leave with you
38. The stream of the mill II
39. And the white horses of Rosmersholm come out early
40. The late Lady took them

Loula Anagnostaki – The victory

41. In Germany
42. Engagement – Thimios’s zeibekiko dance
43. Phone call from Germany
44. Dance – Betrayal
45. Wandering musicians
46. Niko’s death
Departure to Greece – The letter

Eleni Karaindrou - Music For The Theatre - Μουσική για το Θέατρο (2010) {3CDSet, Mikri Arktos MA15232-24 rec 1986 -2010}


Exact Audio Copy V1.0 beta 2 from 29. April 2011

EAC extraction logfile from 8. September 2011, 20:40

Eleni Karaindrou / Music for the theatre CD1

Used drive : Optiarc DVD RW AD-7240S Adapter: 3 ID: 1

Read mode : Secure
Utilize accurate stream : Yes
Defeat audio cache : Yes
Make use of C2 pointers : No

Read offset correction : 48
Overread into Lead-In and Lead-Out : No
Fill up missing offset samples with silence : Yes
Delete leading and trailing silent blocks : No
Null samples used in CRC calculations : Yes
Used interface : Installed external ASPI interface
Gap handling : Appended to previous track

Used output format : User Defined Encoder
Selected bitrate : 896 kBit/s
Quality : High
Add ID3 tag : No
Command line compressor : C:\Program Files\Exact Audio Copy\Flac\flac.exe
Additional command line options : -8 -V -T "ARTIST=%artist%" -T "TITLE=%title%" -T "ALBUM=%albumtitle%" -T "DATE=%year%" -T "TRACKNUMBER=%tracknr%" -T "TOTALTRACKS=%numtracks%" -T "GENRE=%genre%" -T "ALBUMARTIST=%albumartist%" -T "ALBUM ARTIST=%albumartist%


TOC of the extracted CD

Track | Start | Length | Start sector | End sector
––––––––––––––––––––––––––––-
1 | 0:00.00 | 1:54.36 | 0 | 8585
2 | 1:54.36 | 1:27.15 | 8586 | 15125
3 | 3:21.51 | 3:43.27 | 15126 | 31877
4 | 7:05.03 | 0:40.72 | 31878 | 34949
5 | 7:46.00 | 1:57.60 | 34950 | 43784
6 | 9:43.60 | 1:57.20 | 43785 | 52579
7 | 11:41.05 | 1:30.62 | 52580 | 59391
8 | 13:11.67 | 1:49.39 | 59392 | 67605
9 | 15:01.31 | 1:51.67 | 67606 | 75997
10 | 16:53.23 | 1:21.50 | 75998 | 82122
11 | 18:14.73 | 1:01.63 | 82123 | 86760
12 | 19:16.61 | 0:43.35 | 86761 | 90020
13 | 20:00.21 | 0:39.32 | 90021 | 92977
14 | 20:39.53 | 0:36.54 | 92978 | 95731
15 | 21:16.32 | 1:21.65 | 95732 | 101871
16 | 22:38.22 | 1:42.53 | 101872 | 109574
17 | 24:21.00 | 1:11.09 | 109575 | 114908
18 | 25:32.09 | 1:28.63 | 114909 | 121571
19 | 27:00.72 | 1:51.66 | 121572 | 129962
20 | 28:52.63 | 1:25.04 | 129963 | 136341
21 | 30:17.67 | 0:50.38 | 136342 | 140129
22 | 31:08.30 | 1:14.11 | 140130 | 145690
23 | 32:22.41 | 1:04.27 | 145691 | 150517
24 | 33:26.68 | 0:29.07 | 150518 | 152699
25 | 33:56.00 | 1:47.16 | 152700 | 160740
26 | 35:43.16 | 0:26.10 | 160741 | 162700
27 | 36:09.26 | 0:53.46 | 162701 | 166721
28 | 37:02.72 | 1:00.66 | 166722 | 171287
29 | 38:03.63 | 1:07.64 | 171288 | 176376
30 | 39:11.52 | 0:36.41 | 176377 | 179117
31 | 39:48.18 | 1:10.38 | 179118 | 184405
32 | 40:58.56 | 1:08.52 | 184406 | 189557
33 | 42:07.33 | 1:03.00 | 189558 | 194282
34 | 43:10.33 | 0:39.31 | 194283 | 197238
35 | 43:49.64 | 1:03.74 | 197239 | 202037
36 | 44:53.63 | 1:13.25 | 202038 | 207537
37 | 46:07.13 | 0:44.05 | 207538 | 210842
38 | 46:51.18 | 1:30.28 | 210843 | 217620
39 | 48:21.46 | 0:45.58 | 217621 | 221053
40 | 49:07.29 | 0:55.19 | 221054 | 225197
41 | 50:02.48 | 0:52.34 | 225198 | 229131
42 | 50:55.07 | 3:43.63 | 229132 | 245919
43 | 54:38.70 | 0:46.67 | 245920 | 249436
44 | 55:25.62 | 0:29.39 | 249437 | 251650
45 | 55:55.26 | 0:24.34 | 251651 | 253484
46 | 56:19.60 | 0:52.55 | 253485 | 257439
47 | 57:12.40 | 0:28.42 | 257440 | 259581
48 | 57:41.07 | 0:58.15 | 259582 | 263946
49 | 58:39.22 | 0:35.21 | 263947 | 266592
50 | 59:14.43 | 0:36.65 | 266593 | 269357
51 | 59:51.33 | 0:56.25 | 269358 | 273582
52 | 60:47.58 | 1:46.25 | 273583 | 281557
53 | 62:34.08 | 0:37.32 | 281558 | 284364
54 | 63:11.40 | 0:58.68 | 284365 | 288782


Track 1

Filename F:\AneL\MY RIPS\01 - O kserizomos.wav

Pre-gap length 0:00:02.00

Peak level 87.9 %
Extraction speed 1.9 X
Track quality 100.0 %
Test CRC A41D13DA
Copy CRC A41D13DA
Accurately ripped (confidence 2) [1C920127] (AR v2)
Copy OK

Track 2

Filename F:\AneL\MY RIPS\02 - O kainourios xartis.wav

Peak level 99.6 %
Extraction speed 1.8 X
Track quality 100.0 %
Test CRC 16842236
Copy CRC 16842236
Accurately ripped (confidence 2) [6A10E9FD] (AR v2)
Copy OK

Track 3

Filename F:\AneL\MY RIPS\03 - M' aresei i milia sou, exei mia mousiki.wav

Peak level 49.2 %
Extraction speed 2.4 X
Track quality 100.0 %
Test CRC E9A641A2
Copy CRC E9A641A2
Accurately ripped (confidence 2) [032AD745] (AR v2)
Copy OK

Track 4

Filename F:\AneL\MY RIPS\04 - Giorti.wav

Peak level 68.6 %
Extraction speed 1.5 X
Track quality 100.0 %
Test CRC AA16D312
Copy CRC AA16D312
Accurately ripped (confidence 2) [FFA02BA5] (AR v2)
Copy OK

Track 5

Filename F:\AneL\MY RIPS\05 - O erotas tis Meiri kai tou Giolant.wav

Peak level 49.1 %
Extraction speed 2.3 X
Track quality 100.0 %
Test CRC 09A1F79D
Copy CRC 09A1F79D
Accurately ripped (confidence 2) [AD27099E] (AR v2)
Copy OK

Track 6

Filename F:\AneL\MY RIPS\06 - Urbs Antiqua fuit (Karxidona).wav

Peak level 89.2 %
Extraction speed 2.4 X
Track quality 100.0 %
Test CRC DFC7AC89
Copy CRC DFC7AC89
Accurately ripped (confidence 2) [63A152B4] (AR v2)
Copy OK

Track 7

Filename F:\AneL\MY RIPS\07 - Vrikolakes.wav

Peak level 95.3 %
Extraction speed 2.3 X
Track quality 100.0 %
Test CRC 1A67B916
Copy CRC 1A67B916
Accurately ripped (confidence 2) [4F11E953] (AR v2)
Copy OK

Track 8

Filename F:\AneL\MY RIPS\08 - Ti simbainei kyria Alvin.wav

Peak level 99.8 %
Extraction speed 2.0 X
Track quality 99.9 %
Test CRC 056EF821
Copy CRC 056EF821
Accurately ripped (confidence 2) [98E59531] (AR v2)
Copy OK

Track 9

Filename F:\AneL\MY RIPS\09 - Fotia sto orfanotrofeio.wav

Peak level 83.4 %
Extraction speed 2.1 X
Track quality 99.9 %
Test CRC 6D460F99
Copy CRC 6D460F99
Accurately ripped (confidence 2) [EBE62CA3] (AR v2)
Copy OK

Track 10

Filename F:\AneL\MY RIPS\10 - Ton ilio ton ilio.wav

Peak level 72.9 %
Extraction speed 1.8 X
Track quality 99.8 %
Test CRC AC277191
Copy CRC AC277191
Accurately ripped (confidence 2) [D294E66A] (AR v2)
Copy OK

Track 11

Filename F:\AneL\MY RIPS\11 - Apili.wav

Peak level 96.3 %
Extraction speed 2.3 X
Track quality 100.0 %
Test CRC 9BB57864
Copy CRC 9BB57864
Accurately ripped (confidence 2) [429FF90D] (AR v2)
Copy OK

Track 12

Filename F:\AneL\MY RIPS\12 - Eisodos Goldberg kai Macan.wav

Peak level 45.9 %
Extraction speed 1.3 X
Track quality 99.7 %
Test CRC 4E22AE85
Copy CRC 4E22AE85
Accurately ripped (confidence 2) [795F8813] (AR v2)
Copy OK

Track 13

Filename F:\AneL\MY RIPS\13 - O Stanley xtipaei to tabourlo.wav

Peak level 80.9 %
Extraction speed 1.9 X
Track quality 100.0 %
Test CRC 18093655
Copy CRC 18093655
Accurately ripped (confidence 2) [2976C839] (AR v2)
Copy OK

Track 14

Filename F:\AneL\MY RIPS\14 - Ma pou diavolo einai.wav

Peak level 44.9 %
Extraction speed 1.8 X
Track quality 100.0 %
Test CRC 8C8F5D4B
Copy CRC 8C8F5D4B
Accurately ripped (confidence 2) [8AB6623D] (AR v2)
Copy OK

Track 15

Filename F:\AneL\MY RIPS\15 - Afanti egine.wav

Peak level 86.7 %
Extraction speed 2.6 X
Track quality 100.0 %
Test CRC E3C87BB9
Copy CRC E3C87BB9
Accurately ripped (confidence 2) [906B7010] (AR v2)
Copy OK

Track 16

Filename F:\AneL\MY RIPS\16 - To tragoudi tou Macan (Yannis Finas).wav

Peak level 99.9 %
Extraction speed 2.9 X
Track quality 100.0 %
Test CRC 242CB5A1
Copy CRC 242CB5A1
Accurately ripped (confidence 2) [B07BF9FB] (AR v2)
Copy OK

Track 17

Filename F:\AneL\MY RIPS\17 - Fernoun ton Stanley.wav

Pre-gap length 0:00:01.01

Peak level 100.0 %
Extraction speed 2.6 X
Track quality 100.0 %
Test CRC 8227430E
Copy CRC 8227430E
Accurately ripped (confidence 2) [2C90DE00] (AR v2)
Copy OK

Track 18

Filename F:\AneL\MY RIPS\18 - Mi se koumantaroun autoi.wav

Peak level 100.0 %
Extraction speed 2.8 X
Track quality 100.0 %
Test CRC 6DE850E7
Copy CRC 6DE850E7
Accurately ripped (confidence 2) [D7B37403] (AR v2)
Copy OK

Track 19

Filename F:\AneL\MY RIPS\19 - Hmoun h vasilissa tis vradias.wav

Peak level 95.4 %
Extraction speed 2.5 X
Track quality 99.9 %
Test CRC DD137E8B
Copy CRC DD137E8B
Accurately ripped (confidence 2) [35BB04CC] (AR v2)
Copy OK

Track 20

Filename F:\AneL\MY RIPS\20 - Aberarder, Aberairon.wav

Peak level 78.9 %
Extraction speed 2.9 X
Track quality 100.0 %
Test CRC 45395836
Copy CRC 45395836
Accurately ripped (confidence 2) [570FFB03] (AR v2)
Copy OK

Track 21

Filename F:\AneL\MY RIPS\21 - Ta erotimata.wav

Peak level 66.3 %
Extraction speed 2.4 X
Track quality 100.0 %
Test CRC EBFBD9E0
Copy CRC EBFBD9E0
Accurately ripped (confidence 2) [BAF9C75A] (AR v2)
Copy OK

Track 22

Filename F:\AneL\MY RIPS\22 - O thanatos tis miteras.wav

Peak level 99.3 %
Extraction speed 2.8 X
Track quality 100.0 %
Test CRC C6FBD516
Copy CRC C6FBD516
Accurately ripped (confidence 2) [A65A5F17] (AR v2)
Copy OK

Track 23

Filename F:\AneL\MY RIPS\23 - Eimai ki ego ena plasma tis fantasias mou.wav

Peak level 97.1 %
Extraction speed 2.7 X
Track quality 100.0 %
Test CRC 163C66F3
Copy CRC 163C66F3
Accurately ripped (confidence 2) [4A92EDA5] (AR v2)
Copy OK

Track 24

Filename F:\AneL\MY RIPS\24 - Eixa kataferei na mi dino simasia sto tuxaio.wav

Peak level 77.9 %
Extraction speed 1.8 X
Track quality 100.0 %
Test CRC 20DF0285
Copy CRC 20DF0285
Accurately ripped (confidence 2) [5AC4076E] (AR v2)
Copy OK

Track 25

Filename F:\AneL\MY RIPS\25 - To rimagmeno spiti.wav

Pre-gap length 0:00:02.31

Peak level 100.0 %
Extraction speed 2.6 X
Track quality 99.9 %
Test CRC 433682D9
Copy CRC 433682D9
Accurately ripped (confidence 2) [8F433AB2] (AR v2)
Copy OK

Track 26

Filename F:\AneL\MY RIPS\26 - Mhn peis pote katharisa.wav

Pre-gap length 0:00:01.67

Peak level 52.5 %
Extraction speed 1.8 X
Track quality 100.0 %
Test CRC 63B48691
Copy CRC 63B48691
Accurately ripped (confidence 2) [2CF3020D] (AR v2)
Copy OK

Track 27

Filename F:\AneL\MY RIPS\27 - Eikosi duo xronia prin.wav

Peak level 99.1 %
Extraction speed 2.6 X
Track quality 100.0 %
Test CRC 9670C04F
Copy CRC 9670C04F
Accurately ripped (confidence 2) [706B0F0F] (AR v2)
Copy OK

Track 28

Filename F:\AneL\MY RIPS\28 - Na tou pei kapoios oti de ftaiei.wav

Peak level 70.7 %
Extraction speed 2.8 X
Track quality 100.0 %
Test CRC 676165A4
Copy CRC 676165A4
Accurately ripped (confidence 2) [FD4B58D8] (AR v2)
Copy OK

Track 29

Filename F:\AneL\MY RIPS\29 - Einai ena koritsaki mikro.wav

Peak level 87.1 %
Extraction speed 2.9 X
Track quality 100.0 %
Test CRC 7049AEE4
Copy CRC 7049AEE4
Accurately ripped (confidence 2) [D2B29386] (AR v2)
Copy OK

Track 30

Filename F:\AneL\MY RIPS\30 - Anamnisi tis Polixenis.wav

Pre-gap length 0:00:01.39

Peak level 42.6 %
Extraction speed 2.2 X
Track quality 100.0 %
Test CRC 12566F53
Copy CRC 12566F53
Accurately ripped (confidence 2) [2C4134B8] (AR v2)
Copy OK

Track 31

Filename F:\AneL\MY RIPS\31 - Ksereis pou ti brikan.wav

Pre-gap length 0:00:01.07

Peak level 47.2 %
Extraction speed 3.1 X
Track quality 100.0 %
Test CRC F1C17842
Copy CRC F1C17842
Accurately ripped (confidence 2) [56A8D19B] (AR v2)
Copy OK

Track 32

Filename F:\AneL\MY RIPS\32 - Oneiro.wav

Pre-gap length 0:00:01.02

Peak level 36.7 %
Extraction speed 2.2 X
Track quality 99.8 %
Test CRC C6AA382C
Copy CRC C6AA382C
Accurately ripped (confidence 2) [2FCF22BA] (AR v2)
Copy OK

Track 33

Filename F:\AneL\MY RIPS\33 - To tilefonima.wav

Pre-gap length 0:00:01.01

Peak level 100.0 %
Extraction speed 2.9 X
Track quality 100.0 %
Test CRC CD1400A4
Copy CRC CD1400A4
Accurately ripped (confidence 2) [0A9790C3] (AR v2)
Copy OK

Track 34

Filename F:\AneL\MY RIPS\34 - Klarino I.wav

Pre-gap length 0:00:01.04

Peak level 89.0 %
Extraction speed 2.4 X
Track quality 100.0 %
Test CRC 542F3D73
Copy CRC 542F3D73
Accurately ripped (confidence 2) [F059398E] (AR v2)
Copy OK

Track 35

Filename F:\AneL\MY RIPS\35 - Tragoudi Annas.wav

Peak level 48.8 %
Extraction speed 3.0 X
Track quality 100.0 %
Test CRC 8C67D33D
Copy CRC 8C67D33D
Accurately ripped (confidence 2) [F4F766A3] (AR v2)
Copy OK

Track 36

Filename F:\AneL\MY RIPS\36 - Thema patera.wav

Peak level 100.0 %
Extraction speed 3.2 X
Track quality 100.0 %
Test CRC 196CE576
Copy CRC 196CE576
Accurately ripped (confidence 2) [387B6F63] (AR v2)
Copy OK

Track 37

Filename F:\AneL\MY RIPS\37 - Klarino II.wav

Peak level 83.9 %
Extraction speed 2.5 X
Track quality 100.0 %
Test CRC DEB126DB
Copy CRC DEB126DB
Accurately ripped (confidence 2) [70DF98E7] (AR v2)
Copy OK

Track 38

Filename F:\AneL\MY RIPS\38 - Den tha 'rtho mi me perimenete.wav

Peak level 100.0 %
Extraction speed 3.5 X
Track quality 100.0 %
Test CRC A229150A
Copy CRC A229150A
Accurately ripped (confidence 2) [0C014A41] (AR v2)
Copy OK

Track 39

Filename F:\AneL\MY RIPS\39 - Paizo kai mathaino.wav

Pre-gap length 0:00:01.67

Peak level 92.9 %
Extraction speed 2.7 X
Track quality 100.0 %
Test CRC BDDBDC65
Copy CRC BDDBDC65
Accurately ripped (confidence 2) [AB394550] (AR v2)
Copy OK

Track 40

Filename F:\AneL\MY RIPS\40 - H nuxta ton magisson.wav

Peak level 86.3 %
Extraction speed 3.0 X
Track quality 100.0 %
Test CRC 6C05E3BF
Copy CRC 6C05E3BF
Accurately ripped (confidence 2) [233BD297] (AR v2)
Copy OK

Track 41

Filename F:\AneL\MY RIPS\41 - Thema to George kai Martha.wav

Peak level 85.8 %
Extraction speed 2.0 X
Track quality 99.7 %
Test CRC 5B15C6DD
Copy CRC 5B15C6DD
Accurately ripped (confidence 2) [C2B5C1AE] (AR v2)
Copy OK

Track 42

Filename F:\AneL\MY RIPS\42 - Andres, mars (swing blues).wav

Peak level 100.0 %
Extraction speed 4.4 X
Track quality 100.0 %
Test CRC 68821AF0
Copy CRC 68821AF0
Accurately ripped (confidence 2) [597C2A09] (AR v2)
Copy OK

Track 43

Filename F:\AneL\MY RIPS\43 - To agori mas einai nekro.wav

Peak level 97.4 %
Extraction speed 2.8 X
Track quality 100.0 %
Test CRC C39B504A
Copy CRC C39B504A
Accurately ripped (confidence 2) [A49F641C] (AR v2)
Copy OK

Track 44

Filename F:\AneL\MY RIPS\44 - O eksorkismos.wav

Peak level 81.0 %
Extraction speed 1.4 X
Track quality 99.6 %
Test CRC 2D8490F7
Copy CRC 2D8490F7
Accurately ripped (confidence 2) [4B22A283] (AR v2)
Copy OK

Track 45

Filename F:\AneL\MY RIPS\45 - Ego George Ego.wav

Pre-gap length 0:00:01.04

Peak level 94.2 %
Extraction speed 2.0 X
Track quality 100.0 %
Test CRC 8D2DC4E6
Copy CRC 8D2DC4E6
Accurately ripped (confidence 2) [46D25108] (AR v2)
Copy OK

Track 46

Filename F:\AneL\MY RIPS\46 - H omixli tou proinou.wav

Pre-gap length 0:00:01.56

Peak level 94.4 %
Extraction speed 3.0 X
Track quality 100.0 %
Test CRC 90414D4A
Copy CRC 90414D4A
Accurately ripped (confidence 2) [1E771FC0] (AR v2)
Copy OK

Track 47

Filename F:\AneL\MY RIPS\47 - Signomi pou milisa.wav

Peak level 53.9 %
Extraction speed 1.4 X
Track quality 99.6 %
Test CRC B0757077
Copy CRC B0757077
Accurately ripped (confidence 2) [CF76F657] (AR v2)
Copy OK

Track 48

Filename F:\AneL\MY RIPS\48 - Den ofeli pia.wav

Peak level 95.5 %
Extraction speed 3.3 X
Track quality 100.0 %
Test CRC 6FCE3ADE
Copy CRC 6FCE3ADE
Accurately ripped (confidence 2) [56A4EB95] (AR v2)
Copy OK

Track 49

Filename F:\AneL\MY RIPS\49 - Ypopsies I.wav

Peak level 72.2 %
Extraction speed 2.6 X
Track quality 100.0 %
Test CRC 73491370
Copy CRC 73491370
Accurately ripped (confidence 2) [EC2646A2] (AR v2)
Copy OK

Track 50

Filename F:\AneL\MY RIPS\50 - Giati niotho toso erimi.wav

Pre-gap length 0:00:01.45

Peak level 82.4 %
Extraction speed 1.7 X
Track quality 99.7 %
Test CRC BAEC8A52
Copy CRC BAEC8A52
Accurately ripped (confidence 2) [A227DD2F] (AR v2)
Copy OK

Track 51

Filename F:\AneL\MY RIPS\51 - Poio giatriko.wav

Pre-gap length 0:00:01.27

Peak level 82.8 %
Extraction speed 3.1 X
Track quality 100.0 %
Test CRC 4A8A5AC5
Copy CRC 4A8A5AC5
Accurately ripped (confidence 2) [CEE5A567] (AR v2)
Copy OK

Track 52

Filename F:\AneL\MY RIPS\52 - Den kserw gia poio pragma milas James.wav

Pre-gap length 0:00:01.13

Peak level 95.2 %
Extraction speed 4.1 X
Track quality 100.0 %
Test CRC 9590A3B2
Copy CRC 9590A3B2
Accurately ripped (confidence 2) [E6C1FF0C] (AR v2)
Copy OK

Track 53

Filename F:\AneL\MY RIPS\53 - Ypopsies II.wav

Peak level 68.8 %
Extraction speed 2.6 X
Track quality 100.0 %
Test CRC 5937FEF1
Copy CRC 5937FEF1
Accurately ripped (confidence 2) [9ADD4EC1] (AR v2)
Copy OK

Track 54

Filename F:\AneL\MY RIPS\54 - Gia ligo kairo imoun poli eutixismeni.wav

Pre-gap length 0:00:01.08

Peak level 79.4 %
Extraction speed 3.4 X
Track quality 100.0 %
Test CRC 7A41DAEA
Copy CRC 7A41DAEA
Accurately ripped (confidence 2) [375BEB73] (AR v2)
Copy OK


All tracks accurately ripped

No errors occurred

End of status report

==== Log checksum D5F8049B0248192EC38AD16E94215DC21E84252B6C5A8926D9EC8356BF5B933A ====

Exact Audio Copy V1.0 beta 2 from 29. April 2011

EAC extraction logfile from 9. September 2011, 17:50

Eleni Karaindrou / Music for the theatre CD2

Used drive : Optiarc DVD RW AD-7240S Adapter: 3 ID: 1

Read mode : Secure
Utilize accurate stream : Yes
Defeat audio cache : Yes
Make use of C2 pointers : No

Read offset correction : 48
Overread into Lead-In and Lead-Out : No
Fill up missing offset samples with silence : Yes
Delete leading and trailing silent blocks : No
Null samples used in CRC calculations : Yes
Used interface : Installed external ASPI interface
Gap handling : Appended to previous track

Used output format : User Defined Encoder
Selected bitrate : 896 kBit/s
Quality : High
Add ID3 tag : No
Command line compressor : C:\Program Files\Exact Audio Copy\Flac\flac.exe
Additional command line options : -8 -V -T "ARTIST=%artist%" -T "TITLE=%title%" -T "ALBUM=%albumtitle%" -T "DATE=%year%" -T "TRACKNUMBER=%tracknr%" -T "TOTALTRACKS=%numtracks%" -T "GENRE=%genre%" -T "ALBUMARTIST=%albumartist%" -T "ALBUM ARTIST=%albumartist%


TOC of the extracted CD

Track | Start | Length | Start sector | End sector
––––––––––––––––––––––––––––-
1 | 0:00.00 | 1:31.07 | 0 | 6831
2 | 1:31.07 | 1:37.01 | 6832 | 14107
3 | 3:08.08 | 3:09.65 | 14108 | 28347
4 | 6:17.73 | 1:33.04 | 28348 | 35326
5 | 7:51.02 | 1:16.03 | 35327 | 41029
6 | 9:07.05 | 1:39.59 | 41030 | 48513
7 | 10:46.64 | 0:51.47 | 48514 | 52385
8 | 11:38.36 | 0:40.58 | 52386 | 55443
9 | 12:19.19 | 0:43.39 | 55444 | 58707
10 | 13:02.58 | 0:49.59 | 58708 | 62441
11 | 13:52.42 | 0:44.60 | 62442 | 65801
12 | 14:37.27 | 0:45.53 | 65802 | 69229
13 | 15:23.05 | 1:03.20 | 69230 | 73974
14 | 16:26.25 | 0:58.12 | 73975 | 78336
15 | 17:24.37 | 1:25.67 | 78337 | 84778
16 | 18:50.29 | 0:58.33 | 84779 | 89161
17 | 19:48.62 | 1:49.20 | 89162 | 97356
18 | 21:38.07 | 0:47.10 | 97357 | 100891
19 | 22:25.17 | 0:41.20 | 100892 | 103986
20 | 23:06.37 | 0:43.41 | 103987 | 107252
21 | 23:50.03 | 1:26.52 | 107253 | 113754
22 | 25:16.55 | 0:24.49 | 113755 | 115603
23 | 25:41.29 | 1:20.08 | 115604 | 121611
24 | 27:01.37 | 1:04.30 | 121612 | 126441
25 | 28:05.67 | 0:41.36 | 126442 | 129552
26 | 28:47.28 | 0:54.39 | 129553 | 133641
27 | 29:41.67 | 0:44.56 | 133642 | 136997
28 | 30:26.48 | 0:46.16 | 136998 | 140463
29 | 31:12.64 | 1:04.03 | 140464 | 145266
30 | 32:16.67 | 0:54.25 | 145267 | 149341
31 | 33:11.17 | 0:57.62 | 149342 | 153678
32 | 34:09.04 | 0:57.67 | 153679 | 158020
33 | 35:06.71 | 1:16.37 | 158021 | 163757
34 | 36:23.33 | 2:36.51 | 163758 | 175508
35 | 39:00.09 | 1:02.18 | 175509 | 180176
36 | 40:02.27 | 2:01.03 | 180177 | 189254
37 | 42:03.30 | 0:31.17 | 189255 | 191596
38 | 42:34.47 | 0:54.58 | 191597 | 195704
39 | 43:29.30 | 1:48.01 | 195705 | 203805
40 | 45:17.31 | 2:38.27 | 203806 | 215682
41 | 47:55.58 | 1:12.71 | 215683 | 221153
42 | 49:08.54 | 1:00.64 | 221154 | 225717
43 | 50:09.43 | 1:10.60 | 225718 | 231027
44 | 51:20.28 | 1:36.40 | 231028 | 238267
45 | 52:56.68 | 1:08.25 | 238268 | 243392
46 | 54:05.18 | 1:03.60 | 243393 | 248177
47 | 55:09.03 | 1:11.35 | 248178 | 253537


Track 1

Filename F:\AneL\MY RIPS\01 - H sinantisi.wav

Pre-gap length 0:00:02.00

Peak level 85.9 %
Extraction speed 1.8 X
Track quality 100.0 %
Test CRC EAEDAE5D
Copy CRC EAEDAE5D
Accurately ripped (confidence 2) [C654CE78] (AR v2)
Copy OK

Track 2

Filename F:\AneL\MY RIPS\02 - Anazitontas apantisis.wav

Peak level 84.8 %
Extraction speed 1.9 X
Track quality 100.0 %
Test CRC D3689681
Copy CRC D3689681
Accurately ripped (confidence 2) [D2AF0D20] (AR v2)
Copy OK

Track 3

Filename F:\AneL\MY RIPS\03 - To perasma tis nihtas.wav

Pre-gap length 0:00:01.04

Peak level 86.2 %
Extraction speed 2.0 X
Track quality 99.9 %
Test CRC 5C6816D5
Copy CRC 5C6816D5
Accurately ripped (confidence 2) [C26D04F2] (AR v2)
Copy OK

Track 4

Filename F:\AneL\MY RIPS\04 - Odiniri anapolisi.wav

Peak level 73.7 %
Extraction speed 2.2 X
Track quality 100.0 %
Test CRC 8EF3B56B
Copy CRC 8EF3B56B
Accurately ripped (confidence 2) [AE71C8FA] (AR v2)
Copy OK

Track 5

Filename F:\AneL\MY RIPS\05 - Anasa zois.wav

Peak level 87.4 %
Extraction speed 1.5 X
Track quality 99.8 %
Test CRC 4413B637
Copy CRC 4413B637
Accurately ripped (confidence 2) [F6A6C993] (AR v2)
Copy OK

Track 6

Filename F:\AneL\MY RIPS\06 - To proesthima.wav

Peak level 85.6 %
Extraction speed 2.3 X
Track quality 100.0 %
Test CRC 22BBFBB1
Copy CRC 22BBFBB1
Accurately ripped (confidence 2) [12551C1D] (AR v2)
Copy OK

Track 7

Filename F:\AneL\MY RIPS\07 - Anamnisi tis Clara.wav

Peak level 100.0 %
Extraction speed 1.9 X
Track quality 100.0 %
Test CRC B7AF96CD
Copy CRC B7AF96CD
Accurately ripped (confidence 2) [65AF3FDB] (AR v2)
Copy OK

Track 8

Filename F:\AneL\MY RIPS\08 - Aperiskepsia.wav

Peak level 47.9 %
Extraction speed 1.6 X
Track quality 100.0 %
Test CRC CE4E3383
Copy CRC CE4E3383
Accurately ripped (confidence 2) [50FA83AF] (AR v2)
Copy OK

Track 9

Filename F:\AneL\MY RIPS\09 - To grama.wav

Peak level 93.1 %
Extraction speed 1.7 X
Track quality 100.0 %
Test CRC 1D69FB54
Copy CRC 1D69FB54
Accurately ripped (confidence 2) [BD109506] (AR v2)
Copy OK

Track 10

Filename F:\AneL\MY RIPS\10 - Eksodos Bitse.wav

Peak level 34.8 %
Extraction speed 1.3 X
Track quality 99.7 %
Test CRC ABF37CC4
Copy CRC ABF37CC4
Accurately ripped (confidence 2) [B5DD7AE3] (AR v2)
Copy OK

Track 11

Filename F:\AneL\MY RIPS\11 - Amfivolies Federico.wav

Peak level 84.8 %
Extraction speed 1.3 X
Track quality 99.7 %
Test CRC 7C433019
Copy CRC 7C433019
Accurately ripped (confidence 2) [928418CC] (AR v2)
Copy OK

Track 12

Filename F:\AneL\MY RIPS\12 - Mono dakria tha me sosoun.wav

Peak level 50.4 %
Extraction speed 1.9 X
Track quality 100.0 %
Test CRC 4DF35082
Copy CRC 4DF35082
Accurately ripped (confidence 2) [865DC5F8] (AR v2)
Copy OK

Track 13

Filename F:\AneL\MY RIPS\13 - To nifiko ths Clara (Marianthi Sontaki).wav

Peak level 93.6 %
Extraction speed 2.2 X
Track quality 100.0 %
Test CRC 6ADB0782
Copy CRC 6ADB0782
Accurately ripped (confidence 2) [B1A5A2AB] (AR v2)
Copy OK

Track 14

Filename F:\AneL\MY RIPS\14 - H rogmi.wav

Peak level 93.1 %
Extraction speed 2.2 X
Track quality 100.0 %
Test CRC 15C3233E
Copy CRC 15C3233E
Accurately ripped (confidence 2) [5CBB53E5] (AR v2)
Copy OK

Track 15

Filename F:\AneL\MY RIPS\15 - Apilitkos istos.wav

Peak level 40.6 %
Extraction speed 2.5 X
Track quality 100.0 %
Test CRC A6870464
Copy CRC A6870464
Accurately ripped (confidence 2) [3E7ED433] (AR v2)
Copy OK

Track 16

Filename F:\AneL\MY RIPS\16 - To parti me ta aproopta.wav

Peak level 95.9 %
Extraction speed 1.6 X
Track quality 99.8 %
Test CRC 068C7E2B
Copy CRC 068C7E2B
Accurately ripped (confidence 2) [2D7A5B90] (AR v2)
Copy OK

Track 17

Filename F:\AneL\MY RIPS\17 - O katalogos.wav

Peak level 67.4 %
Extraction speed 2.8 X
Track quality 100.0 %
Test CRC 269AE674
Copy CRC 269AE674
Accurately ripped (confidence 2) [8AC3AF37] (AR v2)
Copy OK

Track 18

Filename F:\AneL\MY RIPS\18 - Dilosi apotixias.wav

Peak level 82.8 %
Extraction speed 1.4 X
Track quality 99.7 %
Test CRC 9250378F
Copy CRC 9250378F
Accurately ripped (confidence 2) [6AE85F91] (AR v2)
Copy OK

Track 19

Filename F:\AneL\MY RIPS\19 - Proetimasies.wav

Peak level 79.0 %
Extraction speed 2.0 X
Track quality 100.0 %
Test CRC DFBE5A27
Copy CRC DFBE5A27
Accurately ripped (confidence 2) [65FD0833] (AR v2)
Copy OK

Track 20

Filename F:\AneL\MY RIPS\20 - Apologismos.wav

Peak level 51.5 %
Extraction speed 2.1 X
Track quality 100.0 %
Test CRC ACB83F1D
Copy CRC ACB83F1D
Accurately ripped (confidence 2) [925686C1] (AR v2)
Copy OK

Track 21

Filename F:\AneL\MY RIPS\21 - Apoxeretismos.wav

Peak level 27.2 %
Extraction speed 2.8 X
Track quality 100.0 %
Test CRC 54D5704A
Copy CRC 54D5704A
Accurately ripped (confidence 2) [FC321D92] (AR v2)
Copy OK

Track 22

Filename F:\AneL\MY RIPS\22 - To klouvi.wav

Peak level 76.3 %
Extraction speed 1.6 X
Track quality 100.0 %
Test CRC C9616857
Copy CRC C9616857
Accurately ripped (confidence 2) [67B82941] (AR v2)
Copy OK

Track 23

Filename F:\AneL\MY RIPS\23 - Monomahia stin Petroupoli.wav

Peak level 90.4 %
Extraction speed 2.8 X
Track quality 100.0 %
Test CRC 2C07F5AB
Copy CRC 2C07F5AB
Accurately ripped (confidence 2) [7A0B1D8B] (AR v2)
Copy OK

Track 24

Filename F:\AneL\MY RIPS\24 - Coup de foudre.wav

Peak level 82.2 %
Extraction speed 1.9 X
Track quality 99.8 %
Test CRC 885CC5A2
Copy CRC 885CC5A2
Accurately ripped (confidence 2) [B8E90B54] (AR v2)
Copy OK

Track 25

Filename F:\AneL\MY RIPS\25 - Na ftiakso tis valitses mou.wav

Peak level 81.4 %
Extraction speed 1.4 X
Track quality 99.7 %
Test CRC 1A9BB023
Copy CRC 1A9BB023
Accurately ripped (confidence 2) [5CD01C5B] (AR v2)
Copy OK

Track 26

Filename F:\AneL\MY RIPS\26 - H anaxorisi.wav

Peak level 78.0 %
Extraction speed 2.5 X
Track quality 100.0 %
Test CRC 2E26117B
Copy CRC 2E26117B
Accurately ripped (confidence 2) [7D7D8CF6] (AR v2)
Copy OK

Track 27

Filename F:\AneL\MY RIPS\27 - H zilia.wav

Peak level 46.6 %
Extraction speed 2.3 X
Track quality 100.0 %
Test CRC F3ABF285
Copy CRC F3ABF285
Accurately ripped (confidence 2) [34E1CD23] (AR v2)
Copy OK

Track 28

Filename F:\AneL\MY RIPS\28 - O Vladimir eksomologite.wav

Peak level 82.9 %
Extraction speed 2.4 X
Track quality 100.0 %
Test CRC 7EA3245C
Copy CRC 7EA3245C
Accurately ripped (confidence 2) [D336B772] (AR v2)
Copy OK

Track 29

Filename F:\AneL\MY RIPS\29 - O thriamvos tou erota.wav

Peak level 91.3 %
Extraction speed 2.0 X
Track quality 99.8 %
Test CRC 9318AE17
Copy CRC 9318AE17
Accurately ripped (confidence 2) [A5B3D549] (AR v2)
Copy OK

Track 30

Filename F:\AneL\MY RIPS\30 - Den agapo para monaxa esena.wav

Peak level 93.2 %
Extraction speed 2.5 X
Track quality 100.0 %
Test CRC B11818C7
Copy CRC B11818C7
Accurately ripped (confidence 2) [EAB82091] (AR v2)
Copy OK

Track 31

Filename F:\AneL\MY RIPS\31 - Fantasiosis.wav

Peak level 53.6 %
Extraction speed 2.7 X
Track quality 100.0 %
Test CRC E4D5D789
Copy CRC E4D5D789
Accurately ripped (confidence 2) [40F1F86E] (AR v2)
Copy OK

Track 32

Filename F:\AneL\MY RIPS\32 - H epodini elpida.wav

Peak level 50.6 %
Extraction speed 2.7 X
Track quality 100.0 %
Test CRC 120102A3
Copy CRC 120102A3
Accurately ripped (confidence 2) [E942A27A] (AR v2)
Copy OK

Track 33

Filename F:\AneL\MY RIPS\33 - Apelpisia - Vrahia stin Irlandia.wav

Peak level 100.0 %
Extraction speed 3.0 X
Track quality 100.0 %
Test CRC 8BFE12B4
Copy CRC 8BFE12B4
Accurately ripped (confidence 2) [7FDD4A8C] (AR v2)
Copy OK

Track 34

Filename F:\AneL\MY RIPS\34 - Nihta xoris feggari.wav

Peak level 80.3 %
Extraction speed 3.1 X
Track quality 99.9 %
Test CRC 1FD4B4E3
Copy CRC 1FD4B4E3
Accurately ripped (confidence 2) [45823957] (AR v2)
Copy OK

Track 35

Filename F:\AneL\MY RIPS\35 - Olo to parelthon se ena sinefo.wav

Peak level 79.2 %
Extraction speed 2.9 X
Track quality 100.0 %
Test CRC FDE21E56
Copy CRC FDE21E56
Accurately ripped (confidence 2) [D4B47182] (AR v2)
Copy OK

Track 36

Filename F:\AneL\MY RIPS\36 - Oute parigoria oute katafigio.wav

Peak level 61.5 %
Extraction speed 3.6 X
Track quality 100.0 %
Test CRC 4945B023
Copy CRC 4945B023
Accurately ripped (confidence 2) [773962EB] (AR v2)
Copy OK

Track 37

Filename F:\AneL\MY RIPS\37 - Apoksenosi.wav

Peak level 84.4 %
Extraction speed 1.4 X
Track quality 99.6 %
Test CRC C999905C
Copy CRC C999905C
Accurately ripped (confidence 2) [2E89E5D8] (AR v2)
Copy OK

Track 38

Filename F:\AneL\MY RIPS\38 - Proesthima thanatou.wav

Peak level 39.9 %
Extraction speed 2.0 X
Track quality 99.8 %
Test CRC 4C6A5CC1
Copy CRC 4C6A5CC1
Accurately ripped (confidence 2) [24E51068] (AR v2)
Copy OK

Track 39

Filename F:\AneL\MY RIPS\39 - Ti perimenoun.wav

Peak level 72.2 %
Extraction speed 3.6 X
Track quality 100.0 %
Test CRC C9D7A4BA
Copy CRC C9D7A4BA
Accurately ripped (confidence 2) [5325F872] (AR v2)
Copy OK

Track 40

Filename F:\AneL\MY RIPS\40 - H Bridget sto fegarofoto.wav

Peak level 80.3 %
Extraction speed 3.4 X
Track quality 99.9 %
Test CRC 0C94D7BC
Copy CRC 0C94D7BC
Accurately ripped (confidence 2) [F9CE6A07] (AR v2)
Copy OK

Track 41

Filename F:\AneL\MY RIPS\41 - Fegari gia kataramenous.wav

Peak level 90.6 %
Extraction speed 3.3 X
Track quality 100.0 %
Test CRC 2009D401
Copy CRC 2009D401
Accurately ripped (confidence 2) [4005EE93] (AR v2)
Copy OK

Track 42

Filename F:\AneL\MY RIPS\42 - M' aresi na me frontizoun.wav

Peak level 88.6 %
Extraction speed 3.1 X
Track quality 100.0 %
Test CRC 10A7B8A1
Copy CRC 10A7B8A1
Accurately ripped (confidence 2) [3AED962A] (AR v2)
Copy OK

Track 43

Filename F:\AneL\MY RIPS\43 - Anamoni.wav

Peak level 87.3 %
Extraction speed 3.4 X
Track quality 100.0 %
Test CRC BC934F93
Copy CRC BC934F93
Accurately ripped (confidence 2) [6142478A] (AR v2)
Copy OK

Track 44

Filename F:\AneL\MY RIPS\44 - Mesanihta me oniropolisis.wav

Peak level 98.2 %
Extraction speed 1.9 X
Track quality 100.0 %
Test CRC CAF63DA3
Copy CRC CAF63DA3
Accurately ripped (confidence 2) [915FE63B] (AR v2)
Copy OK

Track 45

Filename F:\AneL\MY RIPS\45 - Tragoudi sto traino.wav

Peak level 79.4 %
Extraction speed 1.7 X
Track quality 100.0 %
Test CRC 763540EE
Copy CRC 763540EE
Accurately ripped (confidence 2) [ED5790FC] (AR v2)
Copy OK

Track 46

Filename F:\AneL\MY RIPS\46 - Sigxoresi.wav

Peak level 73.3 %
Extraction speed 1.7 X
Track quality 100.0 %
Test CRC 0F993A24
Copy CRC 0F993A24
Accurately ripped (confidence 2) [F0198E96] (AR v2)
Copy OK

Track 47

Filename F:\AneL\MY RIPS\47 - H efhi tis Josie.wav

Peak level 83.8 %
Extraction speed 1.8 X
Track quality 100.0 %
Test CRC BD3D1B3E
Copy CRC BD3D1B3E
Accurately ripped (confidence 2) [E77B8497] (AR v2)
Copy OK


All tracks accurately ripped

No errors occurred

End of status report

==== Log checksum 3FC2C08D9B1FE831EAD583E71CC6A8C6B5B50D34E9FED097B3A74249A6C51D96 ====

Exact Audio Copy V1.0 beta 2 from 29. April 2011

EAC extraction logfile from 10. September 2011, 17:58

Eleni Karaindrou / Music for the theatre CD3

Used drive : Optiarc DVD RW AD-7240S Adapter: 3 ID: 1

Read mode : Secure
Utilize accurate stream : Yes
Defeat audio cache : Yes
Make use of C2 pointers : No

Read offset correction : 48
Overread into Lead-In and Lead-Out : No
Fill up missing offset samples with silence : Yes
Delete leading and trailing silent blocks : No
Null samples used in CRC calculations : Yes
Used interface : Installed external ASPI interface
Gap handling : Appended to previous track

Used output format : User Defined Encoder
Selected bitrate : 896 kBit/s
Quality : High
Add ID3 tag : No
Command line compressor : C:\Program Files\Exact Audio Copy\Flac\flac.exe
Additional command line options : -8 -V -T "ARTIST=%artist%" -T "TITLE=%title%" -T "ALBUM=%albumtitle%" -T "DATE=%year%" -T "TRACKNUMBER=%tracknr%" -T "TOTALTRACKS=%numtracks%" -T "GENRE=%genre%" -T "ALBUMARTIST=%albumartist%" -T "ALBUM ARTIST=%albumartist%


TOC of the extracted CD

Track | Start | Length | Start sector | End sector
––––––––––––––––––––––––––––-
1 | 0:00.00 | 1:28.26 | 0 | 6625
2 | 1:28.26 | 1:43.37 | 6626 | 14387
3 | 3:11.63 | 1:32.61 | 14388 | 21348
4 | 4:44.49 | 1:06.48 | 21349 | 26346
5 | 5:51.22 | 0:50.44 | 26347 | 30140
6 | 6:41.66 | 1:19.34 | 30141 | 36099
7 | 8:01.25 | 1:41.63 | 36100 | 43737
8 | 9:43.13 | 3:29.33 | 43738 | 59445
9 | 13:12.46 | 1:06.73 | 59446 | 64468
10 | 14:19.44 | 1:21.11 | 64469 | 70554
11 | 15:40.55 | 1:11.01 | 70555 | 75880
12 | 16:51.56 | 1:18.68 | 75881 | 81798
13 | 18:10.49 | 0:58.35 | 81799 | 86183
14 | 19:09.09 | 1:16.24 | 86184 | 91907
15 | 20:25.33 | 0:28.60 | 91908 | 94067
16 | 20:54.18 | 0:45.18 | 94068 | 97460
17 | 21:39.36 | 1:08.50 | 97461 | 102610
18 | 22:48.11 | 3:00.08 | 102611 | 116118
19 | 25:48.19 | 2:02.24 | 116119 | 125292
20 | 27:50.43 | 1:28.55 | 125293 | 131947
21 | 29:19.23 | 1:26.54 | 131948 | 138451
22 | 30:46.02 | 1:51.71 | 138452 | 146847
23 | 32:37.73 | 3:23.24 | 146848 | 162096
24 | 36:01.22 | 1:21.66 | 162097 | 168237
25 | 37:23.13 | 0:17.24 | 168238 | 169536
26 | 37:40.37 | 1:13.17 | 169537 | 175028
27 | 38:53.54 | 0:38.16 | 175029 | 177894
28 | 39:31.70 | 0:31.53 | 177895 | 180272
29 | 40:03.48 | 1:11.17 | 180273 | 185614
30 | 41:14.65 | 0:41.36 | 185615 | 188725
31 | 41:56.26 | 0:45.34 | 188726 | 192134
32 | 42:41.60 | 2:10.32 | 192135 | 201916
33 | 44:52.17 | 1:00.21 | 201917 | 206437
34 | 45:52.38 | 1:29.02 | 206438 | 213114
35 | 47:21.40 | 0:51.64 | 213115 | 217003
36 | 48:13.29 | 1:06.01 | 217004 | 221954
37 | 49:19.30 | 2:34.27 | 221955 | 233531
38 | 51:53.57 | 1:05.68 | 233532 | 238474
39 | 52:59.50 | 1:25.35 | 238475 | 244884
40 | 54:25.10 | 0:33.05 | 244885 | 247364
41 | 54:58.15 | 0:58.28 | 247365 | 251742
42 | 55:56.43 | 1:23.24 | 251743 | 257991
43 | 57:19.67 | 1:18.44 | 257992 | 263885
44 | 58:38.36 | 2:06.47 | 263886 | 273382
45 | 60:45.08 | 0:39.73 | 273383 | 276380
46 | 61:25.06 | 2:02.38 | 276381 | 285568
47 | 63:27.44 | 1:10.65 | 285569 | 290883


Track 1

Filename F:\AneL\MY RIPS\01 - H anapolisi - Thema tou Tom.wav

Pre-gap length 0:00:02.00

Peak level 95.3 %
Extraction speed 1.8 X
Track quality 100.0 %
Test CRC ED001FCF
Copy CRC ED001FCF
Accurately ripped (confidence 2) [45A75050] (AR v2)
Copy OK

Track 2

Filename F:\AneL\MY RIPS\02 - O gialinos kosmos.wav

Peak level 65.1 %
Extraction speed 1.9 X
Track quality 100.0 %
Test CRC 2024B99F
Copy CRC 2024B99F
Accurately ripped (confidence 2) [D06351D7] (AR v2)
Copy OK

Track 3

Filename F:\AneL\MY RIPS\03 - Nihterino blues.wav

Peak level 100.0 %
Extraction speed 2.0 X
Track quality 100.0 %
Test CRC E63158FA
Copy CRC E63158FA
Accurately ripped (confidence 2) [C0346FBB] (AR v2)
Copy OK

Track 4

Filename F:\AneL\MY RIPS\04 - Anisihia.wav

Peak level 50.3 %
Extraction speed 1.8 X
Track quality 100.0 %
Test CRC FCE38F13
Copy CRC FCE38F13
Accurately ripped (confidence 2) [0A21212F] (AR v2)
Copy OK

Track 5

Filename F:\AneL\MY RIPS\05 - Des pos strifogirnousa.wav

Peak level 36.8 %
Extraction speed 1.7 X
Track quality 100.0 %
Test CRC 792E0572
Copy CRC 792E0572
Accurately ripped (confidence 2) [3EB2391A] (AR v2)
Copy OK

Track 6

Filename F:\AneL\MY RIPS\06 - Xoreftiko kentro o paradisos.wav

Peak level 100.0 %
Extraction speed 2.1 X
Track quality 100.0 %
Test CRC 183F35B6
Copy CRC 183F35B6
Accurately ripped (confidence 2) [C830E6C3] (AR v2)
Copy OK

Track 7

Filename F:\AneL\MY RIPS\07 - O gialinos kosmos.wav

Pre-gap length 0:00:01.01

Peak level 65.1 %
Extraction speed 2.2 X
Track quality 100.0 %
Test CRC E24C821C
Copy CRC E24C821C
Accurately ripped (confidence 2) [6B9E401E] (AR v2)
Copy OK

Track 8

Filename F:\AneL\MY RIPS\08 - To vals.wav

Peak level 100.0 %
Extraction speed 2.7 X
Track quality 100.0 %
Test CRC 98AC96EA
Copy CRC 98AC96EA
Accurately ripped (confidence 2) [EFD3DAF8] (AR v2)
Copy OK

Track 9

Filename F:\AneL\MY RIPS\09 - Tango.wav

Peak level 100.0 %
Extraction speed 2.1 X
Track quality 100.0 %
Test CRC 2473763B
Copy CRC 2473763B
Accurately ripped (confidence 2) [190BA817] (AR v2)
Copy OK

Track 10

Filename F:\AneL\MY RIPS\10 - Svise ta keria Laura.wav

Peak level 100.0 %
Extraction speed 2.4 X
Track quality 100.0 %
Test CRC E2C9683C
Copy CRC E2C9683C
Accurately ripped (confidence 2) [E4EE6809] (AR v2)
Copy OK

Track 11

Filename F:\AneL\MY RIPS\11 - H skia tou Mart.wav

Peak level 63.9 %
Extraction speed 1.7 X
Track quality 99.8 %
Test CRC AB926660
Copy CRC AB926660
Accurately ripped (confidence 2) [CE78B193] (AR v2)
Copy OK

Track 12

Filename F:\AneL\MY RIPS\12 - Parelasi - Anamnisi.wav

Peak level 79.4 %
Extraction speed 2.4 X
Track quality 100.0 %
Test CRC C1C7DBF1
Copy CRC C1C7DBF1
Accurately ripped (confidence 2) [8380CA1D] (AR v2)
Copy OK

Track 13

Filename F:\AneL\MY RIPS\13 - To portreto tou Mart.wav

Pre-gap length 0:00:01.02

Peak level 62.1 %
Extraction speed 2.2 X
Track quality 100.0 %
Test CRC D0039FE3
Copy CRC D0039FE3
Accurately ripped (confidence 2) [547B3617] (AR v2)
Copy OK

Track 14

Filename F:\AneL\MY RIPS\14 - H Terez pezi piano.wav

Peak level 79.2 %
Extraction speed 1.9 X
Track quality 99.8 %
Test CRC 6BF2A956
Copy CRC 6BF2A956
Accurately ripped (confidence 2) [7137C54D] (AR v2)
Copy OK

Track 15

Filename F:\AneL\MY RIPS\15 - Enas hroas.wav

Peak level 81.8 %
Extraction speed 1.5 X
Track quality 100.0 %
Test CRC 9BAD3440
Copy CRC 9BAD3440
Accurately ripped (confidence 2) [2903C152] (AR v2)
Copy OK

Track 16

Filename F:\AneL\MY RIPS\16 - A quatre mains.wav

Peak level 100.0 %
Extraction speed 2.1 X
Track quality 100.0 %
Test CRC 631E7868
Copy CRC 631E7868
Accurately ripped (confidence 2) [E23D8299] (AR v2)
Copy OK

Track 17

Filename F:\AneL\MY RIPS\17 - O Gabriel.wav

Peak level 70.3 %
Extraction speed 2.4 X
Track quality 100.0 %
Test CRC 0EFFE158
Copy CRC 0EFFE158
Accurately ripped (confidence 2) [A49A1C25] (AR v2)
Copy OK

Track 18

Filename F:\AneL\MY RIPS\18 - O glaros.wav

Peak level 95.8 %
Extraction speed 3.3 X
Track quality 100.0 %
Test CRC 6B562F15
Copy CRC 6B562F15
Accurately ripped (confidence 2) [3148E65F] (AR v2)
Copy OK

Track 19

Filename F:\AneL\MY RIPS\19 - Thema tis Nina.wav

Peak level 100.0 %
Extraction speed 3.1 X
Track quality 100.0 %
Test CRC EED1A083
Copy CRC EED1A083
Accurately ripped (confidence 2) [4D0D7249] (AR v2)
Copy OK

Track 20

Filename F:\AneL\MY RIPS\20 - Ta magia tis limnis (Anna Parlapanou).wav

Peak level 96.9 %
Extraction speed 2.9 X
Track quality 100.0 %
Test CRC 022EAA1E
Copy CRC 022EAA1E
Accurately ripped (confidence 2) [56F8C645] (AR v2)
Copy OK

Track 21

Filename F:\AneL\MY RIPS\21 - O skotomenos glaros.wav

Peak level 81.5 %
Extraction speed 2.9 X
Track quality 100.0 %
Test CRC 75619C14
Copy CRC 75619C14
Accurately ripped (confidence 2) [DAA5154A] (AR v2)
Copy OK

Track 22

Filename F:\AneL\MY RIPS\22 - Thema tou Kosta.wav

Peak level 100.0 %
Extraction speed 3.2 X
Track quality 100.0 %
Test CRC 53B3B2AD
Copy CRC 53B3B2AD
Accurately ripped (confidence 2) [ECA01CBA] (AR v2)
Copy OK

Track 23

Filename F:\AneL\MY RIPS\23 - Mi mou milas gia agapi (Anna Parlapanou).wav

Pre-gap length 0:00:01.07

Peak level 100.0 %
Extraction speed 3.7 X
Track quality 100.0 %
Test CRC 131B2E7C
Copy CRC 131B2E7C
Accurately ripped (confidence 2) [BEFF2B9E] (AR v2)
Copy OK

Track 24

Filename F:\AneL\MY RIPS\24 - To mistirio tis klidomenis ntoulapas.wav

Peak level 90.4 %
Extraction speed 3.0 X
Track quality 100.0 %
Test CRC D7C62159
Copy CRC D7C62159
Accurately ripped (confidence 2) [7652B2C5] (AR v2)
Copy OK

Track 25

Filename F:\AneL\MY RIPS\25 - To gialino mati.wav

Peak level 80.6 %
Extraction speed 1.4 X
Track quality 100.0 %
Test CRC 225899F6
Copy CRC 225899F6
Accurately ripped (confidence 2) [A85F245A] (AR v2)
Copy OK

Track 26

Filename F:\AneL\MY RIPS\26 - H erevna.wav

Peak level 100.0 %
Extraction speed 3.1 X
Track quality 100.0 %
Test CRC DBB81D5A
Copy CRC DBB81D5A
Accurately ripped (confidence 2) [43447AE9] (AR v2)
Copy OK

Track 27

Filename F:\AneL\MY RIPS\27 - To ksefaskioma.wav

Peak level 79.4 %
Extraction speed 2.2 X
Track quality 100.0 %
Test CRC F7457766
Copy CRC F7457766
Accurately ripped (confidence 2) [09152533] (AR v2)
Copy OK

Track 28

Filename F:\AneL\MY RIPS\28 - To adio feretro.wav

Peak level 70.7 %
Extraction speed 2.1 X
Track quality 100.0 %
Test CRC 278AFA43
Copy CRC 278AFA43
Accurately ripped (confidence 2) [9917AD1A] (AR v2)
Copy OK

Track 29

Filename F:\AneL\MY RIPS\29 - Ta proshimata.wav

Peak level 79.4 %
Extraction speed 3.1 X
Track quality 100.0 %
Test CRC D6E9CDE8
Copy CRC D6E9CDE8
Accurately ripped (confidence 2) [B32CD519] (AR v2)
Copy OK

Track 30

Filename F:\AneL\MY RIPS\30 - Gia ena poto.wav

Peak level 92.8 %
Extraction speed 1.6 X
Track quality 99.7 %
Test CRC DDBEC811
Copy CRC DDBEC811
Accurately ripped (confidence 2) [8ECC2ED9] (AR v2)
Copy OK

Track 31

Filename F:\AneL\MY RIPS\31 - To steki tou Jack Stroou.wav

Pre-gap length 0:00:01.02

Peak level 26.3 %
Extraction speed 1.8 X
Track quality 99.7 %
Test CRC E97E4FB1
Copy CRC E97E4FB1
Accurately ripped (confidence 2) [822C6C32] (AR v2)
Copy OK

Track 32

Filename F:\AneL\MY RIPS\32 - To perasma tis nihtas.wav

Peak level 66.9 %
Extraction speed 3.7 X
Track quality 100.0 %
Test CRC 56687D5D
Copy CRC 56687D5D
Accurately ripped (confidence 2) [E8BC90F9] (AR v2)
Copy OK

Track 33

Filename F:\AneL\MY RIPS\33 - To lefkoma.wav

Peak level 80.1 %
Extraction speed 2.9 X
Track quality 100.0 %
Test CRC 042D78FC
Copy CRC 042D78FC
Accurately ripped (confidence 2) [8F5F81FB] (AR v2)
Copy OK

Track 34

Filename F:\AneL\MY RIPS\34 - H anamoni tis Rebeca.wav

Pre-gap length 0:00:01.17

Peak level 100.0 %
Extraction speed 3.4 X
Track quality 100.0 %
Test CRC 2D718265
Copy CRC 2D718265
Accurately ripped (confidence 2) [4BF66502] (AR v2)
Copy OK

Track 35

Filename F:\AneL\MY RIPS\35 - Kalinihta pao sto domatio mou.wav

Peak level 77.9 %
Extraction speed 2.9 X
Track quality 100.0 %
Test CRC 7D39664D
Copy CRC 7D39664D
Accurately ripped (confidence 2) [D0C9F5A1] (AR v2)
Copy OK

Track 36

Filename F:\AneL\MY RIPS\36 - To rema tou milou I.wav

Peak level 70.3 %
Extraction speed 3.1 X
Track quality 100.0 %
Test CRC AF0EBB60
Copy CRC AF0EBB60
Accurately ripped (confidence 2) [05FD9CE5] (AR v2)
Copy OK

Track 37

Filename F:\AneL\MY RIPS\37 - Fevgo ki ego mazi sou.wav

Peak level 96.9 %
Extraction speed 3.4 X
Track quality 99.9 %
Test CRC 0A92DE35
Copy CRC 0A92DE35
Accurately ripped (confidence 2) [2C4371CA] (AR v2)
Copy OK

Track 38

Filename F:\AneL\MY RIPS\38 - To rema tou milou II.wav

Peak level 70.3 %
Extraction speed 3.3 X
Track quality 100.0 %
Test CRC 1534D653
Copy CRC 1534D653
Accurately ripped (confidence 2) [08049AB8] (AR v2)
Copy OK

Track 39

Filename F:\AneL\MY RIPS\39 - Vgainoun kai noris ta aspra aloga.wav

Peak level 73.1 %
Extraction speed 3.6 X
Track quality 100.0 %
Test CRC 195776B3
Copy CRC 195776B3
Accurately ripped (confidence 2) [AC6134DD] (AR v2)
Copy OK

Track 40

Filename F:\AneL\MY RIPS\40 - Tous pire i makaritisa i kiria.wav

Peak level 99.9 %
Extraction speed 2.4 X
Track quality 100.0 %
Test CRC 1554F42A
Copy CRC 1554F42A
Accurately ripped (confidence 2) [E67343C9] (AR v2)
Copy OK

Track 41

Filename F:\AneL\MY RIPS\41 - Sti Germania.wav

Peak level 67.5 %
Extraction speed 3.1 X
Track quality 100.0 %
Test CRC FE8C584E
Copy CRC FE8C584E
Accurately ripped (confidence 2) [605AEAFC] (AR v2)
Copy OK

Track 42

Filename F:\AneL\MY RIPS\42 - Aravonas - Zeibekiko Thimiou.wav

Peak level 100.0 %
Extraction speed 2.8 X
Track quality 99.8 %
Test CRC E06292D0
Copy CRC E06292D0
Accurately ripped (confidence 2) [EB8CA3C3] (AR v2)
Copy OK

Track 43

Filename F:\AneL\MY RIPS\43 - Tilefonima apo Germania.wav

Peak level 87.4 %
Extraction speed 3.5 X
Track quality 100.0 %
Test CRC 9D2AEBA0
Copy CRC 9D2AEBA0
Accurately ripped (confidence 2) [B878D5D9] (AR v2)
Copy OK

Track 44

Filename F:\AneL\MY RIPS\44 - Xoros - Prodosia.wav

Peak level 100.0 %
Extraction speed 4.1 X
Track quality 100.0 %
Test CRC 09B6B88B
Copy CRC 09B6B88B
Accurately ripped (confidence 2) [5B9E5EFC] (AR v2)
Copy OK

Track 45

Filename F:\AneL\MY RIPS\45 - Planodioi mousikoi.wav

Peak level 99.9 %
Extraction speed 2.8 X
Track quality 100.0 %
Test CRC B6D24E1A
Copy CRC B6D24E1A
Accurately ripped (confidence 2) [93FA006C] (AR v2)
Copy OK

Track 46

Filename F:\AneL\MY RIPS\46 - Thanatos tou Nikou.wav

Peak level 100.0 %
Extraction speed 3.4 X
Track quality 99.9 %
Test CRC 886CCFE2
Copy CRC 886CCFE2
Accurately ripped (confidence 2) [E2E672D1] (AR v2)
Copy OK

Track 47

Filename F:\AneL\MY RIPS\47 - Anahorisi gia thn Ellada - To gramma.wav

Peak level 91.2 %
Extraction speed 3.6 X
Track quality 100.0 %
Test CRC 7C7DF5A3
Copy CRC 7C7DF5A3
Accurately ripped (confidence 2) [9591D5C7] (AR v2)
Copy OK


All tracks accurately ripped

No errors occurred

End of status report

==== Log checksum C92631083F491CD8ADD7AFC4FA94977FE561B45B4627B5FC691B1777A5DF3A82 ====


Eleni Karaindrou - Music For The Theatre - Μουσική για το Θέατρο (2010) {3CDSet, Mikri Arktos MA15232-24 rec 1986 -2010}


see more Eleni Karaindrou…


===