Subcategories

Ella Fitzgerald - Twelve Nights In Hollywood (2009) {4CD Verve-Hip-O Select B0012920-02 rec 1961-1962}

Posted By: ruskaval
Ella Fitzgerald - Twelve Nights In Hollywood (2009) {4CD Verve-Hip-O Select B0012920-02 rec 1961-1962}

Ella Fitzgerald - Twelve Nights In Hollywood (2009) {4CD Verve-Hip-O Select B0012920-02 rec 1961-1962}
EAC rip (secure mode) | FLAC (tracks)+CUE+LOG -> 1.43 Gb | MP3 @320 -> 595 Mb
Full Artwork @ 300 dpi (jpg) -> 36 Mb | 5% repair rar
© 1961-62, 2009 Verve / Hip-O Select / Universal | B0012920-02
Jazz / Vocal Jazz / Standards

An appearance in Hollywood for a first-rate jazz vocalist was not necessarily an opportunity to broadcast your visage and pander to everyone from Tacoma to Tallahassee. It could also include a date at the Crescendo, the Sunset Strip's best chance to find premier jazz. Gene Norman's nightclub hosted dozens of jazz legends (and a comic or two), and produced more than its share of excellent LPs recorded on location. Better even than Mel Tormé's 1954 classic, the Ella Fitzgerald LP that resulted from her May 1961 appearances generated one of the best (and certainly most underrated) live records in her discography – and almost 50 years later, it became a four-CD set compiling ten days' worth of performances.
Ella Fitzgerald - Twelve Nights In Hollywood (2009) {4CD Verve-Hip-O Select B0012920-02 rec 1961-1962}

Ella Fitzgerald - Twelve Nights In Hollywood (2009) {4CD Verve-Hip-O Select B0012920-02 rec 1961-1962}

All of her hallmarks (technical wizardry, breakneck scatting, irrepressible humor and warmth) are on full display, with a small but expressive quartet backing her performance, including pianist Lou Levy, guitarist Herb Ellis, drummer Gus Johnson, and bassist Wilfred Middlebrooks. Although it's full of brilliance, the highlights are clear: a seven-minute scat masterpiece of "Take the 'A' Train," with chorus after chorus of variations, and the shorter but still excellent "Mr. Paganini." The balladry is masterful as well, with "Baby, Won't You Please Come Home" high on the list. Verve label-head Norman Granz recorded each of Ella Fitzgerald's sets between May 11th and 21st, 1961, at the Crescendo, and Twelve Nights in Hollywood contains the fruits of that labor – 75 songs with nary a repeat in the list (although the fourth disc actually consists of a 1962 date finding Fitzgerald back at the Crescendo). Although its comprehensiveness may be a hindrance, Twelve Nights in Hollywood is a classic glimpse of Ella at her on-stage best.
Ella Fitzgerald - Twelve Nights In Hollywood (2009) {4CD Verve-Hip-O Select B0012920-02 rec 1961-1962}

Ella Fitzgerald - Twelve Nights In Hollywood (2009) {4CD Verve-Hip-O Select B0012920-02 rec 1961-1962}


AAJ INFO

Personnel:
Ella Fitzgerald - vocals
Lou Levy - piano
Paul Smith - piano
Herb Ellis - guitar
Wilfred Middlebrooks - bass
Gus Johnson - drums
Stan Levey - drums

Ella Fitzgerald - Twelve Nights In Hollywood (2009) {4CD Verve-Hip-O Select B0012920-02 rec 1961-1962}

Ella Fitzgerald - Twelve Nights In Hollywood (2009) {4CD Verve-Hip-O Select B0012920-02 rec 1961-1962}


tracklist:
CD1

01 - Introduction
02 - Lover Come Back To Me
03 - Too Close For Comfort
04 - Little White Lies
05 - On The Sunny Side Of The Street
06 - Accenttchuate The Positive
07 - Baby Wont You Please Come Home
08 - I Found A New Baby
09 - On A Slow Boat To China
10 - My Heart Belongs To Daddy
11 - Perdido
12 - I've Got A Crush On You
13 - But Not For Me
14 - You Brought A New Kind Of Love To Me
15 - Across The Alley From The Alamo
16 - I'm Glad There Is You
17 - Round Midnight
18 - Take The A Train
19 - Mr Paganini

CD2
01 - Nice Work If You Can Get It
02 - I Can't Get Started
03 - Give Me The Simple Life
04 - Caravan
05 - One For My Baby
06 - Lorelei
07 - A-Tisket A-Tasket
08 - Witchcraft
09 - Gone With The Wind
10 - Happiness Is Just A Thing Called Joe
11 - It's De-Lovely
12 - The Lady Is A Tramp
13 - That Old Black Magic
14 - Lullaby Of Birdland
15 - Ella Introduces The Band
16 - Imagination
17 - Blue Moon
18 - Joe Williams' Blues

Ella Fitzgerald - Twelve Nights In Hollywood (2009) {4CD Verve-Hip-O Select B0012920-02 rec 1961-1962}


CD3
01 - The Lady's In Love With You
02 - Love Is Here To Stay
03 - Come Rain Or Come Shine
04 - Anything Goes
05 - This Could Be The Start Of Something Big
06 - Candy
07 - Little Girl Blue
08 - You're Driving Me Crazy
09 - It's All Right With Me
10 - Just Squeeze Me (But Please Don't Tease Me)
11 - S Wonderful
12 - How High The Moon
13 - Deep Purple
14 - In The Wee Small Hours Of The Morning
15 - Mack The Knife
16 - Exactly Like You
17 - Rock It For Me
18 - Stompin At The Savoy
19 - Love For Sale
20 - St Louis Blues

CD4
01 - All Of Me
02 - Hard Hearted Hannah
03 - Broadway
04 - My Kind Of Boy
05 - It Had To Be You
06 - C'est Magnifique
07 - How Long Has This Been Going On
08 - When Your Lover Has Gone
09 - Taking A Chance On Love
10 - Good Morning Heartache
11 - Clap Hands Here Comes Charlie
12 - Hallelujah I Love Him So
13 - Angel Eyes
14 - Ol Man Mose
15 - Teach Me Tonight
16 - Too Darn Hot Ella's Twist
17 - Too Darn Hot
18 - Bewitched
19 - Bill Bailey
20 - Bill Bailey (reprise)

Ella Fitzgerald - Twelve Nights In Hollywood (2009) {4CD Verve-Hip-O Select B0012920-02 rec 1961-1962}


Exact Audio Copy V0.99 prebeta 5 from 4. May 2009

EAC extraction logfile from 23. February 2010, 20:34

Ella Fitzgerald / Twelve Nights In Hollywood

Used drive : TSSTcorpCDDVDW SH-S203N Adapter: 0 ID: 2

Read mode : Secure
Utilize accurate stream : Yes
Defeat audio cache : Yes
Make use of C2 pointers : No

Read offset correction : 6
Overread into Lead-In and Lead-Out : No
Fill up missing offset samples with silence : Yes
Delete leading and trailing silent blocks : No
Null samples used in CRC calculations : Yes
Used interface : Installed external ASPI interface
Gap handling : Appended to previous track

Used output format : User Defined Encoder
Selected bitrate : 768 kBit/s
Quality : High
Add ID3 tag : No
Command line compressor : C:\Program Files\Exact Audio Copy\Flac\flac.exe
Additional command line options : -8 -V -T "ARTIST=%a" -T "TITLE=%t" -T "ALBUM=%g" -T "DATE=%y" -T "TRACKNUMBER=%n" -T "TOTALTRACKS=%x" -T "GENRE=%m" -T "ALBUMARTIST=%v" -T "ALBUM ARTIST=%v" -T "COMMENT=EAC V0.99 pb5, Secure Mode, Test & Copy, AccurateRip,


TOC of the extracted CD

Track | Start | Length | Start sector | End sector
––––––––––––––––––––––––––––-
1 | 0:00.00 | 0:48.23 | 0 | 3622
2 | 0:48.23 | 1:55.19 | 3623 | 12266
3 | 2:43.42 | 2:39.59 | 12267 | 24250
4 | 5:23.26 | 3:01.51 | 24251 | 37876
5 | 8:25.02 | 2:49.60 | 37877 | 50611
6 | 11:14.62 | 2:53.51 | 50612 | 63637
7 | 14:08.38 | 3:47.70 | 63638 | 80732
8 | 17:56.33 | 2:28.34 | 80733 | 91866
9 | 20:24.67 | 2:25.14 | 91867 | 102755
10 | 22:50.06 | 3:15.28 | 102756 | 117408
11 | 26:05.34 | 6:52.14 | 117409 | 148322
12 | 32:57.48 | 2:23.37 | 148323 | 159084
13 | 35:21.10 | 2:10.09 | 159085 | 168843
14 | 37:31.19 | 3:03.26 | 168844 | 182594
15 | 40:34.45 | 2:00.32 | 182595 | 191626
16 | 42:35.02 | 3:15.40 | 191627 | 206291
17 | 45:50.42 | 3:37.45 | 206292 | 222611
18 | 49:28.12 | 6:45.19 | 222612 | 253005
19 | 56:13.31 | 4:10.36 | 253006 | 271791


Track 1

Filename J:\New Rips\Ella Fitzgerald - Twelve Nights In Hollywood (2009) [FLAC] {Hip-O Select B0012920-02 rec 1961-2}\disc 1of4\01 - Introduction.wav

Pre-gap length 0:00:02.00

Peak level 74.7 %
Track quality 100.0 %
Test CRC B19E2C67
Copy CRC B19E2C67
Accurately ripped (confidence 6) [74F1B918]
Copy OK

Track 2

Filename J:\New Rips\Ella Fitzgerald - Twelve Nights In Hollywood (2009) [FLAC] {Hip-O Select B0012920-02 rec 1961-2}\disc 1of4\02 - Lover Come Back To Me.wav

Peak level 94.1 %
Track quality 100.0 %
Test CRC B97B4843
Copy CRC B97B4843
Accurately ripped (confidence 6) [3CE67F60]
Copy OK

Track 3

Filename J:\New Rips\Ella Fitzgerald - Twelve Nights In Hollywood (2009) [FLAC] {Hip-O Select B0012920-02 rec 1961-2}\disc 1of4\03 - Too Close For Comfort.wav

Peak level 100.0 %
Track quality 100.0 %
Test CRC 4007BD78
Copy CRC 4007BD78
Accurately ripped (confidence 6) [9875C068]
Copy OK

Track 4

Filename J:\New Rips\Ella Fitzgerald - Twelve Nights In Hollywood (2009) [FLAC] {Hip-O Select B0012920-02 rec 1961-2}\disc 1of4\04 - Little White Lies.wav

Peak level 96.5 %
Track quality 100.0 %
Test CRC 0592F7C6
Copy CRC 0592F7C6
Accurately ripped (confidence 6) [20F15DD3]
Copy OK

Track 5

Filename J:\New Rips\Ella Fitzgerald - Twelve Nights In Hollywood (2009) [FLAC] {Hip-O Select B0012920-02 rec 1961-2}\disc 1of4\05 - On The Sunny Side Of The Street.wav

Peak level 100.0 %
Track quality 100.0 %
Test CRC 76F7E832
Copy CRC 76F7E832
Accurately ripped (confidence 6) [421B9BEF]
Copy OK

Track 6

Filename J:\New Rips\Ella Fitzgerald - Twelve Nights In Hollywood (2009) [FLAC] {Hip-O Select B0012920-02 rec 1961-2}\disc 1of4\06 - Accenttchuate The Positive.wav

Peak level 100.0 %
Track quality 99.9 %
Test CRC C3DA3A47
Copy CRC C3DA3A47
Accurately ripped (confidence 6) [10DC7419]
Copy OK

Track 7

Filename J:\New Rips\Ella Fitzgerald - Twelve Nights In Hollywood (2009) [FLAC] {Hip-O Select B0012920-02 rec 1961-2}\disc 1of4\07 - Baby Wont You Please Come Home.wav

Peak level 100.0 %
Track quality 100.0 %
Test CRC 4A4B04B1
Copy CRC 4A4B04B1
Accurately ripped (confidence 6) [0825B84B]
Copy OK

Track 8

Filename J:\New Rips\Ella Fitzgerald - Twelve Nights In Hollywood (2009) [FLAC] {Hip-O Select B0012920-02 rec 1961-2}\disc 1of4\08 - I Found A New Baby.wav

Peak level 100.0 %
Track quality 100.0 %
Test CRC 53AD1E9A
Copy CRC 53AD1E9A
Accurately ripped (confidence 6) [904BB427]
Copy OK

Track 9

Filename J:\New Rips\Ella Fitzgerald - Twelve Nights In Hollywood (2009) [FLAC] {Hip-O Select B0012920-02 rec 1961-2}\disc 1of4\09 - On A Slow Boat To China.wav

Peak level 95.2 %
Track quality 100.0 %
Test CRC 6FB1CD6E
Copy CRC 6FB1CD6E
Accurately ripped (confidence 6) [391E4AE7]
Copy OK

Track 10

Filename J:\New Rips\Ella Fitzgerald - Twelve Nights In Hollywood (2009) [FLAC] {Hip-O Select B0012920-02 rec 1961-2}\disc 1of4\10 - My Heart Belongs To Daddy.wav

Peak level 100.0 %
Track quality 100.0 %
Test CRC 57C66B6F
Copy CRC 57C66B6F
Accurately ripped (confidence 6) [2419E6B9]
Copy OK

Track 11

Filename J:\New Rips\Ella Fitzgerald - Twelve Nights In Hollywood (2009) [FLAC] {Hip-O Select B0012920-02 rec 1961-2}\disc 1of4\11 - Perdido.wav

Peak level 100.0 %
Track quality 100.0 %
Test CRC EE521B41
Copy CRC EE521B41
Accurately ripped (confidence 6) [8DC08AC7]
Copy OK

Track 12

Filename J:\New Rips\Ella Fitzgerald - Twelve Nights In Hollywood (2009) [FLAC] {Hip-O Select B0012920-02 rec 1961-2}\disc 1of4\12 - I've Got A Crush On You.wav

Peak level 72.9 %
Track quality 100.0 %
Test CRC 61BA584C
Copy CRC 61BA584C
Accurately ripped (confidence 6) [BD24D512]
Copy OK

Track 13

Filename J:\New Rips\Ella Fitzgerald - Twelve Nights In Hollywood (2009) [FLAC] {Hip-O Select B0012920-02 rec 1961-2}\disc 1of4\13 - But Not For Me.wav

Peak level 88.9 %
Track quality 100.0 %
Test CRC E33EB804
Copy CRC E33EB804
Accurately ripped (confidence 6) [5FAE81A6]
Copy OK

Track 14

Filename J:\New Rips\Ella Fitzgerald - Twelve Nights In Hollywood (2009) [FLAC] {Hip-O Select B0012920-02 rec 1961-2}\disc 1of4\14 - You Brought A New Kind Of Love To Me.wav

Peak level 97.0 %
Track quality 100.0 %
Test CRC 22171532
Copy CRC 22171532
Accurately ripped (confidence 6) [53269F6D]
Copy OK

Track 15

Filename J:\New Rips\Ella Fitzgerald - Twelve Nights In Hollywood (2009) [FLAC] {Hip-O Select B0012920-02 rec 1961-2}\disc 1of4\15 - Across The Alley From The Alamo.wav

Peak level 100.0 %
Track quality 100.0 %
Test CRC 70F8CA84
Copy CRC 70F8CA84
Accurately ripped (confidence 6) [3C9A2EBC]
Copy OK

Track 16

Filename J:\New Rips\Ella Fitzgerald - Twelve Nights In Hollywood (2009) [FLAC] {Hip-O Select B0012920-02 rec 1961-2}\disc 1of4\16 - I'm Glad There Is You.wav

Peak level 90.4 %
Track quality 100.0 %
Test CRC E061F1F3
Copy CRC E061F1F3
Accurately ripped (confidence 6) [9AC10CEE]
Copy OK

Track 17

Filename J:\New Rips\Ella Fitzgerald - Twelve Nights In Hollywood (2009) [FLAC] {Hip-O Select B0012920-02 rec 1961-2}\disc 1of4\17 - Round Midnight.wav

Peak level 95.4 %
Track quality 100.0 %
Test CRC EE25C122
Copy CRC EE25C122
Accurately ripped (confidence 6) [CDA546C3]
Copy OK

Track 18

Filename J:\New Rips\Ella Fitzgerald - Twelve Nights In Hollywood (2009) [FLAC] {Hip-O Select B0012920-02 rec 1961-2}\disc 1of4\18 - Take The A Train.wav

Peak level 100.0 %
Track quality 100.0 %
Test CRC 15B4EF00
Copy CRC 15B4EF00
Accurately ripped (confidence 6) [12A31D6A]
Copy OK

Track 19

Filename J:\New Rips\Ella Fitzgerald - Twelve Nights In Hollywood (2009) [FLAC] {Hip-O Select B0012920-02 rec 1961-2}\disc 1of4\19 - Mr Paganini.wav

Peak level 93.6 %
Track quality 100.0 %
Test CRC 5B2EF203
Copy CRC 5B2EF203
Accurately ripped (confidence 6) [1ECB4221]
Copy OK


All tracks accurately ripped

No errors occurred

End of status report

Exact Audio Copy V0.99 prebeta 5 from 4. May 2009

EAC extraction logfile from 23. February 2010, 23:55

Ella Fitzgerald / Twelve Nights In Hollywood

Used drive : TSSTcorpCDDVDW SH-S203N Adapter: 0 ID: 2

Read mode : Secure
Utilize accurate stream : Yes
Defeat audio cache : Yes
Make use of C2 pointers : No

Read offset correction : 6
Overread into Lead-In and Lead-Out : No
Fill up missing offset samples with silence : Yes
Delete leading and trailing silent blocks : No
Null samples used in CRC calculations : Yes
Used interface : Installed external ASPI interface
Gap handling : Appended to previous track

Used output format : User Defined Encoder
Selected bitrate : 768 kBit/s
Quality : High
Add ID3 tag : No
Command line compressor : C:\Program Files\Exact Audio Copy\Flac\flac.exe
Additional command line options : -8 -V -T "ARTIST=%a" -T "TITLE=%t" -T "ALBUM=%g" -T "DATE=%y" -T "TRACKNUMBER=%n" -T "TOTALTRACKS=%x" -T "GENRE=%m" -T "ALBUMARTIST=%v" -T "ALBUM ARTIST=%v" -T "COMMENT=EAC V0.99 pb5, Secure Mode, Test & Copy, AccurateRip,


TOC of the extracted CD

Track | Start | Length | Start sector | End sector
––––––––––––––––––––––––––––-
1 | 0:00.00 | 2:29.74 | 0 | 11248
2 | 2:29.74 | 3:31.21 | 11249 | 27094
3 | 6:01.20 | 1:53.45 | 27095 | 35614
4 | 7:54.65 | 2:05.61 | 35615 | 45050
5 | 10:00.51 | 4:18.59 | 45051 | 64459
6 | 14:19.35 | 3:16.24 | 64460 | 79183
7 | 17:35.59 | 1:54.34 | 79184 | 87767
8 | 19:30.18 | 3:04.35 | 87768 | 101602
9 | 22:34.53 | 2:31.69 | 101603 | 112996
10 | 25:06.47 | 3:45.54 | 112997 | 129925
11 | 28:52.26 | 2:15.16 | 129926 | 140066
12 | 31:07.42 | 2:41.28 | 140067 | 152169
13 | 33:48.70 | 3:33.24 | 152170 | 168168
14 | 37:22.19 | 2:08.32 | 168169 | 177800
15 | 39:30.51 | 0:39.49 | 177801 | 180774
16 | 40:10.25 | 2:41.06 | 180775 | 192855
17 | 42:51.31 | 3:08.73 | 192856 | 207028
18 | 46:00.29 | 7:21.66 | 207029 | 240169


Track 1

Filename J:\New Rips\Ella Fitzgerald - Twelve Nights In Hollywood (2009) [FLAC] {Hip-O Select B0012920-02 rec 1961-2}\disc 2of4\01 - Nice Work If You Can Get It.wav

Pre-gap length 0:00:02.00

Peak level 95.9 %
Track quality 100.0 %
Test CRC 6EF276F6
Copy CRC 6EF276F6
Accurately ripped (confidence 5) [39233106]
Copy OK

Track 2

Filename J:\New Rips\Ella Fitzgerald - Twelve Nights In Hollywood (2009) [FLAC] {Hip-O Select B0012920-02 rec 1961-2}\disc 2of4\02 - I Can't Get Started.wav

Peak level 100.0 %
Track quality 100.0 %
Test CRC 16AA2CAD
Copy CRC 16AA2CAD
Accurately ripped (confidence 5) [32F7034C]
Copy OK

Track 3

Filename J:\New Rips\Ella Fitzgerald - Twelve Nights In Hollywood (2009) [FLAC] {Hip-O Select B0012920-02 rec 1961-2}\disc 2of4\03 - Give Me The Simple Life.wav

Peak level 100.0 %
Track quality 100.0 %
Test CRC 91A5C6E9
Copy CRC 91A5C6E9
Accurately ripped (confidence 5) [18E4F1C0]
Copy OK

Track 4

Filename J:\New Rips\Ella Fitzgerald - Twelve Nights In Hollywood (2009) [FLAC] {Hip-O Select B0012920-02 rec 1961-2}\disc 2of4\04 - Caravan.wav

Peak level 100.0 %
Track quality 100.0 %
Test CRC 36496A6B
Copy CRC 36496A6B
Accurately ripped (confidence 5) [71715CB6]
Copy OK

Track 5

Filename J:\New Rips\Ella Fitzgerald - Twelve Nights In Hollywood (2009) [FLAC] {Hip-O Select B0012920-02 rec 1961-2}\disc 2of4\05 - One For My Baby.wav

Peak level 99.8 %
Track quality 100.0 %
Test CRC 48690668
Copy CRC 48690668
Accurately ripped (confidence 5) [833DC978]
Copy OK

Track 6

Filename J:\New Rips\Ella Fitzgerald - Twelve Nights In Hollywood (2009) [FLAC] {Hip-O Select B0012920-02 rec 1961-2}\disc 2of4\06 - Lorelei.wav

Peak level 100.0 %
Track quality 100.0 %
Test CRC 33C93DE1
Copy CRC 33C93DE1
Accurately ripped (confidence 5) [06F6533C]
Copy OK

Track 7

Filename J:\New Rips\Ella Fitzgerald - Twelve Nights In Hollywood (2009) [FLAC] {Hip-O Select B0012920-02 rec 1961-2}\disc 2of4\07 - A-Tisket A-Tasket.wav

Peak level 100.0 %
Track quality 100.0 %
Test CRC 291DB1CF
Copy CRC 291DB1CF
Accurately ripped (confidence 5) [7892086D]
Copy OK

Track 8

Filename J:\New Rips\Ella Fitzgerald - Twelve Nights In Hollywood (2009) [FLAC] {Hip-O Select B0012920-02 rec 1961-2}\disc 2of4\08 - Witchcraft.wav

Peak level 100.0 %
Track quality 100.0 %
Test CRC A18199FF
Copy CRC A18199FF
Accurately ripped (confidence 5) [42153F54]
Copy OK

Track 9

Filename J:\New Rips\Ella Fitzgerald - Twelve Nights In Hollywood (2009) [FLAC] {Hip-O Select B0012920-02 rec 1961-2}\disc 2of4\09 - Gone With The Wind.wav

Peak level 100.0 %
Track quality 100.0 %
Test CRC 8FA044E3
Copy CRC 8FA044E3
Accurately ripped (confidence 5) [512BB1AF]
Copy OK

Track 10

Filename J:\New Rips\Ella Fitzgerald - Twelve Nights In Hollywood (2009) [FLAC] {Hip-O Select B0012920-02 rec 1961-2}\disc 2of4\10 - Happiness Is Just A Thing Called Joe.wav

Peak level 100.0 %
Track quality 100.0 %
Test CRC EDE054C4
Copy CRC EDE054C4
Accurately ripped (confidence 5) [AA1AFBA9]
Copy OK

Track 11

Filename J:\New Rips\Ella Fitzgerald - Twelve Nights In Hollywood (2009) [FLAC] {Hip-O Select B0012920-02 rec 1961-2}\disc 2of4\11 - It's De-Lovely.wav

Peak level 100.0 %
Track quality 100.0 %
Test CRC D27732B4
Copy CRC D27732B4
Accurately ripped (confidence 5) [6962B93C]
Copy OK

Track 12

Filename J:\New Rips\Ella Fitzgerald - Twelve Nights In Hollywood (2009) [FLAC] {Hip-O Select B0012920-02 rec 1961-2}\disc 2of4\12 - The Lady Is A Tramp.wav

Peak level 89.2 %
Track quality 99.9 %
Test CRC 5FBDFCC7
Copy CRC 5FBDFCC7
Accurately ripped (confidence 5) [8F69F5ED]
Copy OK

Track 13

Filename J:\New Rips\Ella Fitzgerald - Twelve Nights In Hollywood (2009) [FLAC] {Hip-O Select B0012920-02 rec 1961-2}\disc 2of4\13 - That Old Black Magic.wav

Peak level 92.1 %
Track quality 100.0 %
Test CRC 0DA3F1F1
Copy CRC 0DA3F1F1
Accurately ripped (confidence 5) [0F2C9CFE]
Copy OK

Track 14

Filename J:\New Rips\Ella Fitzgerald - Twelve Nights In Hollywood (2009) [FLAC] {Hip-O Select B0012920-02 rec 1961-2}\disc 2of4\14 - Lullaby Of Birdland.wav

Peak level 92.8 %
Track quality 100.0 %
Test CRC 897099C2
Copy CRC 897099C2
Accurately ripped (confidence 5) [56E99FB5]
Copy OK

Track 15

Filename J:\New Rips\Ella Fitzgerald - Twelve Nights In Hollywood (2009) [FLAC] {Hip-O Select B0012920-02 rec 1961-2}\disc 2of4\15 - Ella Introduces The Band.wav

Peak level 76.9 %
Track quality 100.0 %
Test CRC 5CD383B7
Copy CRC 5CD383B7
Accurately ripped (confidence 5) [04FAF0BE]
Copy OK

Track 16

Filename J:\New Rips\Ella Fitzgerald - Twelve Nights In Hollywood (2009) [FLAC] {Hip-O Select B0012920-02 rec 1961-2}\disc 2of4\16 - Imagination.wav

Peak level 100.0 %
Track quality 100.0 %
Test CRC FD830168
Copy CRC FD830168
Accurately ripped (confidence 5) [39BCCC09]
Copy OK

Track 17

Filename J:\New Rips\Ella Fitzgerald - Twelve Nights In Hollywood (2009) [FLAC] {Hip-O Select B0012920-02 rec 1961-2}\disc 2of4\17 - Blue Moon.wav

Peak level 98.2 %
Track quality 100.0 %
Test CRC FF546081
Copy CRC FF546081
Accurately ripped (confidence 5) [11B18FB7]
Copy OK

Track 18

Filename J:\New Rips\Ella Fitzgerald - Twelve Nights In Hollywood (2009) [FLAC] {Hip-O Select B0012920-02 rec 1961-2}\disc 2of4\18 - Joe Williams' Blues.wav

Peak level 100.0 %
Track quality 100.0 %
Test CRC 9B4D0F83
Copy CRC 9B4D0F83
Accurately ripped (confidence 5) [8095C84E]
Copy OK


All tracks accurately ripped

No errors occurred

End of status report

Exact Audio Copy V0.99 prebeta 5 from 4. May 2009

EAC extraction logfile from 24. February 2010, 19:05

Ella Fitzgerald / Twelve Nights In Hollywood

Used drive : TSSTcorpCDDVDW SH-S203N Adapter: 0 ID: 2

Read mode : Secure
Utilize accurate stream : Yes
Defeat audio cache : Yes
Make use of C2 pointers : No

Read offset correction : 6
Overread into Lead-In and Lead-Out : No
Fill up missing offset samples with silence : Yes
Delete leading and trailing silent blocks : No
Null samples used in CRC calculations : Yes
Used interface : Installed external ASPI interface
Gap handling : Appended to previous track

Used output format : User Defined Encoder
Selected bitrate : 768 kBit/s
Quality : High
Add ID3 tag : No
Command line compressor : C:\Program Files\Exact Audio Copy\Flac\flac.exe
Additional command line options : -8 -V -T "ARTIST=%a" -T "TITLE=%t" -T "ALBUM=%g" -T "DATE=%y" -T "TRACKNUMBER=%n" -T "TOTALTRACKS=%x" -T "GENRE=%m" -T "ALBUMARTIST=%v" -T "ALBUM ARTIST=%v" -T "COMMENT=EAC V0.99 pb5, Secure Mode, Test & Copy, AccurateRip,


TOC of the extracted CD

Track | Start | Length | Start sector | End sector
––––––––––––––––––––––––––––-
1 | 0:00.00 | 1:39.42 | 0 | 7466
2 | 1:39.42 | 3:34.49 | 7467 | 23565
3 | 5:14.16 | 3:36.15 | 23566 | 39780
4 | 8:50.31 | 2:26.59 | 39781 | 50789
5 | 11:17.15 | 2:25.53 | 50790 | 61717
6 | 13:42.68 | 5:07.41 | 61718 | 84783
7 | 18:50.34 | 3:49.47 | 84784 | 102005
8 | 22:40.06 | 3:30.27 | 102006 | 117782
9 | 26:10.33 | 2:33.44 | 117783 | 129301
10 | 28:44.02 | 2:49.37 | 129302 | 142013
11 | 31:33.39 | 2:28.37 | 142014 | 153150
12 | 34:02.01 | 6:20.27 | 153151 | 181677
13 | 40:22.28 | 2:17.11 | 181678 | 191963
14 | 42:39.39 | 3:33.63 | 191964 | 208001
15 | 46:13.27 | 3:53.47 | 208002 | 225523
16 | 50:06.74 | 4:30.37 | 225524 | 245810
17 | 54:37.36 | 3:35.53 | 245811 | 261988
18 | 58:13.14 | 6:49.68 | 261989 | 292731
19 | 65:03.07 | 4:11.13 | 292732 | 311569
20 | 69:14.20 | 6:05.01 | 311570 | 338945


Track 1

Filename J:\New Rips\Ella Fitzgerald - Twelve Nights In Hollywood (2009) [FLAC] {Hip-O Select B0012920-02 rec 1961-2}\disc 3of4\01 - The Lady's In Love With You.wav

Pre-gap length 0:00:02.00

Peak level 94.7 %
Track quality 100.0 %
Test CRC E6851AE8
Copy CRC E6851AE8
Accurately ripped (confidence 3) [D450AA84]
Copy OK

Track 2

Filename J:\New Rips\Ella Fitzgerald - Twelve Nights In Hollywood (2009) [FLAC] {Hip-O Select B0012920-02 rec 1961-2}\disc 3of4\02 - Love Is Here To Stay.wav

Peak level 95.5 %
Track quality 100.0 %
Test CRC BD86B092
Copy CRC BD86B092
Accurately ripped (confidence 3) [03C83D54]
Copy OK

Track 3

Filename J:\New Rips\Ella Fitzgerald - Twelve Nights In Hollywood (2009) [FLAC] {Hip-O Select B0012920-02 rec 1961-2}\disc 3of4\03 - Come Rain Or Come Shine.wav

Peak level 95.5 %
Track quality 100.0 %
Test CRC 09BC9C0A
Copy CRC 09BC9C0A
Accurately ripped (confidence 3) [8018A2B0]
Copy OK

Track 4

Filename J:\New Rips\Ella Fitzgerald - Twelve Nights In Hollywood (2009) [FLAC] {Hip-O Select B0012920-02 rec 1961-2}\disc 3of4\04 - Anything Goes.wav

Peak level 99.9 %
Track quality 99.9 %
Test CRC B0EDC4D0
Copy CRC B0EDC4D0
Accurately ripped (confidence 3) [BD30BFA7]
Copy OK

Track 5

Filename J:\New Rips\Ella Fitzgerald - Twelve Nights In Hollywood (2009) [FLAC] {Hip-O Select B0012920-02 rec 1961-2}\disc 3of4\05 - This Could Be The Start Of Something Big.wav

Peak level 100.0 %
Track quality 100.0 %
Test CRC 439F39B9
Copy CRC 439F39B9
Accurately ripped (confidence 3) [EDDAFA59]
Copy OK

Track 6

Filename J:\New Rips\Ella Fitzgerald - Twelve Nights In Hollywood (2009) [FLAC] {Hip-O Select B0012920-02 rec 1961-2}\disc 3of4\06 - Candy.wav

Peak level 100.0 %
Track quality 100.0 %
Test CRC 9950D2B0
Copy CRC 9950D2B0
Accurately ripped (confidence 3) [76953889]
Copy OK

Track 7

Filename J:\New Rips\Ella Fitzgerald - Twelve Nights In Hollywood (2009) [FLAC] {Hip-O Select B0012920-02 rec 1961-2}\disc 3of4\07 - Little Girl Blue.wav

Peak level 77.3 %
Track quality 100.0 %
Test CRC CAE174FA
Copy CRC CAE174FA
Accurately ripped (confidence 3) [D0D10A76]
Copy OK

Track 8

Filename J:\New Rips\Ella Fitzgerald - Twelve Nights In Hollywood (2009) [FLAC] {Hip-O Select B0012920-02 rec 1961-2}\disc 3of4\08 - You're Driving Me Crazy.wav

Peak level 100.0 %
Track quality 100.0 %
Test CRC 2143D31D
Copy CRC 2143D31D
Accurately ripped (confidence 3) [5C20A106]
Copy OK

Track 9

Filename J:\New Rips\Ella Fitzgerald - Twelve Nights In Hollywood (2009) [FLAC] {Hip-O Select B0012920-02 rec 1961-2}\disc 3of4\09 - It's All Right With Me.wav

Peak level 85.8 %
Track quality 100.0 %
Test CRC B63684C9
Copy CRC B63684C9
Accurately ripped (confidence 3) [4777E551]
Copy OK

Track 10

Filename J:\New Rips\Ella Fitzgerald - Twelve Nights In Hollywood (2009) [FLAC] {Hip-O Select B0012920-02 rec 1961-2}\disc 3of4\10 - Just Squeeze Me (But Please Don't Tease Me).wav

Peak level 95.1 %
Track quality 100.0 %
Test CRC 78FCB5E0
Copy CRC 78FCB5E0
Accurately ripped (confidence 3) [25F79C9A]
Copy OK

Track 11

Filename J:\New Rips\Ella Fitzgerald - Twelve Nights In Hollywood (2009) [FLAC] {Hip-O Select B0012920-02 rec 1961-2}\disc 3of4\11 - S Wonderful.wav

Peak level 100.0 %
Track quality 100.0 %
Test CRC 0C9B81E9
Copy CRC 0C9B81E9
Accurately ripped (confidence 3) [30A42DA2]
Copy OK

Track 12

Filename J:\New Rips\Ella Fitzgerald - Twelve Nights In Hollywood (2009) [FLAC] {Hip-O Select B0012920-02 rec 1961-2}\disc 3of4\12 - How High The Moon.wav

Peak level 100.0 %
Track quality 100.0 %
Test CRC 68584C2B
Copy CRC 68584C2B
Accurately ripped (confidence 3) [8BFA72BD]
Copy OK

Track 13

Filename J:\New Rips\Ella Fitzgerald - Twelve Nights In Hollywood (2009) [FLAC] {Hip-O Select B0012920-02 rec 1961-2}\disc 3of4\13 - Deep Purple.wav

Peak level 81.7 %
Track quality 99.9 %
Test CRC A4E3BFD2
Copy CRC A4E3BFD2
Accurately ripped (confidence 3) [2292E474]
Copy OK

Track 14

Filename J:\New Rips\Ella Fitzgerald - Twelve Nights In Hollywood (2009) [FLAC] {Hip-O Select B0012920-02 rec 1961-2}\disc 3of4\14 - In The Wee Small Hours Of The Morning.wav

Peak level 76.0 %
Track quality 99.9 %
Test CRC EF343B17
Copy CRC EF343B17
Accurately ripped (confidence 3) [3C057EF6]
Copy OK

Track 15

Filename J:\New Rips\Ella Fitzgerald - Twelve Nights In Hollywood (2009) [FLAC] {Hip-O Select B0012920-02 rec 1961-2}\disc 3of4\15 - Mack The Knife.wav

Peak level 83.6 %
Track quality 100.0 %
Test CRC 8660D98F
Copy CRC 8660D98F
Accurately ripped (confidence 3) [7FA1E28E]
Copy OK

Track 16

Filename J:\New Rips\Ella Fitzgerald - Twelve Nights In Hollywood (2009) [FLAC] {Hip-O Select B0012920-02 rec 1961-2}\disc 3of4\16 - Exactly Like You.wav

Peak level 99.6 %
Track quality 100.0 %
Test CRC A040BF92
Copy CRC A040BF92
Accurately ripped (confidence 3) [3740C86F]
Copy OK

Track 17

Filename J:\New Rips\Ella Fitzgerald - Twelve Nights In Hollywood (2009) [FLAC] {Hip-O Select B0012920-02 rec 1961-2}\disc 3of4\17 - Rock It For Me.wav

Peak level 86.4 %
Track quality 100.0 %
Test CRC 181A374A
Copy CRC 181A374A
Accurately ripped (confidence 3) [C94490AB]
Copy OK

Track 18

Filename J:\New Rips\Ella Fitzgerald - Twelve Nights In Hollywood (2009) [FLAC] {Hip-O Select B0012920-02 rec 1961-2}\disc 3of4\18 - Stompin At The Savoy.wav

Peak level 92.0 %
Track quality 100.0 %
Test CRC 550987D4
Copy CRC 550987D4
Accurately ripped (confidence 3) [2785672B]
Copy OK

Track 19

Filename J:\New Rips\Ella Fitzgerald - Twelve Nights In Hollywood (2009) [FLAC] {Hip-O Select B0012920-02 rec 1961-2}\disc 3of4\19 - Love For Sale.wav

Peak level 100.0 %
Track quality 100.0 %
Test CRC 49B04FEB
Copy CRC 49B04FEB
Accurately ripped (confidence 3) [58FA95DE]
Copy OK

Track 20

Filename J:\New Rips\Ella Fitzgerald - Twelve Nights In Hollywood (2009) [FLAC] {Hip-O Select B0012920-02 rec 1961-2}\disc 3of4\20 - St Louis Blues.wav

Peak level 79.1 %
Track quality 100.0 %
Test CRC F6FBE926
Copy CRC F6FBE926
Accurately ripped (confidence 2) [F9A3EADC]
Copy OK


All tracks accurately ripped

No errors occurred

End of status report

Exact Audio Copy V0.99 prebeta 5 from 4. May 2009

EAC extraction logfile from 25. February 2010, 7:58

Ella Fitzgerald / Twelve Nights In Hollywood

Used drive : TSSTcorpCDDVDW SH-S203N Adapter: 0 ID: 2

Read mode : Secure
Utilize accurate stream : Yes
Defeat audio cache : Yes
Make use of C2 pointers : No

Read offset correction : 6
Overread into Lead-In and Lead-Out : No
Fill up missing offset samples with silence : Yes
Delete leading and trailing silent blocks : No
Null samples used in CRC calculations : Yes
Used interface : Installed external ASPI interface
Gap handling : Appended to previous track

Used output format : User Defined Encoder
Selected bitrate : 768 kBit/s
Quality : High
Add ID3 tag : No
Command line compressor : C:\Program Files\Exact Audio Copy\Flac\flac.exe
Additional command line options : -8 -V -T "ARTIST=%a" -T "TITLE=%t" -T "ALBUM=%g" -T "DATE=%y" -T "TRACKNUMBER=%n" -T "TOTALTRACKS=%x" -T "GENRE=%m" -T "ALBUMARTIST=%v" -T "ALBUM ARTIST=%v" -T "COMMENT=EAC V0.99 pb5, Secure Mode, Test & Copy, AccurateRip,


TOC of the extracted CD

Track | Start | Length | Start sector | End sector
––––––––––––––––––––––––––––-
1 | 0:00.00 | 3:15.64 | 0 | 14688
2 | 3:15.64 | 2:38.11 | 14689 | 26549
3 | 5:54.00 | 2:46.70 | 26550 | 39069
4 | 8:40.70 | 2:42.52 | 39070 | 51271
5 | 11:23.47 | 3:56.05 | 51272 | 68976
6 | 15:19.52 | 3:28.51 | 68977 | 84627
7 | 18:48.28 | 2:49.61 | 84628 | 97363
8 | 21:38.14 | 2:10.63 | 97364 | 107176
9 | 23:49.02 | 2:23.02 | 107177 | 117903
10 | 26:12.04 | 4:24.39 | 117904 | 137742
11 | 30:36.43 | 3:23.71 | 137743 | 153038
12 | 34:00.39 | 2:19.38 | 153039 | 163501
13 | 36:20.02 | 3:25.07 | 163502 | 178883
14 | 39:45.09 | 3:13.24 | 178884 | 193382
15 | 42:58.33 | 3:06.36 | 193383 | 207368
16 | 46:04.69 | 1:10.30 | 207369 | 212648
17 | 47:15.24 | 2:42.00 | 212649 | 224798
18 | 49:57.24 | 5:19.64 | 224799 | 248787
19 | 55:17.13 | 3:41.40 | 248788 | 265402
20 | 58:58.53 | 3:32.06 | 265403 | 281308


Track 1

Filename J:\New Rips\Ella Fitzgerald - Twelve Nights In Hollywood (2009) [FLAC] {Hip-O Select B0012920-02 rec 1961-2}\disc 4of4\01 - All Of Me.wav

Pre-gap length 0:00:02.00

Peak level 81.9 %
Track quality 100.0 %
Test CRC EDDC98FC
Copy CRC EDDC98FC
Accurately ripped (confidence 3) [807067A2]
Copy OK

Track 2

Filename J:\New Rips\Ella Fitzgerald - Twelve Nights In Hollywood (2009) [FLAC] {Hip-O Select B0012920-02 rec 1961-2}\disc 4of4\02 - Hard Hearted Hannah.wav

Peak level 79.1 %
Track quality 100.0 %
Test CRC 0B5B8DBD
Copy CRC 0B5B8DBD
Accurately ripped (confidence 3) [49C656CD]
Copy OK

Track 3

Filename J:\New Rips\Ella Fitzgerald - Twelve Nights In Hollywood (2009) [FLAC] {Hip-O Select B0012920-02 rec 1961-2}\disc 4of4\03 - Broadway.wav

Peak level 81.1 %
Track quality 100.0 %
Test CRC 48B183F4
Copy CRC 48B183F4
Accurately ripped (confidence 3) [0A5296CE]
Copy OK

Track 4

Filename J:\New Rips\Ella Fitzgerald - Twelve Nights In Hollywood (2009) [FLAC] {Hip-O Select B0012920-02 rec 1961-2}\disc 4of4\04 - My Kind Of Boy.wav

Peak level 81.9 %
Track quality 99.9 %
Test CRC 2849B133
Copy CRC 2849B133
Accurately ripped (confidence 3) [2C7E055D]
Copy OK

Track 5

Filename J:\New Rips\Ella Fitzgerald - Twelve Nights In Hollywood (2009) [FLAC] {Hip-O Select B0012920-02 rec 1961-2}\disc 4of4\05 - It Had To Be You.wav

Peak level 100.0 %
Track quality 100.0 %
Test CRC BB538FA4
Copy CRC BB538FA4
Accurately ripped (confidence 3) [97F14466]
Copy OK

Track 6

Filename J:\New Rips\Ella Fitzgerald - Twelve Nights In Hollywood (2009) [FLAC] {Hip-O Select B0012920-02 rec 1961-2}\disc 4of4\06 - C'est Magnifique.wav

Peak level 100.0 %
Track quality 100.0 %
Test CRC 7141EE19
Copy CRC 7141EE19
Accurately ripped (confidence 3) [D8DFA6AA]
Copy OK

Track 7

Filename J:\New Rips\Ella Fitzgerald - Twelve Nights In Hollywood (2009) [FLAC] {Hip-O Select B0012920-02 rec 1961-2}\disc 4of4\07 - How Long Has This Been Going On.wav

Peak level 86.2 %
Track quality 100.0 %
Test CRC 47509FA1
Copy CRC 47509FA1
Accurately ripped (confidence 3) [C7712F89]
Copy OK

Track 8

Filename J:\New Rips\Ella Fitzgerald - Twelve Nights In Hollywood (2009) [FLAC] {Hip-O Select B0012920-02 rec 1961-2}\disc 4of4\08 - When Your Lover Has Gone.wav

Peak level 77.5 %
Track quality 99.9 %
Test CRC DA0F7E17
Copy CRC DA0F7E17
Accurately ripped (confidence 3) [24A84869]
Copy OK

Track 9

Filename J:\New Rips\Ella Fitzgerald - Twelve Nights In Hollywood (2009) [FLAC] {Hip-O Select B0012920-02 rec 1961-2}\disc 4of4\09 - Taking A Chance On Love.wav

Peak level 75.2 %
Track quality 100.0 %
Test CRC F26EFFC1
Copy CRC F26EFFC1
Accurately ripped (confidence 3) [2DD35599]
Copy OK

Track 10

Filename J:\New Rips\Ella Fitzgerald - Twelve Nights In Hollywood (2009) [FLAC] {Hip-O Select B0012920-02 rec 1961-2}\disc 4of4\10 - Good Morning Heartache.wav

Peak level 87.2 %
Track quality 100.0 %
Test CRC 9F1ACEF2
Copy CRC 9F1ACEF2
Accurately ripped (confidence 3) [22671F62]
Copy OK

Track 11

Filename J:\New Rips\Ella Fitzgerald - Twelve Nights In Hollywood (2009) [FLAC] {Hip-O Select B0012920-02 rec 1961-2}\disc 4of4\11 - Clap Hands Here Comes Charlie.wav

Peak level 91.6 %
Track quality 100.0 %
Test CRC E48156C1
Copy CRC E48156C1
Accurately ripped (confidence 3) [0AD6C9F4]
Copy OK

Track 12

Filename J:\New Rips\Ella Fitzgerald - Twelve Nights In Hollywood (2009) [FLAC] {Hip-O Select B0012920-02 rec 1961-2}\disc 4of4\12 - Hallelujah I Love Him So.wav

Peak level 84.0 %
Track quality 100.0 %
Test CRC 4C1676F3
Copy CRC 4C1676F3
Accurately ripped (confidence 3) [849872F8]
Copy OK

Track 13

Filename J:\New Rips\Ella Fitzgerald - Twelve Nights In Hollywood (2009) [FLAC] {Hip-O Select B0012920-02 rec 1961-2}\disc 4of4\13 - Angel Eyes.wav

Peak level 84.1 %
Track quality 100.0 %
Test CRC 4A4AFC95
Copy CRC 4A4AFC95
Accurately ripped (confidence 3) [ACC00B29]
Copy OK

Track 14

Filename J:\New Rips\Ella Fitzgerald - Twelve Nights In Hollywood (2009) [FLAC] {Hip-O Select B0012920-02 rec 1961-2}\disc 4of4\14 - Ol Man Mose.wav

Peak level 98.8 %
Track quality 100.0 %
Test CRC 0A5A47E9
Copy CRC 0A5A47E9
Accurately ripped (confidence 3) [10681889]
Copy OK

Track 15

Filename J:\New Rips\Ella Fitzgerald - Twelve Nights In Hollywood (2009) [FLAC] {Hip-O Select B0012920-02 rec 1961-2}\disc 4of4\15 - Teach Me Tonight.wav

Peak level 70.6 %
Track quality 100.0 %
Test CRC 92FC3AFB
Copy CRC 92FC3AFB
Accurately ripped (confidence 3) [3088A286]
Copy OK

Track 16

Filename J:\New Rips\Ella Fitzgerald - Twelve Nights In Hollywood (2009) [FLAC] {Hip-O Select B0012920-02 rec 1961-2}\disc 4of4\16 - Too Darn Hot Ella's Twist.wav

Peak level 76.1 %
Track quality 99.8 %
Test CRC CFAC23DB
Copy CRC CFAC23DB
Accurately ripped (confidence 3) [8CCAB3AA]
Copy OK

Track 17

Filename J:\New Rips\Ella Fitzgerald - Twelve Nights In Hollywood (2009) [FLAC] {Hip-O Select B0012920-02 rec 1961-2}\disc 4of4\17 - Too Darn Hot.wav

Peak level 79.9 %
Track quality 100.0 %
Test CRC D5EE48CA
Copy CRC D5EE48CA
Accurately ripped (confidence 3) [2D68DC0C]
Copy OK

Track 18

Filename J:\New Rips\Ella Fitzgerald - Twelve Nights In Hollywood (2009) [FLAC] {Hip-O Select B0012920-02 rec 1961-2}\disc 4of4\18 - Bewitched.wav

Peak level 79.7 %
Track quality 100.0 %
Test CRC 3151976A
Copy CRC 3151976A
Accurately ripped (confidence 3) [8ED14009]
Copy OK

Track 19

Filename J:\New Rips\Ella Fitzgerald - Twelve Nights In Hollywood (2009) [FLAC] {Hip-O Select B0012920-02 rec 1961-2}\disc 4of4\19 - Bill Bailey.wav

Peak level 81.7 %
Track quality 100.0 %
Test CRC B0FE3454
Copy CRC B0FE3454
Accurately ripped (confidence 3) [F19BBA3E]
Copy OK

Track 20

Filename J:\New Rips\Ella Fitzgerald - Twelve Nights In Hollywood (2009) [FLAC] {Hip-O Select B0012920-02 rec 1961-2}\disc 4of4\20 - Bill Bailey (reprise).wav

Peak level 84.6 %
Track quality 100.0 %
Test CRC 3C2EF025
Copy CRC 3C2EF025
Accurately ripped (confidence 3) [680E8C62]
Copy OK


All tracks accurately ripped

No errors occurred

End of status report


Ella Fitzgerald - Twelve Nights In Hollywood (2009) {4CD Verve-Hip-O Select B0012920-02 rec 1961-1962}



===