Tags
Language
Tags
June 2024
Su Mo Tu We Th Fr Sa
26 27 28 29 30 31 1
2 3 4 5 6 7 8
9 10 11 12 13 14 15
16 17 18 19 20 21 22
23 24 25 26 27 28 29
30 1 2 3 4 5 6

Elvis Presley - Off-On Stage (2018)

Posted By: delpotro
Elvis Presley - Off-On Stage (2018)

Elvis Presley - Off-On Stage (2018)
EAC Rip | FLAC (tracks+log+.cue) | 00:45:23 | 270 Mb
Pop, R'n'B, Rock'n'Roll, Rockabilly | Label: Follow That Dream Records

Follow That Dream (FTD) release of Elvis: Off-On Stage in the 7" Classic Album format. This release includes unreleased multi-track recordings from February 1970. This is a great companion to the 'On Stage' Classic Album release from FTD.
Tracklist:
01. I Got A Woman (late start)
02. Long Tall Sally
03. Let It Be Me (Je t’appartiens)
04. Don’t Cry Daddy
05. I Can’t Stop Loving You
06. Walk A Mile In My Shoes
07. Sweet Caroline
08. Kentucky Rain
09. Polk Salad Annie
10. Proud Mary
11. Release Me (And Let Me Love Again)
12. See See Rider
13. The Wonder Of You
14. Don’t Cry Daddy
15. Kentucky Rain
16. Love Me Tender

Exact Audio Copy V1.6 from 23. October 2020

EAC extraction logfile from 2. May 2023, 17:48

Elvis Presley / Off-On Stage

Used drive : HL-DT-STDVDRAM GP60NB60 Adapter: 0 ID: 0

Read mode : Secure
Utilize accurate stream : Yes
Defeat audio cache : Yes
Make use of C2 pointers : No

Read offset correction : 6
Overread into Lead-In and Lead-Out : No
Fill up missing offset samples with silence : Yes
Delete leading and trailing silent blocks : No
Null samples used in CRC calculations : Yes
Used interface : Installed external ASPI interface
Gap handling : Appended to previous track

Used output format : User Defined Encoder
Selected bitrate : 1024 kBit/s
Quality : High
Add ID3 tag : No
Command line compressor : C:\Program Files (x86)\Exact Audio Copy\Flac\flac.exe
Additional command line options : -8 -V -T "ARTIST=%artist%" -T "TITLE=%title%" -T "ALBUM=%albumtitle%" -T "DATE=%year%" -T "TRACKNUMBER=%tracknr%" -T "GENRE=%genre%" -T "PERFORMER=%albuminterpret%" -T "COMPOSER=%composer%" %haslyrics%–tag-from-file=LYRICS="%lyricsfile%"%haslyrics% -T "ALBUMARTIST=%albumartist%" -T "DISCNUMBER=%cdnumber%" -T "TOTALDISCS=%totalcds%" -T "TOTALTRACKS=%numtracks%" -T "COMMENT=%comment%" %source% -o %dest%


TOC of the extracted CD

Track | Start | Length | Start sector | End sector
––––––––––––––––––––––––––––-
1 | 0:00.00 | 1:30.10 | 0 | 6759
2 | 1:30.10 | 1:38.38 | 6760 | 14147
3 | 3:08.48 | 3:38.67 | 14148 | 30564
4 | 6:47.40 | 2:33.63 | 30565 | 42102
5 | 9:21.28 | 2:24.58 | 42103 | 52960
6 | 11:46.11 | 3:00.11 | 52961 | 66471
7 | 14:46.22 | 2:46.67 | 66472 | 78988
8 | 17:33.14 | 2:59.44 | 78989 | 92457
9 | 20:32.58 | 4:33.57 | 92458 | 112989
10 | 25:06.40 | 3:01.32 | 112990 | 126596
11 | 28:07.72 | 3:05.36 | 126597 | 140507
12 | 31:13.33 | 3:01.23 | 140508 | 154105
13 | 34:14.56 | 2:37.42 | 154106 | 165922
14 | 36:52.23 | 2:42.36 | 165923 | 178108
15 | 39:34.59 | 3:13.17 | 178109 | 192600
16 | 42:48.01 | 2:35.61 | 192601 | 204286


Track 1

Filename C:\Exact Audio Copy (Secure Rip)\01 - I Got A Woman (late start).wav

Pre-gap length 0:00:02.00

Peak level 98.7 %
Extraction speed 1.0 X
Track quality 100.0 %
Test CRC 4E65C0CB
Copy CRC 4E65C0CB
Accurately ripped (confidence 9) [112E74EA] (AR v2)
Copy OK

Track 2

Filename C:\Exact Audio Copy (Secure Rip)\02 - Long Tall Sally.wav

Peak level 97.9 %
Extraction speed 1.1 X
Track quality 100.0 %
Test CRC EDD67E4D
Copy CRC EDD67E4D
Accurately ripped (confidence 9) [423554C9] (AR v2)
Copy OK

Track 3

Filename C:\Exact Audio Copy (Secure Rip)\03 - Let It Be Me (Je t’appartiens).wav

Peak level 98.4 %
Extraction speed 1.4 X
Track quality 100.0 %
Test CRC 5FE1A58D
Copy CRC 5FE1A58D
Accurately ripped (confidence 9) [1DD1F67D] (AR v2)
Copy OK

Track 4

Filename C:\Exact Audio Copy (Secure Rip)\04 - Don’t Cry Daddy.wav

Peak level 93.0 %
Extraction speed 1.4 X
Track quality 100.0 %
Test CRC EABB4123
Copy CRC EABB4123
Accurately ripped (confidence 9) [4DCBABBD] (AR v2)
Copy OK

Track 5

Filename C:\Exact Audio Copy (Secure Rip)\05 - I Can’t Stop Loving You.wav

Peak level 99.7 %
Extraction speed 0.9 X
Track quality 99.9 %
Test CRC 71C7012E
Copy CRC 71C7012E
Accurately ripped (confidence 9) [07320D3B] (AR v2)
Copy OK

Track 6

Filename C:\Exact Audio Copy (Secure Rip)\06 - Walk A Mile In My Shoes.wav

Peak level 97.8 %
Extraction speed 1.5 X
Track quality 100.0 %
Test CRC 55AC1376
Copy CRC 55AC1376
Accurately ripped (confidence 9) [B29B126A] (AR v2)
Copy OK

Track 7

Filename C:\Exact Audio Copy (Secure Rip)\07 - Sweet Caroline.wav

Peak level 98.5 %
Extraction speed 1.6 X
Track quality 100.0 %
Test CRC FCB9300C
Copy CRC FCB9300C
Accurately ripped (confidence 9) [DBEF9F6E] (AR v2)
Copy OK

Track 8

Filename C:\Exact Audio Copy (Secure Rip)\08 - Kentucky Rain.wav

Peak level 98.1 %
Extraction speed 1.1 X
Track quality 99.9 %
Test CRC 7EDBE614
Copy CRC 7EDBE614
Accurately ripped (confidence 9) [F1CD441F] (AR v2)
Copy OK

Track 9

Filename C:\Exact Audio Copy (Secure Rip)\09 - Polk Salad Annie.wav

Peak level 98.4 %
Extraction speed 1.9 X
Track quality 100.0 %
Test CRC B5034201
Copy CRC B5034201
Accurately ripped (confidence 9) [7427FFDA] (AR v2)
Copy OK

Track 10

Filename C:\Exact Audio Copy (Secure Rip)\10 - Proud Mary.wav

Peak level 98.2 %
Extraction speed 1.8 X
Track quality 100.0 %
Test CRC 01DCE65F
Copy CRC 01DCE65F
Accurately ripped (confidence 9) [742F6D23] (AR v2)
Copy OK

Track 11

Filename C:\Exact Audio Copy (Secure Rip)\11 - Release Me (And Let Me Love Again).wav

Peak level 97.9 %
Extraction speed 1.9 X
Track quality 100.0 %
Test CRC 3715EA53
Copy CRC 3715EA53
Accurately ripped (confidence 9) [07B54EBE] (AR v2)
Copy OK

Track 12

Filename C:\Exact Audio Copy (Secure Rip)\12 - See See Rider.wav

Peak level 97.9 %
Extraction speed 2.0 X
Track quality 100.0 %
Test CRC B0608F8E
Copy CRC B0608F8E
Accurately ripped (confidence 9) [1D2140EB] (AR v2)
Copy OK

Track 13

Filename C:\Exact Audio Copy (Secure Rip)\13 - The Wonder Of You.wav

Peak level 98.0 %
Extraction speed 2.0 X
Track quality 100.0 %
Test CRC 7DC40328
Copy CRC 7DC40328
Accurately ripped (confidence 9) [5B0F4BBD] (AR v2)
Copy OK

Track 14

Filename C:\Exact Audio Copy (Secure Rip)\14 - Don’t Cry Daddy.wav

Peak level 97.9 %
Extraction speed 2.0 X
Track quality 100.0 %
Test CRC E5E86018
Copy CRC E5E86018
Accurately ripped (confidence 9) [E2EE79F6] (AR v2)
Copy OK

Track 15

Filename C:\Exact Audio Copy (Secure Rip)\15 - Kentucky Rain.wav

Peak level 98.7 %
Extraction speed 1.4 X
Track quality 99.9 %
Test CRC 05C0EE6D
Copy CRC 05C0EE6D
Accurately ripped (confidence 9) [6FBB416B] (AR v2)
Copy OK

Track 16

Filename C:\Exact Audio Copy (Secure Rip)\16 - Love Me Tender.wav

Peak level 98.3 %
Extraction speed 2.1 X
Track quality 100.0 %
Test CRC 750B853A
Copy CRC 750B853A
Accurately ripped (confidence 9) [2BF36FD7] (AR v2)
Copy OK


All tracks accurately ripped

No errors occurred

End of status report

–– CUETools DB Plugin V2.1.6

[CTDB TOCID: kpYcgsbQGIqV5JdF6LcfS1HloiY-] found
Submit result: kpYcgsbQGIqV5JdF6LcfS1HloiY- has been confirmed
Track | CTDB Status
1 | (33/33) Accurately ripped
2 | (33/33) Accurately ripped
3 | (33/33) Accurately ripped
4 | (33/33) Accurately ripped
5 | (33/33) Accurately ripped
6 | (33/33) Accurately ripped
7 | (33/33) Accurately ripped
8 | (33/33) Accurately ripped
9 | (33/33) Accurately ripped
10 | (33/33) Accurately ripped
11 | (33/33) Accurately ripped
12 | (33/33) Accurately ripped
13 | (33/33) Accurately ripped
14 | (33/33) Accurately ripped
15 | (32/33) Accurately ripped
16 | (32/33) Accurately ripped


==== Log checksum 0DF5CD7B11BF741F02930677799C55FC120D2F45E77D64A4A02697C6B1DE79B1 ====

Thanks to the Original ripper !