Tags
Language
Tags
June 2024
Su Mo Tu We Th Fr Sa
26 27 28 29 30 31 1
2 3 4 5 6 7 8
9 10 11 12 13 14 15
16 17 18 19 20 21 22
23 24 25 26 27 28 29
30 1 2 3 4 5 6

Elvis Presley - South Bound (Tampa/Atlanta '75) (2021)

Posted By: delpotro
Elvis Presley - South Bound (Tampa/Atlanta '75) (2021)

Elvis Presley - South Bound (Tampa/Atlanta '75) (2021)
EAC Rip | FLAC (tracks+log+.cue) - 723 Mb | MP3 CBR 320 kbps - 265 Mb | 01:51:37
Pop, R'n'B, Rock'n'Roll | Label: Follow That Dream Records

As part of its ongoing live on tour series, FTD is pleased to announce the release of ELVIS: SOUTH BOUND Tampa/ Atlanta ‘75. Released as a 2-CD 5” digi-pak, this set features Elvis from two shows: Curtis Hixon Convention Center, Tampa, April 26, 1975 (2:30 PM) and Omni Coliseum, Atlanta, May 2, 1975 (8:30 PM).
Tracklist:
Disc 1
01. Introduction
02. Love Me
03. If You Love Me
04. Love Me Tender
05. Teddy Bear - Don't Be Cruel
06. It's Midnight
07. Burning Love
08. Introductions
09. What'd I Say & Solo
10. School Days
11. My Boy
12. T-R-O-U-B-L-E
13. I'll Remember You
14. Let Me Be There
15. American Trilogy
16. Funny How Times Slips Away
17. That's All Right
18. Heartbreak Hotel
19. Can't Help Falling In Love
20. Closing Vamp

Disc 2
01. Talk
02. Love Me
03. If You Love Me
04. Love Me Tender
05. All Shook Up
06. Teddy Bear - Don't Be Cruel
07. The Wonder Of You
08. Burning Love
09. Introductions
10. Solos
11. School Days
12. Steamroller Blues
13. My Boy
14. T-R-O-U-B-L-E
15. I'll Remember You
16. The Mickey Mouse Song
17. Let Me Be There
18. American Trilogy
19. Funny How Time Slips Away
20. Can't Help Falling In Love
21. Closing Vamp

Exact Audio Copy V1.3 from 2. September 2016

EAC extraction logfile from 25. April 2022, 18:18

Elvis Presley / Southbound Tampa-Atlanta 75

Used drive : HL-DT-STBD-RE BH16NS55 Adapter: 1 ID: 0

Read mode : Secure
Utilize accurate stream : Yes
Defeat audio cache : Yes
Make use of C2 pointers : No

Read offset correction : 6
Overread into Lead-In and Lead-Out : No
Fill up missing offset samples with silence : Yes
Delete leading and trailing silent blocks : No
Null samples used in CRC calculations : Yes
Used interface : Native Win32 interface for Win NT & 2000
Gap handling : Appended to previous track

Used output format : User Defined Encoder
Selected bitrate : 1024 kBit/s
Quality : High
Add ID3 tag : No
Command line compressor : C:\Program Files (x86)\Exact Audio Copy\Flac\flac.exe
Additional command line options : -8 -V -T "ARTIST=%artist%" -T "TITLE=%title%" -T "ALBUM=%albumtitle%" -T "DATE=%year%" -T "TRACKNUMBER=%tracknr%" -T "GENRE=%genre%" -T "PERFORMER=%albuminterpret%" -T "COMPOSER=%composer%" %haslyrics%–tag-from-file=LYRICS="%lyricsfile%"%haslyrics% -T "ALBUMARTIST=%albumartist%" -T "DISCNUMBER=%cdnumber%" -T "TOTALDISCS=%totalcds%" -T "TOTALTRACKS=%numtracks%" -T "COMMENT=%comment%" %source% -o %dest%


TOC of the extracted CD

Track | Start | Length | Start sector | End sector
––––––––––––––––––––––––––––-
1 | 0:00.00 | 0:54.28 | 0 | 4077
2 | 0:54.28 | 2:19.46 | 4078 | 14548
3 | 3:13.74 | 4:24.58 | 14549 | 34406
4 | 7:38.57 | 2:28.02 | 34407 | 45508
5 | 10:06.59 | 2:10.01 | 45509 | 55259
6 | 12:16.60 | 3:01.48 | 55260 | 68882
7 | 15:18.33 | 3:01.49 | 68883 | 82506
8 | 18:20.07 | 1:41.48 | 82507 | 90129
9 | 20:01.55 | 4:54.63 | 90130 | 112242
10 | 24:56.43 | 1:32.04 | 112243 | 119146
11 | 26:28.47 | 4:22.74 | 119147 | 138870
12 | 30:51.46 | 3:37.73 | 138871 | 155218
13 | 34:29.44 | 2:40.43 | 155219 | 167261
14 | 37:10.12 | 3:23.48 | 167262 | 182534
15 | 40:33.60 | 4:15.48 | 182535 | 201707
16 | 44:49.33 | 2:53.51 | 201708 | 214733
17 | 47:43.09 | 2:24.58 | 214734 | 225591
18 | 50:07.67 | 2:11.25 | 225592 | 235441
19 | 52:19.17 | 1:41.05 | 235442 | 243021
20 | 54:00.22 | 3:44.00 | 243022 | 259821


Track 1

Filename D:\#cdr\#wav+flac\#New\Elvis Presley - Southbound (Tampa-Atlanta 75)\cd 1\01. Elvis Presley - Introduction.wav

Pre-gap length 0:00:02.00

Peak level 73.8 %
Extraction speed 2.8 X
Track quality 100.0 %
Test CRC 26D194D9
Copy CRC 26D194D9
Accurately ripped (confidence 4) [14D22BCA] (AR v2)
Copy OK

Track 2

Filename D:\#cdr\#wav+flac\#New\Elvis Presley - Southbound (Tampa-Atlanta 75)\cd 1\02. Elvis Presley - Love Me.wav

Peak level 99.9 %
Extraction speed 4.0 X
Track quality 100.0 %
Test CRC 538780F2
Copy CRC 538780F2
Accurately ripped (confidence 4) [7FCB155B] (AR v2)
Copy OK

Track 3

Filename D:\#cdr\#wav+flac\#New\Elvis Presley - Southbound (Tampa-Atlanta 75)\cd 1\03. Elvis Presley - If You Love Me.wav

Peak level 99.9 %
Extraction speed 4.9 X
Track quality 100.0 %
Test CRC 627415E9
Copy CRC 627415E9
Accurately ripped (confidence 4) [8D0FAA3F] (AR v2)
Copy OK

Track 4

Filename D:\#cdr\#wav+flac\#New\Elvis Presley - Southbound (Tampa-Atlanta 75)\cd 1\04. Elvis Presley - Love Me Tender.wav

Peak level 99.9 %
Extraction speed 3.6 X
Track quality 99.9 %
Test CRC 1E8B27ED
Copy CRC 1E8B27ED
Accurately ripped (confidence 4) [434F9113] (AR v2)
Copy OK

Track 5

Filename D:\#cdr\#wav+flac\#New\Elvis Presley - Southbound (Tampa-Atlanta 75)\cd 1\05. Elvis Presley - Teddy Bear - Don't Be Cruel.wav

Peak level 99.9 %
Extraction speed 4.8 X
Track quality 100.0 %
Test CRC 85DF099A
Copy CRC 85DF099A
Accurately ripped (confidence 4) [8C4ECFFD] (AR v2)
Copy OK

Track 6

Filename D:\#cdr\#wav+flac\#New\Elvis Presley - Southbound (Tampa-Atlanta 75)\cd 1\06. Elvis Presley - It's Midnight.wav

Peak level 99.9 %
Extraction speed 5.4 X
Track quality 100.0 %
Test CRC 7373EBC8
Copy CRC 7373EBC8
Accurately ripped (confidence 4) [08A1B592] (AR v2)
Copy OK

Track 7

Filename D:\#cdr\#wav+flac\#New\Elvis Presley - Southbound (Tampa-Atlanta 75)\cd 1\07. Elvis Presley - Burning Love.wav

Peak level 99.9 %
Extraction speed 5.6 X
Track quality 100.0 %
Test CRC B55B148B
Copy CRC B55B148B
Accurately ripped (confidence 4) [5C5BCADF] (AR v2)
Copy OK

Track 8

Filename D:\#cdr\#wav+flac\#New\Elvis Presley - Southbound (Tampa-Atlanta 75)\cd 1\08. Elvis Presley - Introductions.wav

Peak level 93.3 %
Extraction speed 5.1 X
Track quality 100.0 %
Test CRC 33E716C9
Copy CRC 33E716C9
Accurately ripped (confidence 4) [3319B5F4] (AR v2)
Copy OK

Track 9

Filename D:\#cdr\#wav+flac\#New\Elvis Presley - Southbound (Tampa-Atlanta 75)\cd 1\09. Elvis Presley - What'd I Say & Solo.wav

Peak level 99.9 %
Extraction speed 6.5 X
Track quality 100.0 %
Test CRC 0958BE19
Copy CRC 0958BE19
Accurately ripped (confidence 4) [D46FC0C1] (AR v2)
Copy OK

Track 10

Filename D:\#cdr\#wav+flac\#New\Elvis Presley - Southbound (Tampa-Atlanta 75)\cd 1\10. Elvis Presley - School Days.wav

Peak level 99.9 %
Extraction speed 5.5 X
Track quality 100.0 %
Test CRC 969215E4
Copy CRC 969215E4
Accurately ripped (confidence 4) [1DF9457D] (AR v2)
Copy OK

Track 11

Filename D:\#cdr\#wav+flac\#New\Elvis Presley - Southbound (Tampa-Atlanta 75)\cd 1\11. Elvis Presley - My Boy.wav

Peak level 99.9 %
Extraction speed 6.9 X
Track quality 100.0 %
Test CRC D945AB10
Copy CRC D945AB10
Accurately ripped (confidence 4) [17A7C620] (AR v2)
Copy OK

Track 12

Filename D:\#cdr\#wav+flac\#New\Elvis Presley - Southbound (Tampa-Atlanta 75)\cd 1\12. Elvis Presley - T-R-O-U-B-L-E.wav

Peak level 99.9 %
Extraction speed 7.0 X
Track quality 100.0 %
Test CRC AA8B9806
Copy CRC AA8B9806
Accurately ripped (confidence 4) [D5DB4E19] (AR v2)
Copy OK

Track 13

Filename D:\#cdr\#wav+flac\#New\Elvis Presley - Southbound (Tampa-Atlanta 75)\cd 1\13. Elvis Presley - I'll Remember You.wav

Peak level 99.9 %
Extraction speed 6.8 X
Track quality 100.0 %
Test CRC A54F98EC
Copy CRC A54F98EC
Accurately ripped (confidence 4) [E9E29D29] (AR v2)
Copy OK

Track 14

Filename D:\#cdr\#wav+flac\#New\Elvis Presley - Southbound (Tampa-Atlanta 75)\cd 1\14. Elvis Presley - Let Me Be There.wav

Peak level 99.9 %
Extraction speed 7.4 X
Track quality 100.0 %
Test CRC F05612A4
Copy CRC F05612A4
Accurately ripped (confidence 4) [2D7E77B7] (AR v2)
Copy OK

Track 15

Filename D:\#cdr\#wav+flac\#New\Elvis Presley - Southbound (Tampa-Atlanta 75)\cd 1\15. Elvis Presley - American Trilogy.wav

Peak level 99.9 %
Extraction speed 6.5 X
Track quality 99.9 %
Test CRC 88CF40F9
Copy CRC 88CF40F9
Accurately ripped (confidence 4) [B2F58F10] (AR v2)
Copy OK

Track 16

Filename D:\#cdr\#wav+flac\#New\Elvis Presley - Southbound (Tampa-Atlanta 75)\cd 1\16. Elvis Presley - Funny How Times Slips Away.wav

Peak level 99.9 %
Extraction speed 7.5 X
Track quality 100.0 %
Test CRC 4CEE4AF8
Copy CRC 4CEE4AF8
Accurately ripped (confidence 4) [B6BD0A21] (AR v2)
Copy OK

Track 17

Filename D:\#cdr\#wav+flac\#New\Elvis Presley - Southbound (Tampa-Atlanta 75)\cd 1\17. Elvis Presley - That's All Right.wav

Peak level 99.9 %
Extraction speed 5.7 X
Track quality 99.9 %
Test CRC 2412EF2E
Copy CRC 2412EF2E
Accurately ripped (confidence 4) [312B9F6A] (AR v2)
Copy OK

Track 18

Filename D:\#cdr\#wav+flac\#New\Elvis Presley - Southbound (Tampa-Atlanta 75)\cd 1\18. Elvis Presley - Heartbreak Hotel.wav

Peak level 99.9 %
Extraction speed 7.4 X
Track quality 100.0 %
Test CRC DF143B09
Copy CRC DF143B09
Accurately ripped (confidence 4) [629BEA6F] (AR v2)
Copy OK

Track 19

Filename D:\#cdr\#wav+flac\#New\Elvis Presley - Southbound (Tampa-Atlanta 75)\cd 1\19. Elvis Presley - Can't Help Falling In Love.wav

Peak level 99.9 %
Extraction speed 7.1 X
Track quality 100.0 %
Test CRC 3CF54A79
Copy CRC 3CF54A79
Accurately ripped (confidence 4) [2A871AAE] (AR v2)
Copy OK

Track 20

Filename D:\#cdr\#wav+flac\#New\Elvis Presley - Southbound (Tampa-Atlanta 75)\cd 1\20. Elvis Presley - Closing Vamp.wav

Peak level 99.9 %
Extraction speed 8.3 X
Track quality 100.0 %
Test CRC FCFD30DE
Copy CRC FCFD30DE
Accurately ripped (confidence 4) [85F6F84A] (AR v2)
Copy OK


All tracks accurately ripped

No errors occurred

End of status report

–– CUETools DB Plugin V2.1.6

[CTDB TOCID: 9ZoZgPfkFp1SCPSVOK21ojB9v_A-] found
Submit result: 9ZoZgPfkFp1SCPSVOK21ojB9v_A- has been confirmed
Track | CTDB Status
1 | (17/17) Accurately ripped
2 | (17/17) Accurately ripped
3 | (17/17) Accurately ripped
4 | (17/17) Accurately ripped
5 | (17/17) Accurately ripped
6 | (17/17) Accurately ripped
7 | (17/17) Accurately ripped
8 | (17/17) Accurately ripped
9 | (17/17) Accurately ripped
10 | (17/17) Accurately ripped
11 | (17/17) Accurately ripped
12 | (17/17) Accurately ripped
13 | (17/17) Accurately ripped
14 | (17/17) Accurately ripped
15 | (17/17) Accurately ripped
16 | (17/17) Accurately ripped
17 | (17/17) Accurately ripped
18 | (17/17) Accurately ripped
19 | (17/17) Accurately ripped
20 | (17/17) Accurately ripped


==== Log checksum EA73E7464FA24C1CC330B6E662ADDFC44CCD4068931BE0639AED36A65D12450C ====

––––––––––––––––––––––––––––––

Exact Audio Copy V1.3 from 2. September 2016

EAC extraction logfile from 25. April 2022, 18:18

Elvis Presley / Southbound Tampa-Atlanta 75

Used drive : HL-DT-STBD-RE BH16NS55 Adapter: 1 ID: 0

Read mode : Secure
Utilize accurate stream : Yes
Defeat audio cache : Yes
Make use of C2 pointers : No

Read offset correction : 6
Overread into Lead-In and Lead-Out : No
Fill up missing offset samples with silence : Yes
Delete leading and trailing silent blocks : No
Null samples used in CRC calculations : Yes
Used interface : Native Win32 interface for Win NT & 2000
Gap handling : Appended to previous track

Used output format : User Defined Encoder
Selected bitrate : 1024 kBit/s
Quality : High
Add ID3 tag : No
Command line compressor : C:\Program Files (x86)\Exact Audio Copy\Flac\flac.exe
Additional command line options : -8 -V -T "ARTIST=%artist%" -T "TITLE=%title%" -T "ALBUM=%albumtitle%" -T "DATE=%year%" -T "TRACKNUMBER=%tracknr%" -T "GENRE=%genre%" -T "PERFORMER=%albuminterpret%" -T "COMPOSER=%composer%" %haslyrics%–tag-from-file=LYRICS="%lyricsfile%"%haslyrics% -T "ALBUMARTIST=%albumartist%" -T "DISCNUMBER=%cdnumber%" -T "TOTALDISCS=%totalcds%" -T "TOTALTRACKS=%numtracks%" -T "COMMENT=%comment%" %source% -o %dest%


TOC of the extracted CD

Track | Start | Length | Start sector | End sector
––––––––––––––––––––––––––––-
1 | 0:00.00 | 0:54.28 | 0 | 4077
2 | 0:54.28 | 2:19.46 | 4078 | 14548
3 | 3:13.74 | 4:24.58 | 14549 | 34406
4 | 7:38.57 | 2:28.02 | 34407 | 45508
5 | 10:06.59 | 2:10.01 | 45509 | 55259
6 | 12:16.60 | 3:01.48 | 55260 | 68882
7 | 15:18.33 | 3:01.49 | 68883 | 82506
8 | 18:20.07 | 1:41.48 | 82507 | 90129
9 | 20:01.55 | 4:54.63 | 90130 | 112242
10 | 24:56.43 | 1:32.04 | 112243 | 119146
11 | 26:28.47 | 4:22.74 | 119147 | 138870
12 | 30:51.46 | 3:37.73 | 138871 | 155218
13 | 34:29.44 | 2:40.43 | 155219 | 167261
14 | 37:10.12 | 3:23.48 | 167262 | 182534
15 | 40:33.60 | 4:15.48 | 182535 | 201707
16 | 44:49.33 | 2:53.51 | 201708 | 214733
17 | 47:43.09 | 2:24.58 | 214734 | 225591
18 | 50:07.67 | 2:11.25 | 225592 | 235441
19 | 52:19.17 | 1:41.05 | 235442 | 243021
20 | 54:00.22 | 3:44.00 | 243022 | 259821


Track 1

Filename D:\#cdr\#wav+flac\#New\Elvis Presley - Southbound (Tampa-Atlanta 75)\cd 1\01. Elvis Presley - Introduction.wav

Pre-gap length 0:00:02.00

Peak level 73.8 %
Extraction speed 2.8 X
Track quality 100.0 %
Test CRC 26D194D9
Copy CRC 26D194D9
Accurately ripped (confidence 4) [14D22BCA] (AR v2)
Copy OK

Track 2

Filename D:\#cdr\#wav+flac\#New\Elvis Presley - Southbound (Tampa-Atlanta 75)\cd 1\02. Elvis Presley - Love Me.wav

Peak level 99.9 %
Extraction speed 4.0 X
Track quality 100.0 %
Test CRC 538780F2
Copy CRC 538780F2
Accurately ripped (confidence 4) [7FCB155B] (AR v2)
Copy OK

Track 3

Filename D:\#cdr\#wav+flac\#New\Elvis Presley - Southbound (Tampa-Atlanta 75)\cd 1\03. Elvis Presley - If You Love Me.wav

Peak level 99.9 %
Extraction speed 4.9 X
Track quality 100.0 %
Test CRC 627415E9
Copy CRC 627415E9
Accurately ripped (confidence 4) [8D0FAA3F] (AR v2)
Copy OK

Track 4

Filename D:\#cdr\#wav+flac\#New\Elvis Presley - Southbound (Tampa-Atlanta 75)\cd 1\04. Elvis Presley - Love Me Tender.wav

Peak level 99.9 %
Extraction speed 3.6 X
Track quality 99.9 %
Test CRC 1E8B27ED
Copy CRC 1E8B27ED
Accurately ripped (confidence 4) [434F9113] (AR v2)
Copy OK

Track 5

Filename D:\#cdr\#wav+flac\#New\Elvis Presley - Southbound (Tampa-Atlanta 75)\cd 1\05. Elvis Presley - Teddy Bear - Don't Be Cruel.wav

Peak level 99.9 %
Extraction speed 4.8 X
Track quality 100.0 %
Test CRC 85DF099A
Copy CRC 85DF099A
Accurately ripped (confidence 4) [8C4ECFFD] (AR v2)
Copy OK

Track 6

Filename D:\#cdr\#wav+flac\#New\Elvis Presley - Southbound (Tampa-Atlanta 75)\cd 1\06. Elvis Presley - It's Midnight.wav

Peak level 99.9 %
Extraction speed 5.4 X
Track quality 100.0 %
Test CRC 7373EBC8
Copy CRC 7373EBC8
Accurately ripped (confidence 4) [08A1B592] (AR v2)
Copy OK

Track 7

Filename D:\#cdr\#wav+flac\#New\Elvis Presley - Southbound (Tampa-Atlanta 75)\cd 1\07. Elvis Presley - Burning Love.wav

Peak level 99.9 %
Extraction speed 5.6 X
Track quality 100.0 %
Test CRC B55B148B
Copy CRC B55B148B
Accurately ripped (confidence 4) [5C5BCADF] (AR v2)
Copy OK

Track 8

Filename D:\#cdr\#wav+flac\#New\Elvis Presley - Southbound (Tampa-Atlanta 75)\cd 1\08. Elvis Presley - Introductions.wav

Peak level 93.3 %
Extraction speed 5.1 X
Track quality 100.0 %
Test CRC 33E716C9
Copy CRC 33E716C9
Accurately ripped (confidence 4) [3319B5F4] (AR v2)
Copy OK

Track 9

Filename D:\#cdr\#wav+flac\#New\Elvis Presley - Southbound (Tampa-Atlanta 75)\cd 1\09. Elvis Presley - What'd I Say & Solo.wav

Peak level 99.9 %
Extraction speed 6.5 X
Track quality 100.0 %
Test CRC 0958BE19
Copy CRC 0958BE19
Accurately ripped (confidence 4) [D46FC0C1] (AR v2)
Copy OK

Track 10

Filename D:\#cdr\#wav+flac\#New\Elvis Presley - Southbound (Tampa-Atlanta 75)\cd 1\10. Elvis Presley - School Days.wav

Peak level 99.9 %
Extraction speed 5.5 X
Track quality 100.0 %
Test CRC 969215E4
Copy CRC 969215E4
Accurately ripped (confidence 4) [1DF9457D] (AR v2)
Copy OK

Track 11

Filename D:\#cdr\#wav+flac\#New\Elvis Presley - Southbound (Tampa-Atlanta 75)\cd 1\11. Elvis Presley - My Boy.wav

Peak level 99.9 %
Extraction speed 6.9 X
Track quality 100.0 %
Test CRC D945AB10
Copy CRC D945AB10
Accurately ripped (confidence 4) [17A7C620] (AR v2)
Copy OK

Track 12

Filename D:\#cdr\#wav+flac\#New\Elvis Presley - Southbound (Tampa-Atlanta 75)\cd 1\12. Elvis Presley - T-R-O-U-B-L-E.wav

Peak level 99.9 %
Extraction speed 7.0 X
Track quality 100.0 %
Test CRC AA8B9806
Copy CRC AA8B9806
Accurately ripped (confidence 4) [D5DB4E19] (AR v2)
Copy OK

Track 13

Filename D:\#cdr\#wav+flac\#New\Elvis Presley - Southbound (Tampa-Atlanta 75)\cd 1\13. Elvis Presley - I'll Remember You.wav

Peak level 99.9 %
Extraction speed 6.8 X
Track quality 100.0 %
Test CRC A54F98EC
Copy CRC A54F98EC
Accurately ripped (confidence 4) [E9E29D29] (AR v2)
Copy OK

Track 14

Filename D:\#cdr\#wav+flac\#New\Elvis Presley - Southbound (Tampa-Atlanta 75)\cd 1\14. Elvis Presley - Let Me Be There.wav

Peak level 99.9 %
Extraction speed 7.4 X
Track quality 100.0 %
Test CRC F05612A4
Copy CRC F05612A4
Accurately ripped (confidence 4) [2D7E77B7] (AR v2)
Copy OK

Track 15

Filename D:\#cdr\#wav+flac\#New\Elvis Presley - Southbound (Tampa-Atlanta 75)\cd 1\15. Elvis Presley - American Trilogy.wav

Peak level 99.9 %
Extraction speed 6.5 X
Track quality 99.9 %
Test CRC 88CF40F9
Copy CRC 88CF40F9
Accurately ripped (confidence 4) [B2F58F10] (AR v2)
Copy OK

Track 16

Filename D:\#cdr\#wav+flac\#New\Elvis Presley - Southbound (Tampa-Atlanta 75)\cd 1\16. Elvis Presley - Funny How Times Slips Away.wav

Peak level 99.9 %
Extraction speed 7.5 X
Track quality 100.0 %
Test CRC 4CEE4AF8
Copy CRC 4CEE4AF8
Accurately ripped (confidence 4) [B6BD0A21] (AR v2)
Copy OK

Track 17

Filename D:\#cdr\#wav+flac\#New\Elvis Presley - Southbound (Tampa-Atlanta 75)\cd 1\17. Elvis Presley - That's All Right.wav

Peak level 99.9 %
Extraction speed 5.7 X
Track quality 99.9 %
Test CRC 2412EF2E
Copy CRC 2412EF2E
Accurately ripped (confidence 4) [312B9F6A] (AR v2)
Copy OK

Track 18

Filename D:\#cdr\#wav+flac\#New\Elvis Presley - Southbound (Tampa-Atlanta 75)\cd 1\18. Elvis Presley - Heartbreak Hotel.wav

Peak level 99.9 %
Extraction speed 7.4 X
Track quality 100.0 %
Test CRC DF143B09
Copy CRC DF143B09
Accurately ripped (confidence 4) [629BEA6F] (AR v2)
Copy OK

Track 19

Filename D:\#cdr\#wav+flac\#New\Elvis Presley - Southbound (Tampa-Atlanta 75)\cd 1\19. Elvis Presley - Can't Help Falling In Love.wav

Peak level 99.9 %
Extraction speed 7.1 X
Track quality 100.0 %
Test CRC 3CF54A79
Copy CRC 3CF54A79
Accurately ripped (confidence 4) [2A871AAE] (AR v2)
Copy OK

Track 20

Filename D:\#cdr\#wav+flac\#New\Elvis Presley - Southbound (Tampa-Atlanta 75)\cd 1\20. Elvis Presley - Closing Vamp.wav

Peak level 99.9 %
Extraction speed 8.3 X
Track quality 100.0 %
Test CRC FCFD30DE
Copy CRC FCFD30DE
Accurately ripped (confidence 4) [85F6F84A] (AR v2)
Copy OK


All tracks accurately ripped

No errors occurred

End of status report

–– CUETools DB Plugin V2.1.6

[CTDB TOCID: 9ZoZgPfkFp1SCPSVOK21ojB9v_A-] found
Submit result: 9ZoZgPfkFp1SCPSVOK21ojB9v_A- has been confirmed
Track | CTDB Status
1 | (17/17) Accurately ripped
2 | (17/17) Accurately ripped
3 | (17/17) Accurately ripped
4 | (17/17) Accurately ripped
5 | (17/17) Accurately ripped
6 | (17/17) Accurately ripped
7 | (17/17) Accurately ripped
8 | (17/17) Accurately ripped
9 | (17/17) Accurately ripped
10 | (17/17) Accurately ripped
11 | (17/17) Accurately ripped
12 | (17/17) Accurately ripped
13 | (17/17) Accurately ripped
14 | (17/17) Accurately ripped
15 | (17/17) Accurately ripped
16 | (17/17) Accurately ripped
17 | (17/17) Accurately ripped
18 | (17/17) Accurately ripped
19 | (17/17) Accurately ripped
20 | (17/17) Accurately ripped


==== Log checksum EA73E7464FA24C1CC330B6E662ADDFC44CCD4068931BE0639AED36A65D12450C ====
Exact Audio Copy V1.3 from 2. September 2016

EAC extraction logfile from 25. April 2022, 18:56

Elvis Presley / Southbound Tampa-Atlanta 75

Used drive : HL-DT-STBD-RE BH16NS55 Adapter: 1 ID: 0

Read mode : Secure
Utilize accurate stream : Yes
Defeat audio cache : Yes
Make use of C2 pointers : No

Read offset correction : 6
Overread into Lead-In and Lead-Out : No
Fill up missing offset samples with silence : Yes
Delete leading and trailing silent blocks : No
Null samples used in CRC calculations : Yes
Used interface : Native Win32 interface for Win NT & 2000
Gap handling : Appended to previous track

Used output format : User Defined Encoder
Selected bitrate : 1024 kBit/s
Quality : High
Add ID3 tag : No
Command line compressor : C:\Program Files (x86)\Exact Audio Copy\Flac\flac.exe
Additional command line options : -8 -V -T "ARTIST=%artist%" -T "TITLE=%title%" -T "ALBUM=%albumtitle%" -T "DATE=%year%" -T "TRACKNUMBER=%tracknr%" -T "GENRE=%genre%" -T "PERFORMER=%albuminterpret%" -T "COMPOSER=%composer%" %haslyrics%–tag-from-file=LYRICS="%lyricsfile%"%haslyrics% -T "ALBUMARTIST=%albumartist%" -T "DISCNUMBER=%cdnumber%" -T "TOTALDISCS=%totalcds%" -T "TOTALTRACKS=%numtracks%" -T "COMMENT=%comment%" %source% -o %dest%


TOC of the extracted CD

Track | Start | Length | Start sector | End sector
––––––––––––––––––––––––––––-
1 | 0:00.00 | 0:43.68 | 0 | 3292
2 | 0:43.68 | 2:22.33 | 3293 | 13975
3 | 3:06.26 | 2:53.37 | 13976 | 26987
4 | 5:59.63 | 2:24.74 | 26988 | 37861
5 | 8:24.62 | 1:47.14 | 37862 | 45900
6 | 10:12.01 | 2:01.14 | 45901 | 54989
7 | 12:13.15 | 2:06.66 | 54990 | 64505
8 | 14:20.06 | 3:50.15 | 64506 | 81770
9 | 18:10.21 | 1:04.59 | 81771 | 86629
10 | 19:15.05 | 5:05.04 | 86630 | 109508
11 | 24:20.09 | 0:50.13 | 109509 | 113271
12 | 25:10.22 | 3:01.71 | 113272 | 126917
13 | 28:12.18 | 5:03.31 | 126918 | 149673
14 | 33:15.49 | 3:52.02 | 149674 | 167075
15 | 37:07.51 | 2:50.31 | 167076 | 179856
16 | 39:58.07 | 0:13.29 | 179857 | 180860
17 | 40:11.36 | 3:19.68 | 180861 | 195853
18 | 43:31.29 | 4:53.37 | 195854 | 217865
19 | 48:24.66 | 3:01.00 | 217866 | 231440
20 | 51:25.66 | 1:37.19 | 231441 | 238734
21 | 53:03.10 | 0:50.28 | 238735 | 242512


Track 1

Filename D:\#cdr\#wav+flac\#New\Elvis Presley - Southbound (Tampa-Atlanta 75)\cd 2\01. Elvis Presley - Talk.wav

Pre-gap length 0:00:02.00

Peak level 85.6 %
Extraction speed 1.6 X
Track quality 100.0 %
Test CRC 7A8AE592
Copy CRC 7A8AE592
Accurately ripped (confidence 4) [59B06894] (AR v2)
Copy OK

Track 2

Filename D:\#cdr\#wav+flac\#New\Elvis Presley - Southbound (Tampa-Atlanta 75)\cd 2\02. Elvis Presley - Love Me.wav

Peak level 99.9 %
Extraction speed 1.8 X
Track quality 99.9 %
Test CRC 07EDCB99
Copy CRC 07EDCB99
Accurately ripped (confidence 4) [B4832EB4] (AR v2)
Copy OK

Track 3

Filename D:\#cdr\#wav+flac\#New\Elvis Presley - Southbound (Tampa-Atlanta 75)\cd 2\03. Elvis Presley - If You Love Me.wav

Peak level 99.9 %
Extraction speed 2.8 X
Track quality 100.0 %
Test CRC 884914C1
Copy CRC 884914C1
Accurately ripped (confidence 4) [66F96027] (AR v2)
Copy OK

Track 4

Filename D:\#cdr\#wav+flac\#New\Elvis Presley - Southbound (Tampa-Atlanta 75)\cd 2\04. Elvis Presley - Love Me Tender.wav

Peak level 99.9 %
Extraction speed 2.9 X
Track quality 100.0 %
Test CRC 362C4D68
Copy CRC 362C4D68
Accurately ripped (confidence 4) [BEBBAC54] (AR v2)
Copy OK

Track 5

Filename D:\#cdr\#wav+flac\#New\Elvis Presley - Southbound (Tampa-Atlanta 75)\cd 2\05. Elvis Presley - All Shook Up.wav

Peak level 99.9 %
Extraction speed 1.9 X
Track quality 99.9 %
Test CRC 40E04CE4
Copy CRC 40E04CE4
Accurately ripped (confidence 4) [402AEEAE] (AR v2)
Copy OK

Track 6

Filename D:\#cdr\#wav+flac\#New\Elvis Presley - Southbound (Tampa-Atlanta 75)\cd 2\06. Elvis Presley - Teddy Bear - Don't Be Cruel.wav

Peak level 99.9 %
Extraction speed 2.1 X
Track quality 99.9 %
Test CRC 734272AA
Copy CRC 734272AA
Accurately ripped (confidence 4) [4260E47B] (AR v2)
Copy OK

Track 7

Filename D:\#cdr\#wav+flac\#New\Elvis Presley - Southbound (Tampa-Atlanta 75)\cd 2\07. Elvis Presley - The Wonder Of You.wav

Peak level 99.9 %
Extraction speed 3.1 X
Track quality 100.0 %
Test CRC 4846EBB3
Copy CRC 4846EBB3
Accurately ripped (confidence 4) [5D6C92CC] (AR v2)
Copy OK

Track 8

Filename D:\#cdr\#wav+flac\#New\Elvis Presley - Southbound (Tampa-Atlanta 75)\cd 2\08. Elvis Presley - Burning Love.wav

Peak level 99.9 %
Extraction speed 3.7 X
Track quality 100.0 %
Test CRC 12AA22D7
Copy CRC 12AA22D7
Accurately ripped (confidence 4) [C3DD18F0] (AR v2)
Copy OK

Track 9

Filename D:\#cdr\#wav+flac\#New\Elvis Presley - Southbound (Tampa-Atlanta 75)\cd 2\09. Elvis Presley - Introductions.wav

Peak level 87.7 %
Extraction speed 2.8 X
Track quality 100.0 %
Test CRC EA2E25E0
Copy CRC EA2E25E0
Accurately ripped (confidence 4) [C6108B77] (AR v2)
Copy OK

Track 10

Filename D:\#cdr\#wav+flac\#New\Elvis Presley - Southbound (Tampa-Atlanta 75)\cd 2\10. Elvis Presley - Solos.wav

Peak level 99.9 %
Extraction speed 4.1 X
Track quality 100.0 %
Test CRC 807A13E5
Copy CRC 807A13E5
Accurately ripped (confidence 4) [501D2B7E] (AR v2)
Copy OK

Track 11

Filename D:\#cdr\#wav+flac\#New\Elvis Presley - Southbound (Tampa-Atlanta 75)\cd 2\11. Elvis Presley - School Days.wav

Peak level 99.9 %
Extraction speed 2.7 X
Track quality 100.0 %
Test CRC CF72DA48
Copy CRC CF72DA48
Accurately ripped (confidence 4) [5B1BE9C7] (AR v2)
Copy OK

Track 12

Filename D:\#cdr\#wav+flac\#New\Elvis Presley - Southbound (Tampa-Atlanta 75)\cd 2\12. Elvis Presley - Steamroller Blues.wav

Peak level 99.9 %
Extraction speed 3.1 X
Track quality 99.9 %
Test CRC 10D063E3
Copy CRC 10D063E3
Accurately ripped (confidence 4) [1327C6E4] (AR v2)
Copy OK

Track 13

Filename D:\#cdr\#wav+flac\#New\Elvis Presley - Southbound (Tampa-Atlanta 75)\cd 2\13. Elvis Presley - My Boy.wav

Peak level 99.9 %
Extraction speed 3.8 X
Track quality 99.9 %
Test CRC 3A17BD34
Copy CRC 3A17BD34
Accurately ripped (confidence 4) [B3230DA2] (AR v2)
Copy OK

Track 14

Filename D:\#cdr\#wav+flac\#New\Elvis Presley - Southbound (Tampa-Atlanta 75)\cd 2\14. Elvis Presley - T-R-O-U-B-L-E.wav

Peak level 99.9 %
Extraction speed 4.6 X
Track quality 100.0 %
Test CRC 48ED7C0D
Copy CRC 48ED7C0D
Accurately ripped (confidence 4) [106C10DA] (AR v2)
Copy OK

Track 15

Filename D:\#cdr\#wav+flac\#New\Elvis Presley - Southbound (Tampa-Atlanta 75)\cd 2\15. Elvis Presley - I'll Remember You.wav

Peak level 99.9 %
Extraction speed 4.5 X
Track quality 100.0 %
Test CRC 1F1C891E
Copy CRC 1F1C891E
Accurately ripped (confidence 4) [A32F4A9D] (AR v2)
Copy OK

Track 16

Filename D:\#cdr\#wav+flac\#New\Elvis Presley - Southbound (Tampa-Atlanta 75)\cd 2\16. Elvis Presley - The Mickey Mouse Song.wav

Peak level 99.9 %
Extraction speed 1.5 X
Track quality 100.0 %
Test CRC B3363301
Copy CRC B3363301
Accurately ripped (confidence 4) [A566903C] (AR v2)
Copy OK

Track 17

Filename D:\#cdr\#wav+flac\#New\Elvis Presley - Southbound (Tampa-Atlanta 75)\cd 2\17. Elvis Presley - Let Me Be There.wav

Peak level 99.9 %
Extraction speed 4.8 X
Track quality 100.0 %
Test CRC 82660132
Copy CRC 82660132
Accurately ripped (confidence 4) [BC8B9D62] (AR v2)
Copy OK

Track 18

Filename D:\#cdr\#wav+flac\#New\Elvis Presley - Southbound (Tampa-Atlanta 75)\cd 2\18. Elvis Presley - American Trilogy.wav

Peak level 99.9 %
Extraction speed 4.3 X
Track quality 99.9 %
Test CRC A7DD133F
Copy CRC A7DD133F
Accurately ripped (confidence 4) [A62DB080] (AR v2)
Copy OK

Track 19

Filename D:\#cdr\#wav+flac\#New\Elvis Presley - Southbound (Tampa-Atlanta 75)\cd 2\19. Elvis Presley - Funny How Time Slips Away.wav

Peak level 99.9 %
Extraction speed 5.0 X
Track quality 100.0 %
Test CRC 5C4765DA
Copy CRC 5C4765DA
Accurately ripped (confidence 4) [02DA2C27] (AR v2)
Copy OK

Track 20

Filename D:\#cdr\#wav+flac\#New\Elvis Presley - Southbound (Tampa-Atlanta 75)\cd 2\20. Elvis Presley - Can't Help Falling In Love.wav

Peak level 99.9 %
Extraction speed 3.0 X
Track quality 99.8 %
Test CRC 5F3543A0
Copy CRC 5F3543A0
Accurately ripped (confidence 4) [1D17240C] (AR v2)
Copy OK

Track 21

Filename D:\#cdr\#wav+flac\#New\Elvis Presley - Southbound (Tampa-Atlanta 75)\cd 2\21. Elvis Presley - Closing Vamp.wav

Peak level 99.9 %
Extraction speed 3.5 X
Track quality 100.0 %
Test CRC E2AF224D
Copy CRC E2AF224D
Accurately ripped (confidence 4) [D548DBF4] (AR v2)
Copy OK


All tracks accurately ripped

No errors occurred

End of status report

–– CUETools DB Plugin V2.1.6

[CTDB TOCID: 585kF6yluv5Jq6I6jFjJhY6eO0c-] found
Submit result: 585kF6yluv5Jq6I6jFjJhY6eO0c- has been confirmed
Track | CTDB Status
1 | (17/17) Accurately ripped
2 | (17/17) Accurately ripped
3 | (17/17) Accurately ripped
4 | (17/17) Accurately ripped
5 | (17/17) Accurately ripped
6 | (17/17) Accurately ripped
7 | (17/17) Accurately ripped
8 | (17/17) Accurately ripped
9 | (17/17) Accurately ripped
10 | (17/17) Accurately ripped
11 | (17/17) Accurately ripped
12 | (17/17) Accurately ripped
13 | (17/17) Accurately ripped
14 | (17/17) Accurately ripped
15 | (17/17) Accurately ripped
16 | (17/17) Accurately ripped
17 | (17/17) Accurately ripped
18 | (17/17) Accurately ripped
19 | (17/17) Accurately ripped
20 | (17/17) Accurately ripped
21 | (17/17) Accurately ripped


==== Log checksum 5CE9DA7491E22A6BF1B516CAAAA581F7E28E15F797DECA5726F779F39743B6BD ====

––––––––––––––––––––––––––––––

Exact Audio Copy V1.3 from 2. September 2016

EAC extraction logfile from 25. April 2022, 18:56

Elvis Presley / Southbound Tampa-Atlanta 75

Used drive : HL-DT-STBD-RE BH16NS55 Adapter: 1 ID: 0

Read mode : Secure
Utilize accurate stream : Yes
Defeat audio cache : Yes
Make use of C2 pointers : No

Read offset correction : 6
Overread into Lead-In and Lead-Out : No
Fill up missing offset samples with silence : Yes
Delete leading and trailing silent blocks : No
Null samples used in CRC calculations : Yes
Used interface : Native Win32 interface for Win NT & 2000
Gap handling : Appended to previous track

Used output format : User Defined Encoder
Selected bitrate : 1024 kBit/s
Quality : High
Add ID3 tag : No
Command line compressor : C:\Program Files (x86)\Exact Audio Copy\Flac\flac.exe
Additional command line options : -8 -V -T "ARTIST=%artist%" -T "TITLE=%title%" -T "ALBUM=%albumtitle%" -T "DATE=%year%" -T "TRACKNUMBER=%tracknr%" -T "GENRE=%genre%" -T "PERFORMER=%albuminterpret%" -T "COMPOSER=%composer%" %haslyrics%–tag-from-file=LYRICS="%lyricsfile%"%haslyrics% -T "ALBUMARTIST=%albumartist%" -T "DISCNUMBER=%cdnumber%" -T "TOTALDISCS=%totalcds%" -T "TOTALTRACKS=%numtracks%" -T "COMMENT=%comment%" %source% -o %dest%


TOC of the extracted CD

Track | Start | Length | Start sector | End sector
––––––––––––––––––––––––––––-
1 | 0:00.00 | 0:43.68 | 0 | 3292
2 | 0:43.68 | 2:22.33 | 3293 | 13975
3 | 3:06.26 | 2:53.37 | 13976 | 26987
4 | 5:59.63 | 2:24.74 | 26988 | 37861
5 | 8:24.62 | 1:47.14 | 37862 | 45900
6 | 10:12.01 | 2:01.14 | 45901 | 54989
7 | 12:13.15 | 2:06.66 | 54990 | 64505
8 | 14:20.06 | 3:50.15 | 64506 | 81770
9 | 18:10.21 | 1:04.59 | 81771 | 86629
10 | 19:15.05 | 5:05.04 | 86630 | 109508
11 | 24:20.09 | 0:50.13 | 109509 | 113271
12 | 25:10.22 | 3:01.71 | 113272 | 126917
13 | 28:12.18 | 5:03.31 | 126918 | 149673
14 | 33:15.49 | 3:52.02 | 149674 | 167075
15 | 37:07.51 | 2:50.31 | 167076 | 179856
16 | 39:58.07 | 0:13.29 | 179857 | 180860
17 | 40:11.36 | 3:19.68 | 180861 | 195853
18 | 43:31.29 | 4:53.37 | 195854 | 217865
19 | 48:24.66 | 3:01.00 | 217866 | 231440
20 | 51:25.66 | 1:37.19 | 231441 | 238734
21 | 53:03.10 | 0:50.28 | 238735 | 242512


Track 1

Filename D:\#cdr\#wav+flac\#New\Elvis Presley - Southbound (Tampa-Atlanta 75)\cd 2\01. Elvis Presley - Talk.wav

Pre-gap length 0:00:02.00

Peak level 85.6 %
Extraction speed 1.6 X
Track quality 100.0 %
Test CRC 7A8AE592
Copy CRC 7A8AE592
Accurately ripped (confidence 4) [59B06894] (AR v2)
Copy OK

Track 2

Filename D:\#cdr\#wav+flac\#New\Elvis Presley - Southbound (Tampa-Atlanta 75)\cd 2\02. Elvis Presley - Love Me.wav

Peak level 99.9 %
Extraction speed 1.8 X
Track quality 99.9 %
Test CRC 07EDCB99
Copy CRC 07EDCB99
Accurately ripped (confidence 4) [B4832EB4] (AR v2)
Copy OK

Track 3

Filename D:\#cdr\#wav+flac\#New\Elvis Presley - Southbound (Tampa-Atlanta 75)\cd 2\03. Elvis Presley - If You Love Me.wav

Peak level 99.9 %
Extraction speed 2.8 X
Track quality 100.0 %
Test CRC 884914C1
Copy CRC 884914C1
Accurately ripped (confidence 4) [66F96027] (AR v2)
Copy OK

Track 4

Filename D:\#cdr\#wav+flac\#New\Elvis Presley - Southbound (Tampa-Atlanta 75)\cd 2\04. Elvis Presley - Love Me Tender.wav

Peak level 99.9 %
Extraction speed 2.9 X
Track quality 100.0 %
Test CRC 362C4D68
Copy CRC 362C4D68
Accurately ripped (confidence 4) [BEBBAC54] (AR v2)
Copy OK

Track 5

Filename D:\#cdr\#wav+flac\#New\Elvis Presley - Southbound (Tampa-Atlanta 75)\cd 2\05. Elvis Presley - All Shook Up.wav

Peak level 99.9 %
Extraction speed 1.9 X
Track quality 99.9 %
Test CRC 40E04CE4
Copy CRC 40E04CE4
Accurately ripped (confidence 4) [402AEEAE] (AR v2)
Copy OK

Track 6

Filename D:\#cdr\#wav+flac\#New\Elvis Presley - Southbound (Tampa-Atlanta 75)\cd 2\06. Elvis Presley - Teddy Bear - Don't Be Cruel.wav

Peak level 99.9 %
Extraction speed 2.1 X
Track quality 99.9 %
Test CRC 734272AA
Copy CRC 734272AA
Accurately ripped (confidence 4) [4260E47B] (AR v2)
Copy OK

Track 7

Filename D:\#cdr\#wav+flac\#New\Elvis Presley - Southbound (Tampa-Atlanta 75)\cd 2\07. Elvis Presley - The Wonder Of You.wav

Peak level 99.9 %
Extraction speed 3.1 X
Track quality 100.0 %
Test CRC 4846EBB3
Copy CRC 4846EBB3
Accurately ripped (confidence 4) [5D6C92CC] (AR v2)
Copy OK

Track 8

Filename D:\#cdr\#wav+flac\#New\Elvis Presley - Southbound (Tampa-Atlanta 75)\cd 2\08. Elvis Presley - Burning Love.wav

Peak level 99.9 %
Extraction speed 3.7 X
Track quality 100.0 %
Test CRC 12AA22D7
Copy CRC 12AA22D7
Accurately ripped (confidence 4) [C3DD18F0] (AR v2)
Copy OK

Track 9

Filename D:\#cdr\#wav+flac\#New\Elvis Presley - Southbound (Tampa-Atlanta 75)\cd 2\09. Elvis Presley - Introductions.wav

Peak level 87.7 %
Extraction speed 2.8 X
Track quality 100.0 %
Test CRC EA2E25E0
Copy CRC EA2E25E0
Accurately ripped (confidence 4) [C6108B77] (AR v2)
Copy OK

Track 10

Filename D:\#cdr\#wav+flac\#New\Elvis Presley - Southbound (Tampa-Atlanta 75)\cd 2\10. Elvis Presley - Solos.wav

Peak level 99.9 %
Extraction speed 4.1 X
Track quality 100.0 %
Test CRC 807A13E5
Copy CRC 807A13E5
Accurately ripped (confidence 4) [501D2B7E] (AR v2)
Copy OK

Track 11

Filename D:\#cdr\#wav+flac\#New\Elvis Presley - Southbound (Tampa-Atlanta 75)\cd 2\11. Elvis Presley - School Days.wav

Peak level 99.9 %
Extraction speed 2.7 X
Track quality 100.0 %
Test CRC CF72DA48
Copy CRC CF72DA48
Accurately ripped (confidence 4) [5B1BE9C7] (AR v2)
Copy OK

Track 12

Filename D:\#cdr\#wav+flac\#New\Elvis Presley - Southbound (Tampa-Atlanta 75)\cd 2\12. Elvis Presley - Steamroller Blues.wav

Peak level 99.9 %
Extraction speed 3.1 X
Track quality 99.9 %
Test CRC 10D063E3
Copy CRC 10D063E3
Accurately ripped (confidence 4) [1327C6E4] (AR v2)
Copy OK

Track 13

Filename D:\#cdr\#wav+flac\#New\Elvis Presley - Southbound (Tampa-Atlanta 75)\cd 2\13. Elvis Presley - My Boy.wav

Peak level 99.9 %
Extraction speed 3.8 X
Track quality 99.9 %
Test CRC 3A17BD34
Copy CRC 3A17BD34
Accurately ripped (confidence 4) [B3230DA2] (AR v2)
Copy OK

Track 14

Filename D:\#cdr\#wav+flac\#New\Elvis Presley - Southbound (Tampa-Atlanta 75)\cd 2\14. Elvis Presley - T-R-O-U-B-L-E.wav

Peak level 99.9 %
Extraction speed 4.6 X
Track quality 100.0 %
Test CRC 48ED7C0D
Copy CRC 48ED7C0D
Accurately ripped (confidence 4) [106C10DA] (AR v2)
Copy OK

Track 15

Filename D:\#cdr\#wav+flac\#New\Elvis Presley - Southbound (Tampa-Atlanta 75)\cd 2\15. Elvis Presley - I'll Remember You.wav

Peak level 99.9 %
Extraction speed 4.5 X
Track quality 100.0 %
Test CRC 1F1C891E
Copy CRC 1F1C891E
Accurately ripped (confidence 4) [A32F4A9D] (AR v2)
Copy OK

Track 16

Filename D:\#cdr\#wav+flac\#New\Elvis Presley - Southbound (Tampa-Atlanta 75)\cd 2\16. Elvis Presley - The Mickey Mouse Song.wav

Peak level 99.9 %
Extraction speed 1.5 X
Track quality 100.0 %
Test CRC B3363301
Copy CRC B3363301
Accurately ripped (confidence 4) [A566903C] (AR v2)
Copy OK

Track 17

Filename D:\#cdr\#wav+flac\#New\Elvis Presley - Southbound (Tampa-Atlanta 75)\cd 2\17. Elvis Presley - Let Me Be There.wav

Peak level 99.9 %
Extraction speed 4.8 X
Track quality 100.0 %
Test CRC 82660132
Copy CRC 82660132
Accurately ripped (confidence 4) [BC8B9D62] (AR v2)
Copy OK

Track 18

Filename D:\#cdr\#wav+flac\#New\Elvis Presley - Southbound (Tampa-Atlanta 75)\cd 2\18. Elvis Presley - American Trilogy.wav

Peak level 99.9 %
Extraction speed 4.3 X
Track quality 99.9 %
Test CRC A7DD133F
Copy CRC A7DD133F
Accurately ripped (confidence 4) [A62DB080] (AR v2)
Copy OK

Track 19

Filename D:\#cdr\#wav+flac\#New\Elvis Presley - Southbound (Tampa-Atlanta 75)\cd 2\19. Elvis Presley - Funny How Time Slips Away.wav

Peak level 99.9 %
Extraction speed 5.0 X
Track quality 100.0 %
Test CRC 5C4765DA
Copy CRC 5C4765DA
Accurately ripped (confidence 4) [02DA2C27] (AR v2)
Copy OK

Track 20

Filename D:\#cdr\#wav+flac\#New\Elvis Presley - Southbound (Tampa-Atlanta 75)\cd 2\20. Elvis Presley - Can't Help Falling In Love.wav

Peak level 99.9 %
Extraction speed 3.0 X
Track quality 99.8 %
Test CRC 5F3543A0
Copy CRC 5F3543A0
Accurately ripped (confidence 4) [1D17240C] (AR v2)
Copy OK

Track 21

Filename D:\#cdr\#wav+flac\#New\Elvis Presley - Southbound (Tampa-Atlanta 75)\cd 2\21. Elvis Presley - Closing Vamp.wav

Peak level 99.9 %
Extraction speed 3.5 X
Track quality 100.0 %
Test CRC E2AF224D
Copy CRC E2AF224D
Accurately ripped (confidence 4) [D548DBF4] (AR v2)
Copy OK


All tracks accurately ripped

No errors occurred

End of status report

–– CUETools DB Plugin V2.1.6

[CTDB TOCID: 585kF6yluv5Jq6I6jFjJhY6eO0c-] found
Submit result: 585kF6yluv5Jq6I6jFjJhY6eO0c- has been confirmed
Track | CTDB Status
1 | (17/17) Accurately ripped
2 | (17/17) Accurately ripped
3 | (17/17) Accurately ripped
4 | (17/17) Accurately ripped
5 | (17/17) Accurately ripped
6 | (17/17) Accurately ripped
7 | (17/17) Accurately ripped
8 | (17/17) Accurately ripped
9 | (17/17) Accurately ripped
10 | (17/17) Accurately ripped
11 | (17/17) Accurately ripped
12 | (17/17) Accurately ripped
13 | (17/17) Accurately ripped
14 | (17/17) Accurately ripped
15 | (17/17) Accurately ripped
16 | (17/17) Accurately ripped
17 | (17/17) Accurately ripped
18 | (17/17) Accurately ripped
19 | (17/17) Accurately ripped
20 | (17/17) Accurately ripped
21 | (17/17) Accurately ripped


==== Log checksum 5CE9DA7491E22A6BF1B516CAAAA581F7E28E15F797DECA5726F779F39743B6BD ====

Thanks to the Original ripper !