Tags
Language
Tags
June 2024
Su Mo Tu We Th Fr Sa
26 27 28 29 30 31 1
2 3 4 5 6 7 8
9 10 11 12 13 14 15
16 17 18 19 20 21 22
23 24 25 26 27 28 29
30 1 2 3 4 5 6

Emilíana Torrini & The Colorist Orchestra - Racing The Storm (2023)

Posted By: delpotro
Emilíana Torrini & The Colorist Orchestra - Racing The Storm (2023)

Emilíana Torrini & The Colorist Orchestra - Racing The Storm (2023)
EAC Rip | FLAC (tracks+log+.cue) | 00:40:20 | 242 Mb
Pop, Female Vocal | Label: Bella Union

Picture this: a big storm is brewing overhead. You’re careening through the backroads of rural Iceland, trying desperately to catch your flight out of Reykjavik as the skies darken behind you. You’ve just had one of the best songwriting sessions of your life, in a farmhouse deep in the Icelandic countryside, but none of that matters now. You’ve found yourself in a race against time to get all your work to the next studio and continue working on your album—one that just might turn out to be one of the most important of your entire career.

This exact scenario is what befell Belgian duo The Colorist Orchestra and Icelandic-Italian singer-songwriter Emiliana Torrini during one of the many recording sessions for their new collaborative album—and the experience was so emblematic of the entire awe-inspiring, chaotic, life-affirming process, that they ended up naming the record Racing the Storm. It’s the perfect metaphor: trying to outrun something that is out of your control, harnessing the full power of the elements to propel yourself forward.

The Colorist Orchestra knows a thing or two about controlled chaos. Since their inception in 2013, close friends and multi-instrumentalists Aarich Jespers and Kobe Proesmans have taken on the task of reinterpreting other artists’ discographies with their unique blend of pop, electronic and world music. In 2015, they entered into a collaboration with Emiliana, who at that time was already well into her own illustrious career, having released six studio albums, as well as the international hit “Jungle Drum”.

“When Kobe and Aarich contacted me, I was really in this ‘anything goes’ mindset,” explains Emiliana, “I was very honored without knowing much about what the agreement entailed. I just told them to choose the songs. Months after, I met them in Belgium, totally unprepared, and they all blew me away.” What was supposed to only be five concerts together turned into an album, 2018’s The Colorist Orchestra & Emiliana Torrini, in which some of her most famous songs are given a completely new identity, reworked with TCO’s intricate and harmonious arrangements.

Even with one album under their collective belts, Kobe, Aarich and Emiliana still felt like there was unfinished business—that they still had another story to tell. “In the beginning there was the intention to work together for three weeks and do five gigs,” says Kobe, “and then we kept on finding the result really nice. We did a live recording and then we promoted that album, and then at a certain moment we just said, ‘Wouldn't it be nice to have another excuse to play together?’ We felt like, ‘Why not try to write a new album?’”

Thus, the first germinations of Racing the Storm took hold. Kobe and Aarich began to lay down demos for Emiliana to lay down vocals to, but like the darkening Icelandic horizon, things were not as breezy as they could have been. Of course, the Covid-19 pandemic took its toll on the entire world, and all three members had other projects in the works during the writing process.

“The whole period of writing this album was a constant search of how to keep this adventure going, with all the limitations of distance and time and not being able to be together,” explains Kobe of the record’s early days. “I thought that was the biggest challenge, to maintain the musically vibrant connection between the three of us. Because when Aarich and I work we are living very close to each other and we are in the studio together, we can talk—most of the creation happens when you have food and when you talk and you listen to a song and we missed that a lot with Emiliana in the beginning.”

It wasn’t all strife and struggle though, as anyone who listens to Racing the Storm’s melodious intricacies can attest. There’s an untenable camaraderie to the music, the sound of three people who really enjoy each other’s company and creativity joining forces to explore the sum of their parts. “I think we share a lot of the same interests, not only music, but also movies and art and culture,” says Aarich and he and Kobe’s relationship to Emiliana. “It felt easy to do things together because our tastes in this project are very close to one another.”

Both Kobe and Aarich are quick to point out that, while Racing the Storm is very much the work of a collective, Emiliana has taken on the role of frontperson, and both her lyrics and vocal performance are inherent to the album’s sound. The first single from the album, “Right Here”, is a perfect example of Emiliana’s singular songwriting style, and how it melts perfectly into TCO’s orchestral arrangements. It’s the poppiest song on the record—Emiliana describes it as being “sung from a daydream whilst being poked repeatedly in the shoulder by the outside world.” The song trots along warmly with strings and marimbas interlocking into a joyous melody. Emiliana’s voice, while somewhat soft, commands the listener to drink in every single moment of reverie.

At the end of the day, between the lyrics and the arrangements and the vocals and the elaborate gigs and all the rest that brought these three musicians to where they are today, what comes across the most with Racing the Storm is the strong bond between them. While coming from somewhat different backgrounds—Emiliana found chart-topping success while being classically trained in opera; Kobe was raised in the Belgian countryside before taking his world and classical schooling to Cuba to perfect his percussion skills’ Aarich is a tried-and-true autodidact drummer, with a master in fine arts and grew up with a father who made wooden toys for the family’s toy shop business. It’s as if the three of them (along with mixer and producer Jo Fracken, who expertly directs Racing the Storm into the exhilarating album it is) have found a special common space where the rules of the outside world simply don’t apply. “There are no rules,” says Kobe, smiling. “There is no, you have to be like this or you have to be like that. Emiliana always says that this is a story that started way before we met each other, and that the push and pull between our different backgrounds and personalities is what makes this collaboration so special. Personally, I think that might be why people listen to our albums, or come to our shows—it's a different picture than what they’re used to.”
Tracklist:
01. Mikos
02. You Left Me in Bloom
03. Hilton
04. Dove
05. Wedding Song
06. Right Here
07. Smoke Trails
08. A Scene From a Movie
09. The Illusion Curse
10. Racing The Storm
11. Lonesome Fears

Exact Audio Copy V1.6 from 23. October 2020

EAC extraction logfile from 9. May 2023, 20:35

Emilíana Torrini & The Colorist Orchestra / Racing The Storm

Used drive : Optiarc DVD RW AD-7740H Adapter: 1 ID: 0

Read mode : Secure
Utilize accurate stream : Yes
Defeat audio cache : Yes
Make use of C2 pointers : No

Read offset correction : 48
Overread into Lead-In and Lead-Out : No
Fill up missing offset samples with silence : Yes
Delete leading and trailing silent blocks : No
Null samples used in CRC calculations : Yes
Used interface : Native Win32 interface for Win NT & 2000
Gap handling : Appended to previous track

Used output format : User Defined Encoder
Selected bitrate : 896 kBit/s
Quality : High
Add ID3 tag : No
Command line compressor : C:\Program Files (x86)\Exact Audio Copy\FLAC\FLAC.EXE
Additional command line options : -8 -V -T "ARTIST=%artist%" -T "TITLE=%title%" -T "ALBUM=%albumtitle%" -T "DATE=%year%" -T "TRACKNUMBER=%tracknr%" -T "GENRE=%genre%" -T "COMMENT=%comment%" -T "BAND=%albuminterpret%" -T "ALBUMARTIST=%albuminterpret%" -T "COMPOSER=%composer%" %haslyrics%–tag-from-file=LYRICS="%lyricsfile%"%haslyrics% -T "DISCNUMBER=%cdnumber%" -T "TOTALDISCS=%totalcds%" -T "TOTALTRACKS=%numtracks%" %hascover%–picture="%coverfile%"%hascover% %source% -o %dest%


TOC of the extracted CD

Track | Start | Length | Start sector | End sector
––––––––––––––––––––––––––––-
1 | 0:00.00 | 3:20.04 | 0 | 15003
2 | 3:20.04 | 3:31.37 | 15004 | 30865
3 | 6:51.41 | 5:01.45 | 30866 | 53485
4 | 11:53.11 | 4:03.23 | 53486 | 71733
5 | 15:56.34 | 3:18.37 | 71734 | 86620
6 | 19:14.71 | 3:41.00 | 86621 | 103195
7 | 22:55.71 | 3:31.09 | 103196 | 119029
8 | 26:27.05 | 2:27.60 | 119030 | 130114
9 | 28:54.65 | 3:16.39 | 130115 | 144853
10 | 32:11.29 | 4:09.72 | 144854 | 163600
11 | 36:21.26 | 3:59.03 | 163601 | 181528


Track 1

Filename C:\Emilíana Torrini The Colorist Orchestra - Racing The Storm\01 - Mikos.wav

Pre-gap length 0:00:02.00

Peak level 97.8 %
Extraction speed 1.1 X
Track quality 100.0 %
Test CRC 924E3684
Copy CRC 924E3684
Track not present in AccurateRip database
Copy OK

Track 2

Filename C:\Emilíana Torrini The Colorist Orchestra - Racing The Storm\02 - You Left Me In Bloom.wav

Peak level 100.0 %
Extraction speed 1.0 X
Track quality 99.9 %
Test CRC 93847FDE
Copy CRC 93847FDE
Track not present in AccurateRip database
Copy OK

Track 3

Filename C:\Emilíana Torrini The Colorist Orchestra - Racing The Storm\03 - Hilton.wav

Peak level 99.7 %
Extraction speed 1.4 X
Track quality 100.0 %
Test CRC 1E1D7FAC
Copy CRC 1E1D7FAC
Track not present in AccurateRip database
Copy OK

Track 4

Filename C:\Emilíana Torrini The Colorist Orchestra - Racing The Storm\04 - Dove.wav

Peak level 98.0 %
Extraction speed 1.5 X
Track quality 100.0 %
Test CRC FC576ADE
Copy CRC FC576ADE
Track not present in AccurateRip database
Copy OK

Track 5

Filename C:\Emilíana Torrini The Colorist Orchestra - Racing The Storm\05 - Wedding Song.wav

Peak level 90.7 %
Extraction speed 1.5 X
Track quality 100.0 %
Test CRC 16E95842
Copy CRC 16E95842
Track not present in AccurateRip database
Copy OK

Track 6

Filename C:\Emilíana Torrini The Colorist Orchestra - Racing The Storm\06 - Right Here.wav

Peak level 98.7 %
Extraction speed 1.6 X
Track quality 100.0 %
Test CRC F501F3FF
Copy CRC F501F3FF
Track not present in AccurateRip database
Copy OK

Track 7

Filename C:\Emilíana Torrini The Colorist Orchestra - Racing The Storm\07 - Smoke Trails.wav

Peak level 100.0 %
Extraction speed 1.5 X
Track quality 99.9 %
Test CRC B25F5043
Copy CRC B25F5043
Track not present in AccurateRip database
Copy OK

Track 8

Filename C:\Emilíana Torrini The Colorist Orchestra - Racing The Storm\08 - A Scène From A Movie.wav

Peak level 96.4 %
Extraction speed 1.6 X
Track quality 100.0 %
Test CRC A37E2A98
Copy CRC A37E2A98
Track not present in AccurateRip database
Copy OK

Track 9

Filename C:\Emilíana Torrini The Colorist Orchestra - Racing The Storm\09 - The Illusion Curse.wav

Peak level 93.6 %
Extraction speed 1.5 X
Track quality 99.9 %
Test CRC 3AB2E592
Copy CRC 3AB2E592
Track not present in AccurateRip database
Copy OK

Track 10

Filename C:\Emilíana Torrini The Colorist Orchestra - Racing The Storm\10 - Racing The Storm.wav

Peak level 98.0 %
Extraction speed 1.7 X
Track quality 99.9 %
Test CRC C0146C6B
Copy CRC C0146C6B
Track not present in AccurateRip database
Copy OK

Track 11

Filename C:\Emilíana Torrini The Colorist Orchestra - Racing The Storm\11 - Lonesome Fears.wav

Peak level 100.0 %
Extraction speed 1.8 X
Track quality 99.9 %
Test CRC 4F37EA2F
Copy CRC 4F37EA2F
Track not present in AccurateRip database
Copy OK


None of the tracks are present in the AccurateRip database

No errors occurred

End of status report

–– CUETools DB Plugin V2.1.6

[CTDB TOCID: zoE.c059h.AGU.Txq19afh1wzMU-] found
Submit result: zoE.c059h.AGU.Txq19afh1wzMU- has been confirmed
Track | CTDB Status
1 | (17/17) Accurately ripped
2 | (17/17) Accurately ripped
3 | (17/17) Accurately ripped
4 | (17/17) Accurately ripped
5 | (17/17) Accurately ripped
6 | (17/17) Accurately ripped
7 | (17/17) Accurately ripped
8 | (17/17) Accurately ripped
9 | (17/17) Accurately ripped
10 | (17/17) Accurately ripped
11 | (17/17) Accurately ripped


==== Log checksum 4B22016312A0E7191A527AC0BAF67A392CB348910E78525CA9052767440013D1 ====

Thanks to the Original ripper !