Tags
Language
Tags

Emmylou Harris - Original Album Series Vol. 1, 1975-1979 (2010) {5CD Box Set Rhino Vinyl Replica}

Posted By: ruskaval
Emmylou Harris - Original Album Series Vol. 1, 1975-1979 (2010) {5CD Box Set Rhino Vinyl Replica}

Emmylou Harris - Original Album Series Vol. 1, 1975-1979 (2010) {5CD Box Set Rhino Vinyl Replica}
EAC rip (secure mode) | FLAC (tracks)+CUE+LOG -> 1.15 Gb | MP3 @320 -> 500 Mb
Full Artwork @ 300 dpi (jpg) -> 42 Mb | 5% repair rar
© 1975-79, 2010 Reprise / Rhino / Warner | 8122 79835 1
Country / Country Rock / Progressive Country / Traditional Country

Emmylou Harris was a little-known singer and songwriter playing the folk circuit in Washington, D.C., when she was discovered by Gram Parsons, who invited her to sing on his solo albums and revealed to the world she had a voice of striking beauty and the talent to use it wisely. After Parsons' death, Harris embarked on a solo career that saw her creating a series of outstanding albums that combined the sound and style of classic country music with a progressive feel that made her one of the best respected artists of her generation. This specially priced box set includes Harris' first five albums for Reprise Records in full, featuring some of her most compelling studio recordings. Included in this set are 1975's Pieces of the Sky, 1975's Elite Hotel, 1977's Luxury Liner, 1978's Quarter Moon in a Ten Cent Town, and 1979's Blue Kentucky Girl.

Emmylou Harris - Original Album Series Vol. 1, 1975-1979 (2010) {5CD Box Set Rhino Vinyl Replica}

CD1 - Pieces of the Sky (1975)

Emmylou Harris' major-label solo debut quickly establishes the pattern that the vast majority of her subsequent work would follow: Pieces of the Sky is bravely eclectic, impeccably performed, and achingly beautiful. Amid a collection of songs that ranks among her most well-chosen – ranging from the catalogs of the Beatles ("For No One") to Boudleaux and Felice Bryant ("Sleepless Nights") and the Louvin Brothers (the hit "If I Could Only Win Your Love") – the record's centerpiece is one of Harris' rare original compositions, "Boulder to Birmingham," her stirring tribute to fallen mentor Gram Parsons.

tracklist:
01 - Bluebird Wine
02 - Too Far Gone
03 - If I Could Only Win Your Love
04 - Boulder To Birmingham
05 - Before Believing
06 - Bottle Let Me Down
07 - Sleepless Nights
08 - Coat Of Many Colors
09 - For No One
10 - Queen Of The Silver Dollar

Exact Audio Copy V1.0 beta 2 from 29. April 2011

EAC extraction logfile from 23. July 2011, 12:12

Emmylou Harris / Pieces Of The Sky {2010 Rhino Vinyl Replica Original Album Series}

Used drive : PLEXTOR CD-R PREMIUM2 Adapter: 0 ID: 1

Read mode : Secure
Utilize accurate stream : Yes
Defeat audio cache : Yes
Make use of C2 pointers : No

Read offset correction : 30
Overread into Lead-In and Lead-Out : Yes
Fill up missing offset samples with silence : Yes
Delete leading and trailing silent blocks : No
Null samples used in CRC calculations : Yes
Used interface : Native Win32 interface for Win NT & 2000
Gap handling : Appended to previous track

Used output format : User Defined Encoder
Selected bitrate : 1024 kBit/s
Quality : High
Add ID3 tag : No
Command line compressor : C:\Program Files (x86)\Exact Audio Copy\Flac\flac.exe
Additional command line options : -5 -V -T "ARTIST=%artist%" -T "TITLE=%title%" -T "ALBUM=%albumtitle%" -T "DATE=%year%" -T "TRACKNUMBER=%tracknr%" -T "TOTALTRACKS=%numtracks%" -T "GENRE=%genre%" -T "ALBUMARTIST=%albumartist%" -T "ALBUM ARTIST=%albumartist%


TOC of the extracted CD

Track | Start | Length | Start sector | End sector
––––––––––––––––––––––––––––-
1 | 0:00.00 | 3:18.08 | 0 | 14857
2 | 3:18.08 | 4:04.64 | 14858 | 33221
3 | 7:22.72 | 2:38.14 | 33222 | 45085
4 | 10:01.11 | 3:34.72 | 45086 | 61207
5 | 13:36.08 | 4:43.36 | 61208 | 82468
6 | 18:19.44 | 3:18.01 | 82469 | 97319
7 | 21:37.45 | 3:27.15 | 97320 | 112859
8 | 25:04.60 | 3:42.67 | 112860 | 129576
9 | 28:47.52 | 3:42.59 | 129577 | 146285
10 | 32:30.36 | 4:59.23 | 146286 | 168733


Track 1

Filename E:\EAC Rip\Emmylou Harris - Original Album Series (75-79) (2010) [FLAC] {Rhino Vinyl Replica, 5 CD Box}\CD 1 of 5 - Pieces… (75)\01 - Bluebird Wine.wav

Pre-gap length 0:00:02.00

Peak level 99.4 %
Extraction speed 2.4 X
Track quality 100.0 %
Test CRC A884DBAE
Copy CRC A884DBAE
Accurately ripped (confidence 2) [79768A48] (AR v1)
Copy OK

Track 2

Filename E:\EAC Rip\Emmylou Harris - Original Album Series (75-79) (2010) [FLAC] {Rhino Vinyl Replica, 5 CD Box}\CD 1 of 5 - Pieces… (75)\02 - Too Far Gone.wav

Pre-gap length 0:00:00.60

Peak level 96.7 %
Extraction speed 2.5 X
Track quality 100.0 %
Test CRC 93096377
Copy CRC 93096377
Accurately ripped (confidence 2) [49C28CD8] (AR v1)
Copy OK

Track 3

Filename E:\EAC Rip\Emmylou Harris - Original Album Series (75-79) (2010) [FLAC] {Rhino Vinyl Replica, 5 CD Box}\CD 1 of 5 - Pieces… (75)\03 - If I Could Only Win Your Love.wav

Pre-gap length 0:00:00.54

Peak level 90.0 %
Extraction speed 2.3 X
Track quality 100.0 %
Test CRC C904F095
Copy CRC C904F095
Accurately ripped (confidence 2) [F46BD2DE] (AR v1)
Copy OK

Track 4

Filename E:\EAC Rip\Emmylou Harris - Original Album Series (75-79) (2010) [FLAC] {Rhino Vinyl Replica, 5 CD Box}\CD 1 of 5 - Pieces… (75)\04 - Boulder To Birmingham.wav

Peak level 96.1 %
Extraction speed 2.5 X
Track quality 100.0 %
Test CRC 743C5051
Copy CRC 743C5051
Accurately ripped (confidence 2) [AEDD3C47] (AR v1)
Copy OK

Track 5

Filename E:\EAC Rip\Emmylou Harris - Original Album Series (75-79) (2010) [FLAC] {Rhino Vinyl Replica, 5 CD Box}\CD 1 of 5 - Pieces… (75)\05 - Before Believing.wav

Pre-gap length 0:00:00.22

Peak level 88.3 %
Extraction speed 2.5 X
Track quality 100.0 %
Test CRC 7C98DF31
Copy CRC 7C98DF31
Accurately ripped (confidence 2) [61E57480] (AR v1)
Copy OK

Track 6

Filename E:\EAC Rip\Emmylou Harris - Original Album Series (75-79) (2010) [FLAC] {Rhino Vinyl Replica, 5 CD Box}\CD 1 of 5 - Pieces… (75)\06 - Bottle Let Me Down.wav

Peak level 91.4 %
Extraction speed 2.4 X
Track quality 100.0 %
Test CRC DB46D6BD
Copy CRC DB46D6BD
Accurately ripped (confidence 2) [9EF89CF8] (AR v1)
Copy OK

Track 7

Filename E:\EAC Rip\Emmylou Harris - Original Album Series (75-79) (2010) [FLAC] {Rhino Vinyl Replica, 5 CD Box}\CD 1 of 5 - Pieces… (75)\07 - Sleepless Nights.wav

Pre-gap length 0:00:00.43

Peak level 83.7 %
Extraction speed 2.4 X
Track quality 100.0 %
Test CRC 477CDD89
Copy CRC 477CDD89
Accurately ripped (confidence 2) [851BA8C7] (AR v1)
Copy OK

Track 8

Filename E:\EAC Rip\Emmylou Harris - Original Album Series (75-79) (2010) [FLAC] {Rhino Vinyl Replica, 5 CD Box}\CD 1 of 5 - Pieces… (75)\08 - Coat Of Many Colors.wav

Pre-gap length 0:00:01.07

Peak level 96.6 %
Extraction speed 2.5 X
Track quality 100.0 %
Test CRC 78CD3CB9
Copy CRC 78CD3CB9
Accurately ripped (confidence 2) [FCB565DC] (AR v1)
Copy OK

Track 9

Filename E:\EAC Rip\Emmylou Harris - Original Album Series (75-79) (2010) [FLAC] {Rhino Vinyl Replica, 5 CD Box}\CD 1 of 5 - Pieces… (75)\09 - For No One.wav

Pre-gap length 0:00:00.67

Peak level 79.5 %
Extraction speed 2.1 X
Track quality 99.9 %
Test CRC E7E4BF1C
Copy CRC E7E4BF1C
Accurately ripped (confidence 2) [1EDF5700] (AR v1)
Copy OK

Track 10

Filename E:\EAC Rip\Emmylou Harris - Original Album Series (75-79) (2010) [FLAC] {Rhino Vinyl Replica, 5 CD Box}\CD 1 of 5 - Pieces… (75)\10 - Queen Of The Silver Dollar.wav

Pre-gap length 0:00:01.56

Peak level 93.4 %
Extraction speed 2.6 X
Track quality 100.0 %
Test CRC D8A22F00
Copy CRC D8A22F00
Accurately ripped (confidence 2) [CED708DC] (AR v1)
Copy OK


All tracks accurately ripped

No errors occurred

End of status report

==== Log checksum 1A51EF9F53AE4ADAF78D8AF4A6D6BC629F2068A019F1BC14432BE736C94FE858 ====


Emmylou Harris - Original Album Series Vol. 1, 1975-1979 (2010) {5CD Box Set Rhino Vinyl Replica}



–––––––––––––––––––
Emmylou Harris - Original Album Series Vol. 1, 1975-1979 (2010) {5CD Box Set Rhino Vinyl Replica}

CD2 - Elite Hotel (1975)

While Emmylou Harris spent much of her career carrying on the legacy of Gram Parsons, Elite Hotel ranks among her most overt tributes to his genius, thanks to its covers of the Flying Burrito Brothers' "Sin City" and "Wheels," along with "Ooh Las Vegas" from the Grievous Angel album. In addition to the usual eclectic mix of covers – which includes the Beatles' "Here, There and Everywhere" and Hank Williams' "Jambalaya" this time out – Elite Hotel offers renditions of the country perennials "Together Again" and "Sweet Dreams," which were, respectively, Harris' first two number one chart hits.

tracklist:
01 - Amarillo
02 - Together Again
03 - Feelin' Single-Seeing Double
04 - Sin City
05 - One Of These Days
06 - Till I Gain Control Again
07 - Here, There And Everywhere
08 - Ooh Las Vegas
09 - Sweet Dreams
10 - Jambalaya
11 - Satan's Jewel Crown
12 - Wheels (with Jonathan Edwards)

Exact Audio Copy V1.0 beta 2 from 29. April 2011

EAC extraction logfile from 23. July 2011, 11:00

Emmylou Harris / Elite Hotel {2010 Rhino Vinyl Replica Original Album Series}

Used drive : PLEXTOR CD-R PREMIUM2 Adapter: 0 ID: 1

Read mode : Secure
Utilize accurate stream : Yes
Defeat audio cache : Yes
Make use of C2 pointers : No

Read offset correction : 30
Overread into Lead-In and Lead-Out : Yes
Fill up missing offset samples with silence : Yes
Delete leading and trailing silent blocks : No
Null samples used in CRC calculations : Yes
Used interface : Native Win32 interface for Win NT & 2000
Gap handling : Appended to previous track

Used output format : User Defined Encoder
Selected bitrate : 1024 kBit/s
Quality : High
Add ID3 tag : No
Command line compressor : C:\Program Files (x86)\Exact Audio Copy\Flac\flac.exe
Additional command line options : -5 -V -T "ARTIST=%artist%" -T "TITLE=%title%" -T "ALBUM=%albumtitle%" -T "DATE=%year%" -T "TRACKNUMBER=%tracknr%" -T "TOTALTRACKS=%numtracks%" -T "GENRE=%genre%" -T "ALBUMARTIST=%albumartist%" -T "ALBUM ARTIST=%albumartist%


TOC of the extracted CD

Track | Start | Length | Start sector | End sector
––––––––––––––––––––––––––––-
1 | 0:00.00 | 3:01.36 | 0 | 13610
2 | 3:01.36 | 3:54.27 | 13611 | 31187
3 | 6:55.63 | 2:28.06 | 31188 | 42293
4 | 9:23.69 | 3:55.11 | 42294 | 59929
5 | 13:19.05 | 3:03.68 | 59930 | 73722
6 | 16:22.73 | 5:36.23 | 73723 | 98945
7 | 21:59.21 | 3:42.24 | 98946 | 115619
8 | 25:41.45 | 3:43.65 | 115620 | 132409
9 | 29:25.35 | 4:08.00 | 132410 | 151009
10 | 33:33.35 | 3:10.00 | 151010 | 165259
11 | 36:43.35 | 3:13.73 | 165260 | 179807
12 | 39:57.33 | 3:13.54 | 179808 | 194336


Track 1

Filename E:\EAC Rip\Emmylou Harris - Original Album Series (75-79) (2010) [FLAC] {Rhino Vinyl Replica, 5 CD Box}\CD 2 of 5 - Elite Hotel (75)\01 - Amarillo.wav

Pre-gap length 0:00:02.00

Peak level 81.4 %
Extraction speed 2.4 X
Track quality 100.0 %
Test CRC 6B77A219
Copy CRC 6B77A219
Accurately ripped (confidence 2) [386B5368] (AR v1)
Copy OK

Track 2

Filename E:\EAC Rip\Emmylou Harris - Original Album Series (75-79) (2010) [FLAC] {Rhino Vinyl Replica, 5 CD Box}\CD 2 of 5 - Elite Hotel (75)\02 - Together Again.wav

Pre-gap length 0:00:00.29

Peak level 81.5 %
Extraction speed 2.1 X
Track quality 99.9 %
Test CRC 76B13BD2
Copy CRC 76B13BD2
Accurately ripped (confidence 2) [69C05827] (AR v1)
Copy OK

Track 3

Filename E:\EAC Rip\Emmylou Harris - Original Album Series (75-79) (2010) [FLAC] {Rhino Vinyl Replica, 5 CD Box}\CD 2 of 5 - Elite Hotel (75)\03 - Feelin' Single-Seeing Double.wav

Pre-gap length 0:00:01.41

Peak level 87.4 %
Extraction speed 1.8 X
Track quality 99.9 %
Test CRC C55239DF
Copy CRC C55239DF
Accurately ripped (confidence 2) [B0A16DE9] (AR v1)
Copy OK

Track 4

Filename E:\EAC Rip\Emmylou Harris - Original Album Series (75-79) (2010) [FLAC] {Rhino Vinyl Replica, 5 CD Box}\CD 2 of 5 - Elite Hotel (75)\04 - Sin City.wav

Pre-gap length 0:00:01.07

Peak level 77.5 %
Extraction speed 2.5 X
Track quality 100.0 %
Test CRC EF35FB76
Copy CRC EF35FB76
Accurately ripped (confidence 2) [6EE8FBE0] (AR v1)
Copy OK

Track 5

Filename E:\EAC Rip\Emmylou Harris - Original Album Series (75-79) (2010) [FLAC] {Rhino Vinyl Replica, 5 CD Box}\CD 2 of 5 - Elite Hotel (75)\05 - One Of These Days.wav

Pre-gap length 0:00:00.47

Peak level 87.2 %
Extraction speed 2.0 X
Track quality 99.9 %
Test CRC 257C53C2
Copy CRC 257C53C2
Accurately ripped (confidence 2) [01AF91DE] (AR v1)
Copy OK

Track 6

Filename E:\EAC Rip\Emmylou Harris - Original Album Series (75-79) (2010) [FLAC] {Rhino Vinyl Replica, 5 CD Box}\CD 2 of 5 - Elite Hotel (75)\06 - Till I Gain Control Again.wav

Pre-gap length 0:00:00.63

Peak level 97.0 %
Extraction speed 2.3 X
Track quality 99.9 %
Test CRC A4769DE9
Copy CRC A4769DE9
Accurately ripped (confidence 2) [0E9AFE49] (AR v1)
Copy OK

Track 7

Filename E:\EAC Rip\Emmylou Harris - Original Album Series (75-79) (2010) [FLAC] {Rhino Vinyl Replica, 5 CD Box}\CD 2 of 5 - Elite Hotel (75)\07 - Here, There And Everywhere.wav

Pre-gap length 0:00:00.61

Peak level 66.7 %
Extraction speed 2.5 X
Track quality 100.0 %
Test CRC 7F460466
Copy CRC 7F460466
Accurately ripped (confidence 2) [6C21EF66] (AR v1)
Copy OK

Track 8

Filename E:\EAC Rip\Emmylou Harris - Original Album Series (75-79) (2010) [FLAC] {Rhino Vinyl Replica, 5 CD Box}\CD 2 of 5 - Elite Hotel (75)\08 - Ooh Las Vegas.wav

Pre-gap length 0:00:01.03

Peak level 96.5 %
Extraction speed 2.5 X
Track quality 100.0 %
Test CRC 8FE3C1BD
Copy CRC 8FE3C1BD
Accurately ripped (confidence 2) [B007C168] (AR v1)
Copy OK

Track 9

Filename E:\EAC Rip\Emmylou Harris - Original Album Series (75-79) (2010) [FLAC] {Rhino Vinyl Replica, 5 CD Box}\CD 2 of 5 - Elite Hotel (75)\09 - Sweet Dreams.wav

Peak level 86.8 %
Extraction speed 2.1 X
Track quality 99.9 %
Test CRC 6E00EF88
Copy CRC 6E00EF88
Accurately ripped (confidence 2) [C954E174] (AR v1)
Copy OK

Track 10

Filename E:\EAC Rip\Emmylou Harris - Original Album Series (75-79) (2010) [FLAC] {Rhino Vinyl Replica, 5 CD Box}\CD 2 of 5 - Elite Hotel (75)\10 - Jambalaya.wav

Peak level 98.8 %
Extraction speed 2.4 X
Track quality 100.0 %
Test CRC D5C54F58
Copy CRC D5C54F58
Accurately ripped (confidence 2) [38193855] (AR v1)
Copy OK

Track 11

Filename E:\EAC Rip\Emmylou Harris - Original Album Series (75-79) (2010) [FLAC] {Rhino Vinyl Replica, 5 CD Box}\CD 2 of 5 - Elite Hotel (75)\11 - Satan's Jewel Crown.wav

Pre-gap length 0:00:00.71

Peak level 93.8 %
Extraction speed 2.4 X
Track quality 100.0 %
Test CRC 41505782
Copy CRC 41505782
Accurately ripped (confidence 2) [2043B55C] (AR v1)
Copy OK

Track 12

Filename E:\EAC Rip\Emmylou Harris - Original Album Series (75-79) (2010) [FLAC] {Rhino Vinyl Replica, 5 CD Box}\CD 2 of 5 - Elite Hotel (75)\12 - Wheels (with Jonathan Edwards).wav

Pre-gap length 0:00:00.54

Peak level 95.9 %
Extraction speed 2.7 X
Track quality 100.0 %
Test CRC D46A2C6E
Copy CRC D46A2C6E
Accurately ripped (confidence 2) [D30B3E12] (AR v1)
Copy OK


All tracks accurately ripped

No errors occurred

End of status report

==== Log checksum 803350A09AFA346281ACFF8D5C9CFAB0DB157E110DC29979A521EF648F8E3DC8 ====


Emmylou Harris - Original Album Series Vol. 1, 1975-1979 (2010) {5CD Box Set Rhino Vinyl Replica}



––––––––––––––––––––
Emmylou Harris - Original Album Series Vol. 1, 1975-1979 (2010) {5CD Box Set Rhino Vinyl Replica}

CD3 - Luxury Liner (1977)

Luxury Liner ranks as Emmylou Harris' best-selling solo record to date, and it's one of her most engaging efforts as well; her Hot Band is in peak form, and the songs are even more far afield than usual, including Chuck Berry's "(You Never Can Tell) C'est la Vie" and Townes Van Zandt's painterly tale of aging outlaws, "Pancho & Lefty."

tracklist:
01 - Luxury Liner
02 - Pancho & Lefty
03 - Making Believe
04 - You're Supposed To Be Feeling Good
05 - I'll Be Your San Antonio Rose
06 - (You Never Can Tell) C'est La Vie
07 - When I Stop Dreaming
08 - Hello Stranger
09 - She
10 - Tulsa Queen

Exact Audio Copy V1.0 beta 2 from 29. April 2011

EAC extraction logfile from 23. July 2011, 8:32

Emmylou Harris / Luxury Liner {2010 Rhino Vinyl Replica Original Album Series}

Used drive : PLEXTOR CD-R PREMIUM2 Adapter: 0 ID: 1

Read mode : Secure
Utilize accurate stream : Yes
Defeat audio cache : Yes
Make use of C2 pointers : No

Read offset correction : 30
Overread into Lead-In and Lead-Out : Yes
Fill up missing offset samples with silence : Yes
Delete leading and trailing silent blocks : No
Null samples used in CRC calculations : Yes
Used interface : Native Win32 interface for Win NT & 2000
Gap handling : Appended to previous track

Used output format : User Defined Encoder
Selected bitrate : 1024 kBit/s
Quality : High
Add ID3 tag : No
Command line compressor : C:\Program Files (x86)\Exact Audio Copy\Flac\flac.exe
Additional command line options : -5 -V -T "ARTIST=%artist%" -T "TITLE=%title%" -T "ALBUM=%albumtitle%" -T "DATE=%year%" -T "TRACKNUMBER=%tracknr%" -T "TOTALTRACKS=%numtracks%" -T "GENRE=%genre%" -T "ALBUMARTIST=%albumartist%" -T "ALBUM ARTIST=%albumartist%


TOC of the extracted CD

Track | Start | Length | Start sector | End sector
––––––––––––––––––––––––––––-
1 | 0:00.00 | 3:40.68 | 0 | 16567
2 | 3:40.68 | 4:50.38 | 16568 | 38355
3 | 8:31.31 | 3:35.34 | 38356 | 54514
4 | 12:06.65 | 4:02.05 | 54515 | 72669
5 | 16:08.70 | 3:44.31 | 72670 | 89500
6 | 19:53.26 | 3:26.28 | 89501 | 104978
7 | 23:19.54 | 3:16.17 | 104979 | 119695
8 | 26:35.71 | 3:59.43 | 119696 | 137663
9 | 30:35.39 | 3:15.72 | 137664 | 152360
10 | 33:51.36 | 4:46.51 | 152361 | 173861


Track 1

Filename E:\EAC Rip\Emmylou Harris - Original Album Series (75-79) (2010) [FLAC] {Rhino Vinyl Replica, 5 CD Box}\CD 3 of 5 - Luxury Liner (77)\01 - Luxury Liner.wav

Pre-gap length 0:00:02.00

Peak level 93.3 %
Extraction speed 2.5 X
Track quality 100.0 %
Test CRC 678DAFCE
Copy CRC 678DAFCE
Accurately ripped (confidence 2) [D3131508] (AR v1)
Copy OK

Track 2

Filename E:\EAC Rip\Emmylou Harris - Original Album Series (75-79) (2010) [FLAC] {Rhino Vinyl Replica, 5 CD Box}\CD 3 of 5 - Luxury Liner (77)\02 - Pancho & Lefty.wav

Pre-gap length 0:00:00.52

Peak level 78.3 %
Extraction speed 2.2 X
Track quality 99.9 %
Test CRC E50DA948
Copy CRC E50DA948
Accurately ripped (confidence 2) [C1422C83] (AR v1)
Copy OK

Track 3

Filename E:\EAC Rip\Emmylou Harris - Original Album Series (75-79) (2010) [FLAC] {Rhino Vinyl Replica, 5 CD Box}\CD 3 of 5 - Luxury Liner (77)\03 - Making Believe.wav

Pre-gap length 0:00:00.62

Peak level 70.9 %
Extraction speed 2.1 X
Track quality 99.9 %
Test CRC D2BCDAB9
Copy CRC D2BCDAB9
Accurately ripped (confidence 2) [453ADFB7] (AR v1)
Copy OK

Track 4

Filename E:\EAC Rip\Emmylou Harris - Original Album Series (75-79) (2010) [FLAC] {Rhino Vinyl Replica, 5 CD Box}\CD 3 of 5 - Luxury Liner (77)\04 - You're Supposed To Be Feeling Good.wav

Pre-gap length 0:00:01.14

Peak level 74.1 %
Extraction speed 2.5 X
Track quality 100.0 %
Test CRC 3AF80295
Copy CRC 3AF80295
Accurately ripped (confidence 2) [A90C2DF6] (AR v1)
Copy OK

Track 5

Filename E:\EAC Rip\Emmylou Harris - Original Album Series (75-79) (2010) [FLAC] {Rhino Vinyl Replica, 5 CD Box}\CD 3 of 5 - Luxury Liner (77)\05 - I'll Be Your San Antonio Rose.wav

Pre-gap length 0:00:02.27

Peak level 83.7 %
Extraction speed 2.1 X
Track quality 99.9 %
Test CRC 1CF57CAB
Copy CRC 1CF57CAB
Accurately ripped (confidence 2) [7C00A2A3] (AR v1)
Copy OK

Track 6

Filename E:\EAC Rip\Emmylou Harris - Original Album Series (75-79) (2010) [FLAC] {Rhino Vinyl Replica, 5 CD Box}\CD 3 of 5 - Luxury Liner (77)\06 - (You Never Can Tell) C'est La Vie.wav

Pre-gap length 0:00:00.64

Peak level 92.3 %
Extraction speed 2.4 X
Track quality 100.0 %
Test CRC C115CB76
Copy CRC C115CB76
Accurately ripped (confidence 2) [2C66FE05] (AR v1)
Copy OK

Track 7

Filename E:\EAC Rip\Emmylou Harris - Original Album Series (75-79) (2010) [FLAC] {Rhino Vinyl Replica, 5 CD Box}\CD 3 of 5 - Luxury Liner (77)\07 - When I Stop Dreaming.wav

Pre-gap length 0:00:00.60

Peak level 95.6 %
Extraction speed 2.0 X
Track quality 99.9 %
Test CRC 12BE50D0
Copy CRC 12BE50D0
Accurately ripped (confidence 2) [00B0277F] (AR v1)
Copy OK

Track 8

Filename E:\EAC Rip\Emmylou Harris - Original Album Series (75-79) (2010) [FLAC] {Rhino Vinyl Replica, 5 CD Box}\CD 3 of 5 - Luxury Liner (77)\08 - Hello Stranger.wav

Pre-gap length 0:00:01.03

Peak level 83.0 %
Extraction speed 2.5 X
Track quality 100.0 %
Test CRC B3239C87
Copy CRC B3239C87
Accurately ripped (confidence 2) [8005BF3A] (AR v1)
Copy OK

Track 9

Filename E:\EAC Rip\Emmylou Harris - Original Album Series (75-79) (2010) [FLAC] {Rhino Vinyl Replica, 5 CD Box}\CD 3 of 5 - Luxury Liner (77)\09 - She.wav

Pre-gap length 0:00:00.70

Peak level 86.2 %
Extraction speed 2.4 X
Track quality 100.0 %
Test CRC 24530EDA
Copy CRC 24530EDA
Accurately ripped (confidence 2) [82F5BB98] (AR v1)
Copy OK

Track 10

Filename E:\EAC Rip\Emmylou Harris - Original Album Series (75-79) (2010) [FLAC] {Rhino Vinyl Replica, 5 CD Box}\CD 3 of 5 - Luxury Liner (77)\10 - Tulsa Queen.wav

Pre-gap length 0:00:00.54

Peak level 85.0 %
Extraction speed 2.8 X
Track quality 100.0 %
Test CRC 4271BD30
Copy CRC 4271BD30
Accurately ripped (confidence 2) [0CF3BA8D] (AR v1)
Copy OK


All tracks accurately ripped

No errors occurred

End of status report

==== Log checksum E7902EABE4F932F264D004F96A06DF3F0E681645585C9CA211F4FAF824BACEFC ====


Emmylou Harris - Original Album Series Vol. 1, 1975-1979 (2010) {5CD Box Set Rhino Vinyl Replica}



–––––––––––––––––––––-
Emmylou Harris - Original Album Series Vol. 1, 1975-1979 (2010) {5CD Box Set Rhino Vinyl Replica}

CD4 - Quarter Moon in a Ten Cent Town (1978)

Quarter Moon in a Ten Cent Town is a transitional effort that bridges the curveballs of Emmylou Harris' earliest solo work with the more traditional country albums that comprise the bulk of the second phase of her career. For the first time, she covers no Gram Parsons tunes or pop music chestnuts, relying instead on newly exited Hot Band member Rodney Crowell for two songs ("Leaving Louisiana in the Broad Daylight" and "I Ain't Living Long Like This") and Dolly Parton for another (the devastating "To Daddy"); the highlight is a gorgeous cover of Jesse Winchester's "Defying Gravity."

tracklist:
01 - Easy From Now On
02 - Two More Bottles Of Wine
03 - To Daddy
04 - My Songbird
05 - Leaving Louisiana In The Broad Daylight
06 - Defying Gravity
07 - I Ain't Living Long Like This
08 - One Paper Kid (with Wilie Nelson)
09 - Green Rolling Hills (with Fayssoux Starling)
10 - Burn That Candle

Exact Audio Copy V1.0 beta 2 from 29. April 2011

EAC extraction logfile from 22. July 2011, 12:36

Emmylou Harris / Quarter Moon In A Ten Cent Town {2010 Rhino Vinyl Replica Original Album Series}

Used drive : PLEXTOR CD-R PREMIUM2 Adapter: 0 ID: 1

Read mode : Secure
Utilize accurate stream : Yes
Defeat audio cache : Yes
Make use of C2 pointers : No

Read offset correction : 30
Overread into Lead-In and Lead-Out : Yes
Fill up missing offset samples with silence : Yes
Delete leading and trailing silent blocks : No
Null samples used in CRC calculations : Yes
Used interface : Native Win32 interface for Win NT & 2000
Gap handling : Appended to previous track

Used output format : User Defined Encoder
Selected bitrate : 1024 kBit/s
Quality : High
Add ID3 tag : No
Command line compressor : C:\Program Files (x86)\Exact Audio Copy\Flac\flac.exe
Additional command line options : -5 -V -T "ARTIST=%artist%" -T "TITLE=%title%" -T "ALBUM=%albumtitle%" -T "DATE=%year%" -T "TRACKNUMBER=%tracknr%" -T "TOTALTRACKS=%numtracks%" -T "GENRE=%genre%" -T "ALBUMARTIST=%albumartist%" -T "ALBUM ARTIST=%albumartist%


TOC of the extracted CD

Track | Start | Length | Start sector | End sector
––––––––––––––––––––––––––––-
1 | 0:00.00 | 3:07.33 | 0 | 14057
2 | 3:07.33 | 3:07.06 | 14058 | 28088
3 | 6:14.39 | 2:47.27 | 28089 | 40640
4 | 9:01.66 | 3:09.57 | 40641 | 54872
5 | 12:11.48 | 4:20.45 | 54873 | 74417
6 | 16:32.18 | 4:16.12 | 74418 | 93629
7 | 20:48.30 | 4:06.35 | 93630 | 112114
8 | 24:54.65 | 2:57.58 | 112115 | 125447
9 | 27:52.48 | 3:40.09 | 125448 | 141956
10 | 31:32.57 | 4:25.74 | 141957 | 161905


Track 1

Filename E:\EAC Rip\Emmylou Harris - Original Album Series (75-79) (2010) [FLAC] {Rhino Vinyl Replica, 5 CD Box}\CD 4 of 5 - Quarter Moon (78)\01 - Easy From Now On.wav

Pre-gap length 0:00:02.00

Peak level 98.8 %
Extraction speed 2.4 X
Track quality 100.0 %
Test CRC E9E2C52C
Copy CRC E9E2C52C
Accurately ripped (confidence 2) [CB3D0C0C] (AR v1)
Copy OK

Track 2

Filename E:\EAC Rip\Emmylou Harris - Original Album Series (75-79) (2010) [FLAC] {Rhino Vinyl Replica, 5 CD Box}\CD 4 of 5 - Quarter Moon (78)\02 - Two More Bottles Of Wine.wav

Pre-gap length 0:00:01.03

Peak level 95.6 %
Extraction speed 2.4 X
Track quality 100.0 %
Test CRC 786D8ADA
Copy CRC 786D8ADA
Accurately ripped (confidence 2) [5D2F7E4F] (AR v1)
Copy OK

Track 3

Filename E:\EAC Rip\Emmylou Harris - Original Album Series (75-79) (2010) [FLAC] {Rhino Vinyl Replica, 5 CD Box}\CD 4 of 5 - Quarter Moon (78)\03 - To Daddy.wav

Pre-gap length 0:00:00.65

Peak level 98.8 %
Extraction speed 2.4 X
Track quality 100.0 %
Test CRC 05CACFDA
Copy CRC 05CACFDA
Accurately ripped (confidence 2) [A9A8D71D] (AR v1)
Copy OK

Track 4

Filename E:\EAC Rip\Emmylou Harris - Original Album Series (75-79) (2010) [FLAC] {Rhino Vinyl Replica, 5 CD Box}\CD 4 of 5 - Quarter Moon (78)\04 - My Songbird.wav

Pre-gap length 0:00:01.12

Peak level 92.6 %
Extraction speed 2.4 X
Track quality 100.0 %
Test CRC 81B7D5E0
Copy CRC 81B7D5E0
Accurately ripped (confidence 2) [FCB18CAF] (AR v1)
Copy OK

Track 5

Filename E:\EAC Rip\Emmylou Harris - Original Album Series (75-79) (2010) [FLAC] {Rhino Vinyl Replica, 5 CD Box}\CD 4 of 5 - Quarter Moon (78)\05 - Leaving Louisiana In The Broad Daylight.wav

Pre-gap length 0:00:01.49

Peak level 93.9 %
Extraction speed 2.2 X
Track quality 99.9 %
Test CRC EED256B6
Copy CRC EED256B6
Accurately ripped (confidence 2) [B6CAEA29] (AR v1)
Copy OK

Track 6

Filename E:\EAC Rip\Emmylou Harris - Original Album Series (75-79) (2010) [FLAC] {Rhino Vinyl Replica, 5 CD Box}\CD 4 of 5 - Quarter Moon (78)\06 - Defying Gravity.wav

Pre-gap length 0:00:01.00

Peak level 80.1 %
Extraction speed 2.5 X
Track quality 100.0 %
Test CRC FAED86F3
Copy CRC FAED86F3
Accurately ripped (confidence 2) [087E5EE0] (AR v1)
Copy OK

Track 7

Filename E:\EAC Rip\Emmylou Harris - Original Album Series (75-79) (2010) [FLAC] {Rhino Vinyl Replica, 5 CD Box}\CD 4 of 5 - Quarter Moon (78)\07 - I Ain't Leaving Long Like This.wav

Pre-gap length 0:00:01.20

Peak level 96.2 %
Extraction speed 2.5 X
Track quality 100.0 %
Test CRC 12E45736
Copy CRC 12E45736
Accurately ripped (confidence 2) [E0E74AAE] (AR v1)
Copy OK

Track 8

Filename E:\EAC Rip\Emmylou Harris - Original Album Series (75-79) (2010) [FLAC] {Rhino Vinyl Replica, 5 CD Box}\CD 4 of 5 - Quarter Moon (78)\08 - One Paper Kid.wav

Pre-gap length 0:00:01.52

Peak level 76.6 %
Extraction speed 2.4 X
Track quality 100.0 %
Test CRC 058CBAD0
Copy CRC 058CBAD0
Accurately ripped (confidence 2) [2E8FA8DB] (AR v1)
Copy OK

Track 9

Filename E:\EAC Rip\Emmylou Harris - Original Album Series (75-79) (2010) [FLAC] {Rhino Vinyl Replica, 5 CD Box}\CD 4 of 5 - Quarter Moon (78)\09 - Green Rolling Hills.wav

Pre-gap length 0:00:00.58

Peak level 97.1 %
Extraction speed 2.1 X
Track quality 99.9 %
Test CRC 5676C5A6
Copy CRC 5676C5A6
Accurately ripped (confidence 2) [BD284AC9] (AR v1)
Copy OK

Track 10

Filename E:\EAC Rip\Emmylou Harris - Original Album Series (75-79) (2010) [FLAC] {Rhino Vinyl Replica, 5 CD Box}\CD 4 of 5 - Quarter Moon (78)\10 - Burn That Candle.wav

Pre-gap length 0:00:00.70

Peak level 100.0 %
Extraction speed 2.8 X
Track quality 100.0 %
Test CRC 0BFD29B8
Copy CRC 0BFD29B8
Accurately ripped (confidence 2) [76229832] (AR v1)
Copy OK


All tracks accurately ripped

No errors occurred

End of status report

==== Log checksum BDE9F3D8BBB9BE6EFA3CAE5EBE176726C7E13F45B6BCF70EBDE43D6ECBDECCB6 ====


Emmylou Harris - Original Album Series Vol. 1, 1975-1979 (2010) {5CD Box Set Rhino Vinyl Replica}



–––––––––––––––––––––––––
Emmylou Harris - Original Album Series Vol. 1, 1975-1979 (2010) {5CD Box Set Rhino Vinyl Replica}

CD5 - Blue Kentucky Girl (1979)

In response to criticism that her records weren't "country" enough, Harris recorded Blue Kentucky Girl, one of her most traditional outings. Relying on a more acoustic sound, the album largely forsakes contemporary pop songs in favor of standard country fare, including the Louvin Brothers' "Everytime You Leave" and Leon Payne's "They'll Never Take His Love from Me." The cover of Dallas Frazier's "Beneath Still Waters" earned Harris her fourth number one single.

tracklist:
01 - Sister's Coming Home
02 - Beneath Still Waters
03 - Rough And Rocky
04 - Hickory Wind
05 - Save The Last Dance For Me
06 - Sorrow In The Wind
07 - They'll Never Take His Love From Me
08 - Everytime You Leave
09 - Blue Kentucky Girl
10 - Even Cowgirls Get The Blues

Exact Audio Copy V1.0 beta 2 from 29. April 2011

EAC extraction logfile from 22. July 2011, 11:55

Emmylou Harris / Blue Kentucky Girl {2010 Rhino Vinyl Replica Original Album Series}

Used drive : PLEXTOR CD-R PREMIUM2 Adapter: 0 ID: 1

Read mode : Secure
Utilize accurate stream : Yes
Defeat audio cache : Yes
Make use of C2 pointers : No

Read offset correction : 30
Overread into Lead-In and Lead-Out : Yes
Fill up missing offset samples with silence : Yes
Delete leading and trailing silent blocks : No
Null samples used in CRC calculations : Yes
Used interface : Native Win32 interface for Win NT & 2000
Gap handling : Appended to previous track

Used output format : User Defined Encoder
Selected bitrate : 1024 kBit/s
Quality : High
Add ID3 tag : No
Command line compressor : C:\Program Files (x86)\Exact Audio Copy\Flac\flac.exe
Additional command line options : -5 -V -T "ARTIST=%artist%" -T "TITLE=%title%" -T "ALBUM=%albumtitle%" -T "DATE=%year%" -T "TRACKNUMBER=%tracknr%" -T "TOTALTRACKS=%numtracks%" -T "GENRE=%genre%" -T "ALBUMARTIST=%albumartist%" -T "ALBUM ARTIST=%albumartist%


TOC of the extracted CD

Track | Start | Length | Start sector | End sector
––––––––––––––––––––––––––––-
1 | 0:00.00 | 2:53.61 | 0 | 13035
2 | 2:53.61 | 3:43.24 | 13036 | 29784
3 | 6:37.10 | 3:52.72 | 29785 | 47256
4 | 10:30.07 | 4:04.45 | 47257 | 65601
5 | 14:34.52 | 3:41.00 | 65602 | 82176
6 | 18:15.52 | 3:30.14 | 82177 | 97940
7 | 21:45.66 | 2:36.71 | 97941 | 109711
8 | 24:22.62 | 3:00.03 | 109712 | 123214
9 | 27:22.65 | 3:17.43 | 123215 | 138032
10 | 30:40.33 | 3:55.49 | 138033 | 155706


Track 1

Filename E:\EAC Rip\Emmylou Harris - Original Album Series (75-79) (2010) [FLAC] {Rhino Vinyl Replica, 5 CD Box}\CD 5 of 5 - Blue Kentucky Girl (79)\01 - Sister's Coming Home.wav

Pre-gap length 0:00:02.00

Peak level 100.0 %
Extraction speed 2.4 X
Track quality 100.0 %
Test CRC 63D1EAD8
Copy CRC 63D1EAD8
Accurately ripped (confidence 2) [23F34C5A] (AR v1)
Copy OK

Track 2

Filename E:\EAC Rip\Emmylou Harris - Original Album Series (75-79) (2010) [FLAC] {Rhino Vinyl Replica, 5 CD Box}\CD 5 of 5 - Blue Kentucky Girl (79)\02 - Beneath Still Waters.wav

Pre-gap length 0:00:00.59

Peak level 88.8 %
Extraction speed 2.5 X
Track quality 100.0 %
Test CRC C0A7C473
Copy CRC C0A7C473
Accurately ripped (confidence 2) [BB19BE95] (AR v1)
Copy OK

Track 3

Filename E:\EAC Rip\Emmylou Harris - Original Album Series (75-79) (2010) [FLAC] {Rhino Vinyl Replica, 5 CD Box}\CD 5 of 5 - Blue Kentucky Girl (79)\03 - Rough And Rocky.wav

Pre-gap length 0:00:00.60

Peak level 96.4 %
Extraction speed 2.5 X
Track quality 100.0 %
Test CRC B7230FCD
Copy CRC B7230FCD
Accurately ripped (confidence 2) [91B70856] (AR v1)
Copy OK

Track 4

Filename E:\EAC Rip\Emmylou Harris - Original Album Series (75-79) (2010) [FLAC] {Rhino Vinyl Replica, 5 CD Box}\CD 5 of 5 - Blue Kentucky Girl (79)\04 - Hickory Wind.wav

Pre-gap length 0:00:00.63

Peak level 88.7 %
Extraction speed 2.5 X
Track quality 100.0 %
Test CRC ADD1E0E8
Copy CRC ADD1E0E8
Accurately ripped (confidence 2) [BEC77A04] (AR v1)
Copy OK

Track 5

Filename E:\EAC Rip\Emmylou Harris - Original Album Series (75-79) (2010) [FLAC] {Rhino Vinyl Replica, 5 CD Box}\CD 5 of 5 - Blue Kentucky Girl (79)\05 - Save The Last Dance For Me.wav

Pre-gap length 0:00:01.08

Peak level 91.2 %
Extraction speed 2.5 X
Track quality 100.0 %
Test CRC CA8F1994
Copy CRC CA8F1994
Accurately ripped (confidence 2) [F9940108] (AR v1)
Copy OK

Track 6

Filename E:\EAC Rip\Emmylou Harris - Original Album Series (75-79) (2010) [FLAC] {Rhino Vinyl Replica, 5 CD Box}\CD 5 of 5 - Blue Kentucky Girl (79)\06 - Sorrow In The Wind.wav

Pre-gap length 0:00:00.60

Peak level 80.1 %
Extraction speed 2.4 X
Track quality 100.0 %
Test CRC D684B85E
Copy CRC D684B85E
Accurately ripped (confidence 2) [6954F8D4] (AR v1)
Copy OK

Track 7

Filename E:\EAC Rip\Emmylou Harris - Original Album Series (75-79) (2010) [FLAC] {Rhino Vinyl Replica, 5 CD Box}\CD 5 of 5 - Blue Kentucky Girl (79)\07 - They'll Never Take His Love From Me.wav

Pre-gap length 0:00:00.56

Peak level 90.6 %
Extraction speed 2.3 X
Track quality 100.0 %
Test CRC A10F759D
Copy CRC A10F759D
Accurately ripped (confidence 2) [FC4AC065] (AR v1)
Copy OK

Track 8

Filename E:\EAC Rip\Emmylou Harris - Original Album Series (75-79) (2010) [FLAC] {Rhino Vinyl Replica, 5 CD Box}\CD 5 of 5 - Blue Kentucky Girl (79)\08 - Everytime You Leave.wav

Pre-gap length 0:00:02.21

Peak level 86.4 %
Extraction speed 2.4 X
Track quality 100.0 %
Test CRC 443EFC51
Copy CRC 443EFC51
Accurately ripped (confidence 2) [3953B731] (AR v1)
Copy OK

Track 9

Filename E:\EAC Rip\Emmylou Harris - Original Album Series (75-79) (2010) [FLAC] {Rhino Vinyl Replica, 5 CD Box}\CD 5 of 5 - Blue Kentucky Girl (79)\09 - Blue Kentucky Girl.wav

Pre-gap length 0:00:01.19

Peak level 88.3 %
Extraction speed 2.4 X
Track quality 100.0 %
Test CRC 90C2C344
Copy CRC 90C2C344
Accurately ripped (confidence 2) [0A1B0CB4] (AR v1)
Copy OK

Track 10

Filename E:\EAC Rip\Emmylou Harris - Original Album Series (75-79) (2010) [FLAC] {Rhino Vinyl Replica, 5 CD Box}\CD 5 of 5 - Blue Kentucky Girl (79)\10 - Even Cowgirls Get The Blues.wav

Pre-gap length 0:00:01.02

Peak level 89.0 %
Extraction speed 2.8 X
Track quality 100.0 %
Test CRC 29618478
Copy CRC 29618478
Accurately ripped (confidence 2) [2A7ABD64] (AR v1)
Copy OK


All tracks accurately ripped

No errors occurred

End of status report

==== Log checksum AC3107E6A59350B10CFDCB2AB634CBADF24801F7E7F8D635BD69263C45EC498A ====


Emmylou Harris - Original Album Series Vol. 1, 1975-1979 (2010) {5CD Box Set Rhino Vinyl Replica}

––––––––––––––––––––
Emmylou Harris - Original Album Series Vol. 1, 1975-1979 (2010) {5CD Box Set Rhino Vinyl Replica}

Emmylou Harris - Original Album Series Vol. 1, 1975-1979 (2010) {5CD Box Set Rhino Vinyl Replica}

Emmylou Harris - Original Album Series Vol. 1, 1975-1979 (2010) {5CD Box Set Rhino Vinyl Replica}



===