Subcategories

Enrico Rava - The Complete Remastered Recordings on Black Saint & Soul Note (2010) {5CD Set CAM Jazz BXS1002 rec 1972-1994}

Posted By: ruskaval
Enrico Rava - The Complete Remastered Recordings on Black Saint & Soul Note (2010) {5CD Set CAM Jazz BXS1002 rec 1972-1994}

Enrico Rava - The Complete Remastered Recordings on Black Saint & Soul Note (2010) {5CD Set CAM Jazz BXS1002 rec 1972-1994}
EAC rip (secure mode) | FLAC (tracks)+CUE+LOG -> 1.35 Gb | MP3 @320 -> 511 Mb
Full Artwork @ 600 dpi (png) -> 130 Mb | 5% repair rar
© 1972-94, 2010 CAM Jazz / Black Saint / Soul Note | BXS 1002
Jazz / Post Bop / Modern Creative / Trumpet

Good news! Five of Italian trumpeter Enrico Rava's Black Saint and Soul Note recordings have been reissued by CAM Jazz in one of those pretty white box sets with each LP reproduced as a separate CD tucked into a miniature record jacket. Born at Trieste in 1939, Rava later attributed his lifelong pursuit of modern jazz to the influence of Miles Davis. One might add Don Cherry and Freddie Hubbard to that equation, along with maybe Richard Williams and Lee Morgan. In order to fully comprehend what he was up to from the '70s onward, it is important to consider the artistic company that Rava kept during the ‘60s. Take a moment, for example, to ponder the blended influences of Chet Baker and Gato Barbieri.
5-CD boxed set of remastered versions of the following albums:

* Il Giro Del Giorno in 80 Mondi
* Andanada
* Rava String Band
* Secrets
* Electric Five
Collaboration with Steve Lacy and Johnny Dyani was almost immediately followed by intensive interactions with Cecil Taylor, Roswell Rudd, Carla Bley, and Marion Brown, among many other comparably brilliant artists. The Rava who emerged from the creative cauldron of those years was a seasoned and formidable improviser. A chance to revisit five of his albums generated during the next two-and-a-half decades is a treat that some people are sure to find irresistible. The first disc in this set is devoted to a hitherto hard-to-obtain album recorded at Turin in February 1972, fully three years before the establishment of the Black Saint record label. Anyone puzzled by its title and cover art will be happy to learn that Il Giro del Giorno in 80 Mondi translates as "Around the Day in 80 Worlds", a mischievous scrambling of the title of a novel published in 1873 by Jules Verne, and an award-winning all-star motion picture that came out in 1956. Backed by guitarist Bruce Johnson, bassist Marcello Melis, and drummer Chip White, Rava covers Carla Bley's "Olhos de Gato," conjures a tribute to Cecil Taylor in "C.T.'s Dance," and unleashes a turbulent acknowledgment of the violence that erupted at New York State's Attica Correctional Facility only five months before this recording was made.

The rest of the albums reissued in this set were originally released on Soul Note, producer Giacomo Pellicciotti's comparatively mainstream counterpart to the Black Saint label. Andanada (Spanish for "broadside") was recorded by Rava & His Quintet in 1983 with Pietro Tonolo blowing tenor sax. In addition to his customary spread of original compositions, Rava provided brief variations on George Gershwin's "Rhapsody in Blue" and the music Nino Rota scored for Federico Fellini's film "Juliet of the Spirits" in 1965. Rava's "Bowery Dance" brings to mind the work of Nat Adderley. "String Band" is the title track from an album recorded in 1984 with Brazilian percussionist and Berimbau virtuoso Naná Vasconcelos. The rest of the ensemble consisted of electric guitarist Augusto Mancinelli, upright bassist Giovanni Tomasso, two violinists, a violist, and a cellist. In addition to a characteristically refreshing episode by Vasconcelos, the itinerary includes relaxed grooves and a couple of extended works which seem to resemble interior landscapes. Dating from 1986, Secrets is one of Rava's strongest offerings from this period. Its lengthy title track and the Thelonious-inspired "Monky-Tonk" are perfectly counterbalanced by the dizzying "Cornette," which lasts a little over one minute, and a delightfully unconventional reading of "Holiday for Strings." Rava's Soul Note saga closes with Electric Five, an exciting album recorded at the end of September 1994 with a group that included saxophonist-clarinetist Gianluigi Trovesi and electric guitarists Roberto Cecchetto and Domenico Caliri, who generate a veritable Terje Rypdal-styled electrical storm during "Da Silva." Rava also honors his root strata by covering Miles Davis' "Milestones" and Cleo Henry's "Boplicity" (dating back to Miles' Birth of the Cool). There is also a short and properly wistful version of Nino Rota's theme song from Fellini's La Strada. Further examples of Rava's work as a Black Saint/Soul Note recording artist are Jimmy Lyons' Give It Up and Archie Shepp's Little Red Moon, which were both released in 1985.

tracklist:
CD1

01. C.T.'s Dance
02. Back To The Sun
03. Xanadu
04. Attica
05. Il Giro Del Giorno In 80 Mondi
06. To Start With
07. Olhos De Gato

Enrico Rava - The Complete Remastered Recordings on Black Saint & Soul Note (2010) {5CD Set CAM Jazz BXS1002 rec 1972-1994}


CD2
01. Bowery Dance
02. Lost And Found
03. Rhapsody In Blue
04. Traveling Light
05. Andanada
06. On Stage
07. Bums
08. Juliet Of The Spirits

Enrico Rava - The Complete Remastered Recordings on Black Saint & Soul Note (2010) {5CD Set CAM Jazz BXS1002 rec 1972-1994}


CD3
01. Verde Que Eu Te Quero Ver
02. String Band
03. Operetta
04. Note Is A Note, A
05. Still Life
06. Chanana
07. More From Giulietta
08. Sensatez

Enrico Rava - The Complete Remastered Recordings on Black Saint & Soul Note (2010) {5CD Set CAM Jazz BXS1002 rec 1972-1994}


CD4
01. Cornette
02. Secrets
03. Da Silva
04. Holiday For Strings
05. Tomo Y Recuerdo
06. Planet Earth
07. Monky Tonk

Enrico Rava - The Complete Remastered Recordings on Black Saint & Soul Note (2010) {5CD Set CAM Jazz BXS1002 rec 1972-1994}


CD5
01. Da Silva
02. Fragile
03. Fearless Five, The
04. Lavori Casalinghi
05. Milestones
06. Overboard
07. La Strada
08. Fefe
09. Satie For Two
10. Lady Orlando
11. Boplicity

Enrico Rava - The Complete Remastered Recordings on Black Saint & Soul Note (2010) {5CD Set CAM Jazz BXS1002 rec 1972-1994}


Exact Audio Copy V0.99 prebeta 5 from 4. May 2009

EAC extraction logfile from 9. January 2011, 20:30

Enrico Rava / Il Giro Del Giorno in 80 Mondi

Used drive : TSSTcorpCD/DVDW TS-H552L Adapter: 3 ID: 0

Read mode : Secure
Utilize accurate stream : Yes
Defeat audio cache : Yes
Make use of C2 pointers : No

Read offset correction : 6
Overread into Lead-In and Lead-Out : No
Fill up missing offset samples with silence : Yes
Delete leading and trailing silent blocks : No
Null samples used in CRC calculations : Yes
Used interface : Native Win32 interface for Win NT & 2000
Gap handling : Appended to previous track

Used output format : User Defined Encoder
Selected bitrate : 1024 kBit/s
Quality : High
Add ID3 tag : No
Command line compressor : C:\Program Files\FLAC\flac.exe
Additional command line options : -5 -V -T "ARTIST=%a" -T "TITLE=%t" -T "ALBUM=%g" -T "DATE=%y" -T "TRACKNUMBER=%n" -T "TOTALTRACKS=%x" -T "GENRE=%m" -T "ALBUMARTIST=%v" -T "ALBUM ARTIST=%v" -T "COMMENT=EAC Secure Mode, Test & Copy, AccurateRip, FLAC -5" %s


TOC of the extracted CD

Track | Start | Length | Start sector | End sector
––––––––––––––––––––––––––––-
1 | 0:00.00 | 5:33.43 | 0 | 25017
2 | 5:33.43 | 5:12.65 | 25018 | 48482
3 | 10:46.33 | 4:35.41 | 48483 | 69148
4 | 15:21.74 | 2:28.03 | 69149 | 80251
5 | 17:50.02 | 7:14.45 | 80252 | 112846
6 | 25:04.47 | 5:16.25 | 112847 | 136571
7 | 30:20.72 | 3:16.02 | 136572 | 151273


Track 1

Filename E:\EAC\Enrico Rava - The Complete Remastered Recordings On Black Saint & Soul Note (2010) (2010) [5 CD Set] {CAM Jazz}\CD1 (Il Giro Del Giorno In 80 Mondi)\01 - C.T.'s Dance.wav

Pre-gap length 0:00:02.00

Peak level 88.3 %
Track quality 100.0 %
Test CRC 4D9D9057
Copy CRC 4D9D9057
Accurately ripped (confidence 3) [84109763]
Copy OK

Track 2

Filename E:\EAC\Enrico Rava - The Complete Remastered Recordings On Black Saint & Soul Note (2010) (2010) [5 CD Set] {CAM Jazz}\CD1 (Il Giro Del Giorno In 80 Mondi)\02 - Back To The Sun.wav

Pre-gap length 0:00:02.50

Peak level 67.6 %
Track quality 100.0 %
Test CRC 0A21EDBB
Copy CRC 0A21EDBB
Accurately ripped (confidence 3) [168A86F2]
Copy OK

Track 3

Filename E:\EAC\Enrico Rava - The Complete Remastered Recordings On Black Saint & Soul Note (2010) (2010) [5 CD Set] {CAM Jazz}\CD1 (Il Giro Del Giorno In 80 Mondi)\03 - Xanadu.wav

Pre-gap length 0:00:01.50

Peak level 87.9 %
Track quality 100.0 %
Test CRC 25D5791A
Copy CRC 25D5791A
Accurately ripped (confidence 3) [4A536571]
Copy OK

Track 4

Filename E:\EAC\Enrico Rava - The Complete Remastered Recordings On Black Saint & Soul Note (2010) (2010) [5 CD Set] {CAM Jazz}\CD1 (Il Giro Del Giorno In 80 Mondi)\04 - Attica.wav

Pre-gap length 0:00:02.50

Peak level 79.8 %
Track quality 100.0 %
Test CRC 0D763C9B
Copy CRC 0D763C9B
Accurately ripped (confidence 3) [99DB5B15]
Copy OK

Track 5

Filename E:\EAC\Enrico Rava - The Complete Remastered Recordings On Black Saint & Soul Note (2010) (2010) [5 CD Set] {CAM Jazz}\CD1 (Il Giro Del Giorno In 80 Mondi)\05 - Il Giro Del Giorno in 80 Mondi.wav

Pre-gap length 0:00:01.61

Peak level 69.1 %
Track quality 100.0 %
Test CRC 5D0C9001
Copy CRC 5D0C9001
Accurately ripped (confidence 3) [54E668FD]
Copy OK

Track 6

Filename E:\EAC\Enrico Rava - The Complete Remastered Recordings On Black Saint & Soul Note (2010) (2010) [5 CD Set] {CAM Jazz}\CD1 (Il Giro Del Giorno In 80 Mondi)\06 - To Start With.wav

Pre-gap length 0:00:02.04

Peak level 74.1 %
Track quality 100.0 %
Test CRC 3E127942
Copy CRC 3E127942
Accurately ripped (confidence 3) [29E81A26]
Copy OK

Track 7

Filename E:\EAC\Enrico Rava - The Complete Remastered Recordings On Black Saint & Soul Note (2010) (2010) [5 CD Set] {CAM Jazz}\CD1 (Il Giro Del Giorno In 80 Mondi)\07 - Olhos de Gato.wav

Pre-gap length 0:00:02.45

Peak level 71.6 %
Track quality 100.0 %
Test CRC 829AC579
Copy CRC 829AC579
Accurately ripped (confidence 3) [6AE2412E]
Copy OK


All tracks accurately ripped

No errors occurred

End of status report
–––––––––––––––––––––––––––––––––––––––––––––––––––––––––––––––––––––––––––––––––––––––––––––––––––––-
Exact Audio Copy V0.99 prebeta 5 from 4. May 2009

EAC extraction logfile from 9. January 2011, 20:40

Enrico Rava Quintet / Andanada

Used drive : TSSTcorpCD/DVDW TS-H552L Adapter: 3 ID: 0

Read mode : Secure
Utilize accurate stream : Yes
Defeat audio cache : Yes
Make use of C2 pointers : No

Read offset correction : 6
Overread into Lead-In and Lead-Out : No
Fill up missing offset samples with silence : Yes
Delete leading and trailing silent blocks : No
Null samples used in CRC calculations : Yes
Used interface : Native Win32 interface for Win NT & 2000
Gap handling : Appended to previous track

Used output format : User Defined Encoder
Selected bitrate : 1024 kBit/s
Quality : High
Add ID3 tag : No
Command line compressor : C:\Program Files\FLAC\flac.exe
Additional command line options : -5 -V -T "ARTIST=%a" -T "TITLE=%t" -T "ALBUM=%g" -T "DATE=%y" -T "TRACKNUMBER=%n" -T "TOTALTRACKS=%x" -T "GENRE=%m" -T "ALBUMARTIST=%v" -T "ALBUM ARTIST=%v" -T "COMMENT=EAC Secure Mode, Test & Copy, AccurateRip, FLAC -5" %s


TOC of the extracted CD

Track | Start | Length | Start sector | End sector
––––––––––––––––––––––––––––-
1 | 0:00.00 | 4:34.34 | 0 | 20583
2 | 4:34.34 | 6:24.45 | 20584 | 49428
3 | 10:59.04 | 3:56.53 | 49429 | 67181
4 | 14:55.57 | 6:42.43 | 67182 | 97374
5 | 21:38.25 | 3:32.20 | 97375 | 113294
6 | 25:10.45 | 8:23.58 | 113295 | 151077
7 | 33:34.28 | 5:22.70 | 151078 | 175297
8 | 38:57.23 | 4:25.06 | 175298 | 195178


Track 1

Filename E:\EAC\Enrico Rava - The Complete Remastered Recordings On Black Saint & Soul Note (2010) (2010) [5 CD Set] {CAM Jazz}\CD2 (Andanada)\01 - Bowery Dance.wav

Pre-gap length 0:00:02.00

Peak level 95.9 %
Track quality 100.0 %
Test CRC A37F8108
Copy CRC A37F8108
Accurately ripped (confidence 3) [8DDA08F5]
Copy OK

Track 2

Filename E:\EAC\Enrico Rava - The Complete Remastered Recordings On Black Saint & Soul Note (2010) (2010) [5 CD Set] {CAM Jazz}\CD2 (Andanada)\02 - Lost And Found.wav

Pre-gap length 0:00:02.08

Peak level 95.7 %
Track quality 100.0 %
Test CRC 3E6A4E13
Copy CRC 3E6A4E13
Accurately ripped (confidence 3) [9BB9BB96]
Copy OK

Track 3

Filename E:\EAC\Enrico Rava - The Complete Remastered Recordings On Black Saint & Soul Note (2010) (2010) [5 CD Set] {CAM Jazz}\CD2 (Andanada)\03 - Rhapsody In Blue.wav

Pre-gap length 0:00:01.11

Peak level 95.4 %
Track quality 100.0 %
Test CRC BA69643B
Copy CRC BA69643B
Accurately ripped (confidence 3) [67C703C7]
Copy OK

Track 4

Filename E:\EAC\Enrico Rava - The Complete Remastered Recordings On Black Saint & Soul Note (2010) (2010) [5 CD Set] {CAM Jazz}\CD2 (Andanada)\04 - Traveling Light.wav

Pre-gap length 0:00:02.10

Peak level 95.5 %
Track quality 100.0 %
Test CRC B74D6940
Copy CRC B74D6940
Accurately ripped (confidence 3) [4D2971D4]
Copy OK

Track 5

Filename E:\EAC\Enrico Rava - The Complete Remastered Recordings On Black Saint & Soul Note (2010) (2010) [5 CD Set] {CAM Jazz}\CD2 (Andanada)\05 - Andanada.wav

Pre-gap length 0:00:03.06

Peak level 95.4 %
Track quality 100.0 %
Test CRC A352068A
Copy CRC A352068A
Accurately ripped (confidence 3) [155107FD]
Copy OK

Track 6

Filename E:\EAC\Enrico Rava - The Complete Remastered Recordings On Black Saint & Soul Note (2010) (2010) [5 CD Set] {CAM Jazz}\CD2 (Andanada)\06 - On Stage.wav

Pre-gap length 0:00:01.23

Peak level 95.4 %
Track quality 100.0 %
Test CRC 803813E8
Copy CRC 803813E8
Accurately ripped (confidence 3) [2212F8C6]
Copy OK

Track 7

Filename E:\EAC\Enrico Rava - The Complete Remastered Recordings On Black Saint & Soul Note (2010) (2010) [5 CD Set] {CAM Jazz}\CD2 (Andanada)\07 - Bums.wav

Pre-gap length 0:00:00.02

Peak level 95.7 %
Track quality 100.0 %
Test CRC 3FF00A39
Copy CRC 3FF00A39
Accurately ripped (confidence 3) [3AB5BFE3]
Copy OK

Track 8

Filename E:\EAC\Enrico Rava - The Complete Remastered Recordings On Black Saint & Soul Note (2010) (2010) [5 CD Set] {CAM Jazz}\CD2 (Andanada)\08 - Theme from 'Juliet of the Spirits'.wav

Peak level 95.9 %
Track quality 100.0 %
Test CRC DDB2CDA2
Copy CRC DDB2CDA2
Accurately ripped (confidence 3) [BE4C01A2]
Copy OK


All tracks accurately ripped

No errors occurred

End of status report
–––––––––––––––––––––––––––––––––––––––––––––––––––––––––––––––––––––––––––––––––––––-
Exact Audio Copy V0.99 prebeta 5 from 4. May 2009

EAC extraction logfile from 9. January 2011, 20:46

Enrico Rava / Rava String Band

Used drive : TSSTcorpCD/DVDW TS-H552L Adapter: 3 ID: 0

Read mode : Secure
Utilize accurate stream : Yes
Defeat audio cache : Yes
Make use of C2 pointers : No

Read offset correction : 6
Overread into Lead-In and Lead-Out : No
Fill up missing offset samples with silence : Yes
Delete leading and trailing silent blocks : No
Null samples used in CRC calculations : Yes
Used interface : Native Win32 interface for Win NT & 2000
Gap handling : Appended to previous track

Used output format : User Defined Encoder
Selected bitrate : 1024 kBit/s
Quality : High
Add ID3 tag : No
Command line compressor : C:\Program Files\FLAC\flac.exe
Additional command line options : -5 -V -T "ARTIST=%a" -T "TITLE=%t" -T "ALBUM=%g" -T "DATE=%y" -T "TRACKNUMBER=%n" -T "TOTALTRACKS=%x" -T "GENRE=%m" -T "ALBUMARTIST=%v" -T "ALBUM ARTIST=%v" -T "COMMENT=EAC Secure Mode, Test & Copy, AccurateRip, FLAC -5" %s


TOC of the extracted CD

Track | Start | Length | Start sector | End sector
––––––––––––––––––––––––––––-
1 | 0:00.00 | 3:37.15 | 0 | 16289
2 | 3:37.15 | 7:10.67 | 16290 | 48606
3 | 10:48.07 | 2:26.50 | 48607 | 59606
4 | 13:14.57 | 7:45.58 | 59607 | 94539
5 | 21:00.40 | 1:01.61 | 94540 | 99175
6 | 22:02.26 | 6:22.43 | 99176 | 127868
7 | 28:24.69 | 9:55.39 | 127869 | 172532
8 | 38:20.33 | 5:46.05 | 172533 | 198487


Track 1

Filename E:\EAC\Enrico Rava - The Complete Remastered Recordings On Black Saint & Soul Note (2010) (2010) [5 CD Set] {CAM Jazz}\CD3 (Rava String Band)\01 - Verde Que Eu Te Quero Ver.wav

Pre-gap length 0:00:02.00

Peak level 94.3 %
Track quality 100.0 %
Test CRC D5179624
Copy CRC D5179624
Accurately ripped (confidence 3) [75C575A6]
Copy OK

Track 2

Filename E:\EAC\Enrico Rava - The Complete Remastered Recordings On Black Saint & Soul Note (2010) (2010) [5 CD Set] {CAM Jazz}\CD3 (Rava String Band)\02 - String Band.wav

Pre-gap length 0:00:02.17

Peak level 96.1 %
Track quality 100.0 %
Test CRC 916E99A2
Copy CRC 916E99A2
Accurately ripped (confidence 3) [07556672]
Copy OK

Track 3

Filename E:\EAC\Enrico Rava - The Complete Remastered Recordings On Black Saint & Soul Note (2010) (2010) [5 CD Set] {CAM Jazz}\CD3 (Rava String Band)\03 - Operetta.wav

Pre-gap length 0:00:01.36

Peak level 95.0 %
Track quality 100.0 %
Test CRC 47489E8F
Copy CRC 47489E8F
Accurately ripped (confidence 3) [20A64F44]
Copy OK

Track 4

Filename E:\EAC\Enrico Rava - The Complete Remastered Recordings On Black Saint & Soul Note (2010) (2010) [5 CD Set] {CAM Jazz}\CD3 (Rava String Band)\04 - A Note Is A Note.wav

Pre-gap length 0:00:01.39

Peak level 95.7 %
Track quality 100.0 %
Test CRC E96B5502
Copy CRC E96B5502
Accurately ripped (confidence 3) [CC74467D]
Copy OK

Track 5

Filename E:\EAC\Enrico Rava - The Complete Remastered Recordings On Black Saint & Soul Note (2010) (2010) [5 CD Set] {CAM Jazz}\CD3 (Rava String Band)\05 - Still Life.wav

Pre-gap length 0:00:03.01

Peak level 50.1 %
Track quality 100.0 %
Test CRC A09DB35E
Copy CRC A09DB35E
Accurately ripped (confidence 3) [E5D2FAAB]
Copy OK

Track 6

Filename E:\EAC\Enrico Rava - The Complete Remastered Recordings On Black Saint & Soul Note (2010) (2010) [5 CD Set] {CAM Jazz}\CD3 (Rava String Band)\06 - Chanana.wav

Pre-gap length 0:00:02.21

Peak level 96.1 %
Track quality 100.0 %
Test CRC 835E9031
Copy CRC 835E9031
Accurately ripped (confidence 3) [C55BEE20]
Copy OK

Track 7

Filename E:\EAC\Enrico Rava - The Complete Remastered Recordings On Black Saint & Soul Note (2010) (2010) [5 CD Set] {CAM Jazz}\CD3 (Rava String Band)\07 - More From Giulietta.wav

Pre-gap length 0:00:00.65

Peak level 96.7 %
Track quality 100.0 %
Test CRC 60850B63
Copy CRC 60850B63
Accurately ripped (confidence 3) [7FA8AF3B]
Copy OK

Track 8

Filename E:\EAC\Enrico Rava - The Complete Remastered Recordings On Black Saint & Soul Note (2010) (2010) [5 CD Set] {CAM Jazz}\CD3 (Rava String Band)\08 - Sensatez.wav

Pre-gap length 0:00:00.44

Peak level 94.7 %
Track quality 100.0 %
Test CRC 474E5B94
Copy CRC 474E5B94
Accurately ripped (confidence 3) [2B79652C]
Copy OK


All tracks accurately ripped

No errors occurred

End of status report
––––––––––––––––––––––––––––––––––––––––––––––––––––––––––––––––––––––––––––––––––––––––––––
Exact Audio Copy V0.99 prebeta 5 from 4. May 2009

EAC extraction logfile from 9. January 2011, 20:49

Enrico Rava / Secrets

Used drive : TSSTcorpCD/DVDW TS-H552L Adapter: 3 ID: 0

Read mode : Secure
Utilize accurate stream : Yes
Defeat audio cache : Yes
Make use of C2 pointers : No

Read offset correction : 6
Overread into Lead-In and Lead-Out : No
Fill up missing offset samples with silence : Yes
Delete leading and trailing silent blocks : No
Null samples used in CRC calculations : Yes
Used interface : Native Win32 interface for Win NT & 2000
Gap handling : Appended to previous track

Used output format : User Defined Encoder
Selected bitrate : 1024 kBit/s
Quality : High
Add ID3 tag : No
Command line compressor : C:\Program Files\FLAC\flac.exe
Additional command line options : -5 -V -T "ARTIST=%a" -T "TITLE=%t" -T "ALBUM=%g" -T "DATE=%y" -T "TRACKNUMBER=%n" -T "TOTALTRACKS=%x" -T "GENRE=%m" -T "ALBUMARTIST=%v" -T "ALBUM ARTIST=%v" -T "COMMENT=EAC Secure Mode, Test & Copy, AccurateRip, FLAC -5" %s


TOC of the extracted CD

Track | Start | Length | Start sector | End sector
––––––––––––––––––––––––––––-
1 | 0:00.00 | 1:13.44 | 0 | 5518
2 | 1:13.44 | 11:01.60 | 5519 | 55153
3 | 12:15.29 | 9:44.22 | 55154 | 98975
4 | 21:59.51 | 3:24.71 | 98976 | 114346
5 | 25:24.47 | 8:11.19 | 114347 | 151190
6 | 33:35.66 | 3:16.02 | 151191 | 165892
7 | 36:51.68 | 10:59.15 | 165893 | 215332


Track 1

Filename E:\EAC\Enrico Rava - The Complete Remastered Recordings On Black Saint & Soul Note (2010) (2010) [5 CD Set] {CAM Jazz}\CD4 (Secrets)\01 - Cornette.wav

Pre-gap length 0:00:02.00

Peak level 93.4 %
Track quality 100.0 %
Test CRC B95B1F39
Copy CRC B95B1F39
Accurately ripped (confidence 3) [49D77D00]
Copy OK

Track 2

Filename E:\EAC\Enrico Rava - The Complete Remastered Recordings On Black Saint & Soul Note (2010) (2010) [5 CD Set] {CAM Jazz}\CD4 (Secrets)\02 - Secrets.wav

Peak level 93.5 %
Track quality 99.9 %
Test CRC 77FAE797
Copy CRC 77FAE797
Accurately ripped (confidence 3) [DC98D219]
Copy OK

Track 3

Filename E:\EAC\Enrico Rava - The Complete Remastered Recordings On Black Saint & Soul Note (2010) (2010) [5 CD Set] {CAM Jazz}\CD4 (Secrets)\03 - Da Silva.wav

Pre-gap length 0:00:03.60

Peak level 93.1 %
Track quality 100.0 %
Test CRC BD3DEE2C
Copy CRC BD3DEE2C
Accurately ripped (confidence 3) [BBA12FD3]
Copy OK

Track 4

Filename E:\EAC\Enrico Rava - The Complete Remastered Recordings On Black Saint & Soul Note (2010) (2010) [5 CD Set] {CAM Jazz}\CD4 (Secrets)\04 - Holiday For Strings.wav

Peak level 93.5 %
Track quality 100.0 %
Test CRC 3649A9EE
Copy CRC 3649A9EE
Accurately ripped (confidence 3) [65DA33C8]
Copy OK

Track 5

Filename E:\EAC\Enrico Rava - The Complete Remastered Recordings On Black Saint & Soul Note (2010) (2010) [5 CD Set] {CAM Jazz}\CD4 (Secrets)\05 - Tomo Y Recuerdo.wav

Pre-gap length 0:00:05.12

Peak level 93.3 %
Track quality 100.0 %
Test CRC F0D99642
Copy CRC F0D99642
Accurately ripped (confidence 3) [F5AC0C30]
Copy OK

Track 6

Filename E:\EAC\Enrico Rava - The Complete Remastered Recordings On Black Saint & Soul Note (2010) (2010) [5 CD Set] {CAM Jazz}\CD4 (Secrets)\06 - Planet Earth.wav

Pre-gap length 0:00:03.02

Peak level 92.0 %
Track quality 100.0 %
Test CRC 4904CED3
Copy CRC 4904CED3
Accurately ripped (confidence 3) [7D051780]
Copy OK

Track 7

Filename E:\EAC\Enrico Rava - The Complete Remastered Recordings On Black Saint & Soul Note (2010) (2010) [5 CD Set] {CAM Jazz}\CD4 (Secrets)\07 - Monky Tonk.wav

Pre-gap length 0:00:03.23

Peak level 94.0 %
Track quality 100.0 %
Test CRC DB4383D5
Copy CRC DB4383D5
Accurately ripped (confidence 3) [171C6ED1]
Copy OK


All tracks accurately ripped

No errors occurred

End of status report
–––––––––––––––––––––––––––––––––––––––––––––––––––––––––––––––––––––––––––––––––––––––––––––––––––-
Exact Audio Copy V0.99 prebeta 5 from 4. May 2009

EAC extraction logfile from 9. January 2011, 20:54

Enrico Rava / Electric Five

Used drive : TSSTcorpCD/DVDW TS-H552L Adapter: 3 ID: 0

Read mode : Secure
Utilize accurate stream : Yes
Defeat audio cache : Yes
Make use of C2 pointers : No

Read offset correction : 6
Overread into Lead-In and Lead-Out : No
Fill up missing offset samples with silence : Yes
Delete leading and trailing silent blocks : No
Null samples used in CRC calculations : Yes
Used interface : Native Win32 interface for Win NT & 2000
Gap handling : Appended to previous track

Used output format : User Defined Encoder
Selected bitrate : 1024 kBit/s
Quality : High
Add ID3 tag : No
Command line compressor : C:\Program Files\FLAC\flac.exe
Additional command line options : -5 -V -T "ARTIST=%a" -T "TITLE=%t" -T "ALBUM=%g" -T "DATE=%y" -T "TRACKNUMBER=%n" -T "TOTALTRACKS=%x" -T "GENRE=%m" -T "ALBUMARTIST=%v" -T "ALBUM ARTIST=%v" -T "COMMENT=EAC Secure Mode, Test & Copy, AccurateRip, FLAC -5" %s


TOC of the extracted CD

Track | Start | Length | Start sector | End sector
––––––––––––––––––––––––––––-
1 | 0:00.00 | 5:30.48 | 0 | 24797
2 | 5:30.48 | 3:41.24 | 24798 | 41396
3 | 9:11.72 | 4:26.06 | 41397 | 61352
4 | 13:38.03 | 5:19.30 | 61353 | 85307
5 | 18:57.33 | 5:06.24 | 85308 | 108281
6 | 24:03.57 | 6:55.45 | 108282 | 139451
7 | 30:59.27 | 1:52.22 | 139452 | 147873
8 | 32:51.49 | 4:47.58 | 147874 | 169456
9 | 37:39.32 | 4:40.08 | 169457 | 190464
10 | 42:19.40 | 2:28.09 | 190465 | 201573
11 | 44:47.49 | 3:12.46 | 201574 | 216019


Track 1

Filename E:\EAC\Enrico Rava - The Complete Remastered Recordings On Black Saint & Soul Note (2010) (2010) [5 CD Set] {CAM Jazz}\CD5 (Electric Five)\01 - Da Silva.wav

Pre-gap length 0:00:02.00

Peak level 94.5 %
Track quality 100.0 %
Test CRC 4FCA245A
Copy CRC 4FCA245A
Accurately ripped (confidence 2) [E360955A]
Copy OK

Track 2

Filename E:\EAC\Enrico Rava - The Complete Remastered Recordings On Black Saint & Soul Note (2010) (2010) [5 CD Set] {CAM Jazz}\CD5 (Electric Five)\02 - Fragile.wav

Pre-gap length 0:00:01.69

Peak level 93.5 %
Track quality 100.0 %
Test CRC 3B5CFA0D
Copy CRC 3B5CFA0D
Accurately ripped (confidence 2) [0FCA9007]
Copy OK

Track 3

Filename E:\EAC\Enrico Rava - The Complete Remastered Recordings On Black Saint & Soul Note (2010) (2010) [5 CD Set] {CAM Jazz}\CD5 (Electric Five)\03 - The Fearless Five.wav

Pre-gap length 0:00:00.28

Peak level 94.7 %
Track quality 100.0 %
Test CRC 42586FF7
Copy CRC 42586FF7
Accurately ripped (confidence 2) [AE0D998B]
Copy OK

Track 4

Filename E:\EAC\Enrico Rava - The Complete Remastered Recordings On Black Saint & Soul Note (2010) (2010) [5 CD Set] {CAM Jazz}\CD5 (Electric Five)\04 - Lavori Casalinghi.wav

Pre-gap length 0:00:00.38

Peak level 94.6 %
Track quality 100.0 %
Test CRC 4B2AB571
Copy CRC 4B2AB571
Accurately ripped (confidence 2) [F0CA2493]
Copy OK

Track 5

Filename E:\EAC\Enrico Rava - The Complete Remastered Recordings On Black Saint & Soul Note (2010) (2010) [5 CD Set] {CAM Jazz}\CD5 (Electric Five)\05 - Milestones.wav

Pre-gap length 0:00:01.06

Peak level 94.1 %
Track quality 100.0 %
Test CRC EA85B511
Copy CRC EA85B511
Accurately ripped (confidence 2) [84B07303]
Copy OK

Track 6

Filename E:\EAC\Enrico Rava - The Complete Remastered Recordings On Black Saint & Soul Note (2010) (2010) [5 CD Set] {CAM Jazz}\CD5 (Electric Five)\06 - Overboard.wav

Pre-gap length 0:00:00.71

Peak level 93.8 %
Track quality 100.0 %
Test CRC 463CC0A5
Copy CRC 463CC0A5
Accurately ripped (confidence 2) [DECA6BED]
Copy OK

Track 7

Filename E:\EAC\Enrico Rava - The Complete Remastered Recordings On Black Saint & Soul Note (2010) (2010) [5 CD Set] {CAM Jazz}\CD5 (Electric Five)\07 - La Strada.wav

Pre-gap length 0:00:00.64

Peak level 90.6 %
Track quality 100.0 %
Test CRC 20616FBE
Copy CRC 20616FBE
Accurately ripped (confidence 2) [262293B6]
Copy OK

Track 8

Filename E:\EAC\Enrico Rava - The Complete Remastered Recordings On Black Saint & Soul Note (2010) (2010) [5 CD Set] {CAM Jazz}\CD5 (Electric Five)\08 - Fefe.wav

Pre-gap length 0:00:01.68

Peak level 94.0 %
Track quality 100.0 %
Test CRC DEB53D77
Copy CRC DEB53D77
Accurately ripped (confidence 2) [6CD82024]
Copy OK

Track 9

Filename E:\EAC\Enrico Rava - The Complete Remastered Recordings On Black Saint & Soul Note (2010) (2010) [5 CD Set] {CAM Jazz}\CD5 (Electric Five)\09 - Satie For Two.wav

Pre-gap length 0:00:00.44

Peak level 93.6 %
Track quality 100.0 %
Test CRC F8248201
Copy CRC F8248201
Accurately ripped (confidence 2) [A2477757]
Copy OK

Track 10

Filename E:\EAC\Enrico Rava - The Complete Remastered Recordings On Black Saint & Soul Note (2010) (2010) [5 CD Set] {CAM Jazz}\CD5 (Electric Five)\10 - Lady Orlando.wav

Pre-gap length 0:00:01.36

Peak level 93.3 %
Track quality 100.0 %
Test CRC B5674155
Copy CRC B5674155
Accurately ripped (confidence 2) [7E73E7AD]
Copy OK

Track 11

Filename E:\EAC\Enrico Rava - The Complete Remastered Recordings On Black Saint & Soul Note (2010) (2010) [5 CD Set] {CAM Jazz}\CD5 (Electric Five)\11 - Boplicity.wav

Pre-gap length 0:00:00.23

Peak level 94.0 %
Track quality 99.9 %
Test CRC 41F8510B
Copy CRC 41F8510B
Accurately ripped (confidence 2) [6682BFEE]
Copy OK


All tracks accurately ripped

No errors occurred

End of status report


Enrico Rava - The Complete Remastered Recordings on Black Saint & Soul Note (2010) {5CD Set CAM Jazz BXS1002 rec 1972-1994}

Enrico Rava - The Complete Remastered Recordings on Black Saint & Soul Note (2010) {5CD Set CAM Jazz BXS1002 rec 1972-1994}

Enrico Rava - The Complete Remastered Recordings on Black Saint & Soul Note (2010) {5CD Set CAM Jazz BXS1002 rec 1972-1994}



===