Subcategories
Tags
Language
Tags

Esperanza Fernández - Canta a Saramago: Mi Voz en tu Palabra (2013) {DiscMedi Blau DM 5069-02}

Posted By: ruskaval
Esperanza Fernández - Canta a Saramago: Mi Voz en tu Palabra (2013) {DiscMedi Blau DM 5069-02}

Esperanza Fernández - Canta a Saramago: Mi Voz en tu Palabra (2013) {DiscMedi Blau DM 5069-02}
EAC rip (secure mode) | FLAC (tracks)+CUE+LOG -> 261 Mb | MP3 @320 -> 99 Mb
Full Artwork @ 300 dpi (jpg) -> 47 Mb | 5% repair rar
© 2013 DiscMedi Blau | DM 5069-02
Flamenco / World / Folk / Spain

ESPERANZA FERNANDEZ is currently one of the leading voices of flamenco.
In its excellent faculty, and proven in countless concerts, we must add his extensive repertoire - from the dramatic to the most canasteros- siguiriya tangos and its versatility to lend their voice to very different musical aesthetics. On his new album he sings and makes music to poetry and prose literature Nobel, the Portuguese Jose Saramago. With the musical direction of pianist and composer David Dorantes and collaboration of renowned composers such as José Miguel Évora and Luis Pastor, besides their Dorantes. "It often happens that poetry is born to be read silently, perhaps pausing unmarked in the poem though required by the sensitivity of the reader compelled to close their eyes or look at infinity of a wall or landscape that opens under the brushstrokes of a painting. the poetry is whimsical, sometimes strengthens the soul, others are determined to measure the human dimension or consistency of dreams. some rarely, and this is the case, demand a voice put it in the air . Esperanza Fernandez picked up the challenge to write launched José Saramago and, with great artists, he recorded with flamenco voice deeper soft poems by Portuguese writer. the harmony was possible and now we know that Jose Saramago flamenco sounds in both puck and beat Esperanza Fernandez grows as a poet singing a happy album to hear and read poetry.. closing her eyes, staring into space from a wall or landscape that opens under the strokes of a painting Esperanza Fernández and José Saramago, an unexpected duet that banishes shadows and puts beauty in the land of all our inner earth."
Esperanza Fernández - Canta a Saramago: Mi Voz en tu Palabra (2013) {DiscMedi Blau DM 5069-02}


Musicians:

Cante: Esperanza Fernández
Piano: Dorantes
Guitarra: Miguel Ángel Cortés, Eduardo Trassierra, Salvador Gutiérrez, Ricardo Moreno
Percusión: Jorge Pérez, José Fernández
Contrabajo: Yelsi Heredia
Tres cubano: Raúl Rodríguez

Tracklist:

01 A ti regreso Mar (Garrotín)
02 Dimisión (Libre)
03 En esta esquina del tiempo (Tiempo atanguillao)
04 Dijeron que había sol (A Tempo de Soleá)
05 Alegría (Tangos)
06 Balada (Malagueñas y Abandolaos)
07 Ha de haber (Tiempo de Bulería)
08 Alzó una rosa
09 Madrigal (Lenta Bulería al golpe)
10 Intimidad (Bulería al golpe)

Exact Audio Copy V1.0 beta 3 from 29. August 2011

EAC extraction logfile from 13. November 2014, 15:08

Esperanza Fernandez / Canta a Saramago-Mi Voz En Tu Palabra

Used drive : HL-DT-STDVDRAM GSA-H10N Adapter: 0 ID: 1

Read mode : Secure
Utilize accurate stream : Yes
Defeat audio cache : Yes
Make use of C2 pointers : No

Read offset correction : 667
Overread into Lead-In and Lead-Out : No
Fill up missing offset samples with silence : Yes
Delete leading and trailing silent blocks : No
Null samples used in CRC calculations : Yes
Used interface : Native Win32 interface for Win NT & 2000
Gap handling : Appended to previous track

Used output format : User Defined Encoder
Selected bitrate : 896 kBit/s
Quality : High
Add ID3 tag : No
Command line compressor : C:\Program Files\FLAC\flac.exe
Additional command line options : -8 -V -T "ARTIST=%artist%" -T "TITLE=%title%" -T "ALBUM=%albumtitle%" -T "DATE=%year%" -T "TRACKNUMBER=%tracknr%" -T "TOTALTRACKS=%numtracks%" -T "GENRE=%genre%" -T "ALBUMARTIST=%albumartist%" -T "ALBUM ARTIST=%albumartist%" -T "COMMENT=EAC Secure Mode, Test & Copy, AccurateRip, FLAC -8" %source%


TOC of the extracted CD

Track | Start | Length | Start sector | End sector
––––––––––––––––––––––––––––-
1 | 0:00.00 | 4:31.40 | 0 | 20364
2 | 4:31.40 | 3:56.22 | 20365 | 38086
3 | 8:27.62 | 4:38.20 | 38087 | 58956
4 | 13:06.07 | 3:50.72 | 58957 | 76278
5 | 16:57.04 | 3:50.71 | 76279 | 93599
6 | 20:48.00 | 6:44.35 | 93600 | 123934
7 | 27:32.35 | 3:15.62 | 123935 | 138621
8 | 30:48.22 | 3:08.71 | 138622 | 152792
9 | 33:57.18 | 2:28.31 | 152793 | 163923
10 | 36:25.49 | 5:11.32 | 163924 | 187280


Track 1

Filename D:\EAC-Ripeos\01 - A Ti Regreso Mar (Garrotin).wav

Pre-gap length 0:00:02.00

Peak level 98.0 %
Extraction speed 1.1 X
Track quality 100.0 %
Test CRC D5C25D7C
Copy CRC D5C25D7C
Accurately ripped (confidence 1) [C56437F2] (AR v2)
Copy OK

Track 2

Filename D:\EAC-Ripeos\02 - Dimision (Libre).wav

Pre-gap length 0:00:02.00

Peak level 98.0 %
Extraction speed 1.2 X
Track quality 100.0 %
Test CRC 8C19E15B
Copy CRC 8C19E15B
Accurately ripped (confidence 1) [536183FF] (AR v2)
Copy OK

Track 3

Filename D:\EAC-Ripeos\03 - En Esta Esquina Del Tiempo (Tiempo alanquillao).wav

Pre-gap length 0:00:02.00

Peak level 94.1 %
Extraction speed 1.4 X
Track quality 100.0 %
Test CRC 1185AB92
Copy CRC 1185AB92
Accurately ripped (confidence 1) [27BC7E63] (AR v2)
Copy OK

Track 4

Filename D:\EAC-Ripeos\04 - Dijeron Que Habia Sol (A tempo de Solea).wav

Pre-gap length 0:00:02.00

Peak level 94.1 %
Extraction speed 1.4 X
Track quality 100.0 %
Test CRC 2ABC4715
Copy CRC 2ABC4715
Accurately ripped (confidence 1) [FECF1C68] (AR v2)
Copy OK

Track 5

Filename D:\EAC-Ripeos\05 - Alegria (Tangos).wav

Pre-gap length 0:00:02.00

Peak level 98.0 %
Extraction speed 1.5 X
Track quality 100.0 %
Test CRC C54FB798
Copy CRC C54FB798
Accurately ripped (confidence 1) [2183FEED] (AR v2)
Copy OK

Track 6

Filename D:\EAC-Ripeos\06 - Balada (Malaguenas y Abandolaos).wav

Pre-gap length 0:00:02.00

Peak level 98.0 %
Extraction speed 1.8 X
Track quality 100.0 %
Test CRC C9E73A05
Copy CRC C9E73A05
Accurately ripped (confidence 1) [BE712E8B] (AR v2)
Copy OK

Track 7

Filename D:\EAC-Ripeos\07 - Ha De Haber (Tiempo de Buleria).wav

Pre-gap length 0:00:02.00

Peak level 97.9 %
Extraction speed 1.7 X
Track quality 100.0 %
Test CRC 1D99160B
Copy CRC 1D99160B
Accurately ripped (confidence 1) [C043F8B1] (AR v2)
Copy OK

Track 8

Filename D:\EAC-Ripeos\08 - Alzo Una Rosa.wav

Pre-gap length 0:00:02.00

Peak level 98.0 %
Extraction speed 1.8 X
Track quality 100.0 %
Test CRC 377D501C
Copy CRC 377D501C
Accurately ripped (confidence 1) [E8F51C4E] (AR v2)
Copy OK

Track 9

Filename D:\EAC-Ripeos\09 - Madrigal (Lenta Buleria al golpe).wav

Pre-gap length 0:00:02.00

Peak level 94.1 %
Extraction speed 1.4 X
Track quality 99.9 %
Test CRC F8FD8CF2
Copy CRC F8FD8CF2
Accurately ripped (confidence 1) [009ED143] (AR v2)
Copy OK

Track 10

Filename D:\EAC-Ripeos\10 - Intimidad (Buleria al golpe).wav

Pre-gap length 0:00:02.00

Peak level 98.0 %
Extraction speed 1.9 X
Track quality 99.9 %
Test CRC 415E20AA
Copy CRC 415E20AA
Accurately ripped (confidence 1) [A4105F47] (AR v2)
Copy OK


All tracks accurately ripped

No errors occurred

End of status report

–– CUETools DB Plugin V2.1.3

[CTDB TOCID: SLE_v38w0OXb2DpxpwcozCav.FM-] disk not present in database, Submit result: SLE_v38w0OXb2DpxpwcozCav.FM- has been uploaded


==== Log checksum C19454F9E54BFF410CAB12703F7E6797DE5888A591B648A731EA0873BB59EC2C ====


Esperanza Fernández - Canta a Saramago: Mi Voz en tu Palabra (2013) {DiscMedi Blau DM 5069-02}

Esperanza Fernández - Canta a Saramago: Mi Voz en tu Palabra (2013) {DiscMedi Blau DM 5069-02}



===