Subcategories

Eyvind Kang - The Yelm Sessions (2007)

Posted By: delpotro
Eyvind Kang - The Yelm Sessions (2007)

Eyvind Kang - The Yelm Sessions (2007)
EAC Rip | FLAC (tracks+log+.cue) - 222 Mb | MP3 CBR 320 kbps - 100 Mb | Covers included | 00:42:57
World Fusion, Contemporary Classical, Jazz | Label: Tzadik Records

Another important piece of the elusive and hermetic Eyvind Kang puzzle. This newest studio project from one of the most consistently interesting young composer/performers working today is instantly Kang’s most adventurous, varied and ambitious recordings to date. Featuring many of his most illustrious musical associates as well as several orchestral ensembles from around the world, this new CD brings Kang’s exuberant gift for orchestration and lyricism together with a keen sense of the miraculous. Kang’s star is rightfully on the rise.

AllMusic Review by Stephen Eddins:
After listening to the first few tracks of Eyvind Kang's The Yelm Sessions, fans of his, especially of his previous album Athlantis, might be thinking, "Aw man, Eyvind's gone all soft on us." The pastel-colored title track, The Yelm Sessions, and the pop-sounding Latin dance Enter the Garden are lovely, but are a far cry from the dark power characteristic of his most exciting work. The fourth track, though, Fire in Wind, for orchestra, keyboards, guitar, electric bass, and percussion, inhabits the fearsome soundworld of Kang's more unsettling work, and most of the remaining pieces lead the listener through a number of dark, disturbing places. Locus Iste, Sulpicia Variation, and Hawk's Prairie are chillingly ominous; they conjure up images of immense power, and not a very nice power. Like much of Kang's best work, they evoke a distant past that's been drawn very spookily into the present moment, creating a sense of imminent danger. Several of the pieces, such as Mistress Mine, a Renaissance-sounding song based on Shakespeare, and Hiemarmene, call on the past with less overt threat, but still with some measure of mysterious twistedness. Epoché for Strings, the final track, is based on a work of J.S. Bach and is curiously inert, following the vitality of much of the rest of the album. The amazingly versatile Kang performs on most of the tracks, playing violin, viola, cello, guitars, keyboard, bass, sitar, recorder, and manipulating the electronics. The various orchestras, conductors, singers, and instrumentalists who perform on the album are too numerous to list here, but they all contribute to Kang's vision with passion and commitment. The many engineers involved deserve substantial credit for the album's atmospheric and evocative sound quality.
Tracklist:
1. The Clown's Song (02:35)
2. Enter the Garden (04:31)
3. The Yelm Sessions (02:47)
4. Fire In Wind (03:46)
5. Locus Iste (00:52)
6. Sulpicia Variation (02:34)
7. Hawks Prarie (06:59)
8. Hiemarmene (02:45)
9. Mistress Mine (02:11)
10. Asa Tru (07:41)
11. Epoché For Strings (06:11)

Exact Audio Copy V1.3 from 2. September 2016

EAC extraction logfile from 8. January 2020, 15:37

The Yelm Sessions / Eyvind Kang

Used drive : HL-DT-STDVDRAM GP65NB60 Adapter: 1 ID: 0

Read mode : Secure
Utilize accurate stream : Yes
Defeat audio cache : Yes
Make use of C2 pointers : No

Read offset correction : 6
Overread into Lead-In and Lead-Out : No
Fill up missing offset samples with silence : Yes
Delete leading and trailing silent blocks : No
Null samples used in CRC calculations : Yes
Used interface : Native Win32 interface for Win NT & 2000
Gap handling : Appended to previous track

Used output format : User Defined Encoder
Selected bitrate : 1024 kBit/s
Quality : High
Add ID3 tag : No
Command line compressor : C:\Program Files (x86)\Exact Audio Copy\Flac\flac.exe
Additional command line options : -8 -V -T "ARTIST=%artist%" -T "TITLE=%title%" -T "ALBUM=%albumtitle%" -T "DATE=%year%" -T "TRACKNUMBER=%tracknr%" -T "GENRE=%genre%" -T "PERFORMER=%albuminterpret%" -T "COMPOSER=%composer%" %haslyrics%–tag-from-file=LYRICS="%lyricsfile%"%haslyrics% -T "ALBUMARTIST=%albumartist%" -T "DISCNUMBER=%cdnumber%" -T "TOTALDISCS=%totalcds%" -T "TOTALTRACKS=%numtracks%" -T "COMMENT=%comment%" %source% -o %dest%


TOC of the extracted CD

Track | Start | Length | Start sector | End sector
––––––––––––––––––––––––––––-
1 | 0:00.00 | 2:35.66 | 0 | 11690
2 | 2:35.66 | 4:31.14 | 11691 | 32029
3 | 7:07.05 | 2:47.35 | 32030 | 44589
4 | 9:54.40 | 3:46.62 | 44590 | 61601
5 | 13:41.27 | 0:52.32 | 61602 | 65533
6 | 14:33.59 | 2:34.01 | 65534 | 77084
7 | 17:07.60 | 6:59.22 | 77085 | 108531
8 | 24:07.07 | 2:45.30 | 108532 | 120936
9 | 26:52.37 | 2:11.50 | 120937 | 130811
10 | 29:04.12 | 7:41.64 | 130812 | 165450
11 | 36:46.01 | 6:11.48 | 165451 | 193323


Track 1

Filename C:\Users\Setup\Music\EAC Rips\Eyvind Kang - The Yelm Sessions (2007) [CD FLAC] {TZ 8042}\01 - The Clown's Song.wav

Pre-gap length 0:00:02.00

Peak level 69.5 %
Extraction speed 2.3 X
Track quality 100.0 %
Test CRC CB74E42B
Copy CRC CB74E42B
Accurately ripped (confidence 6) [E09D4D56] (AR v1)
Copy OK

Track 2

Filename C:\Users\Setup\Music\EAC Rips\Eyvind Kang - The Yelm Sessions (2007) [CD FLAC] {TZ 8042}\02 - Enter the Garden.wav

Peak level 97.7 %
Extraction speed 2.8 X
Track quality 100.0 %
Test CRC E3CD273A
Copy CRC E3CD273A
Accurately ripped (confidence 6) [0C566B30] (AR v1)
Copy OK

Track 3

Filename C:\Users\Setup\Music\EAC Rips\Eyvind Kang - The Yelm Sessions (2007) [CD FLAC] {TZ 8042}\03 - The Yelm Sessions.wav

Peak level 95.4 %
Extraction speed 2.9 X
Track quality 100.0 %
Test CRC 8A1F4CBE
Copy CRC 8A1F4CBE
Accurately ripped (confidence 6) [95E50FD1] (AR v1)
Copy OK

Track 4

Filename C:\Users\Setup\Music\EAC Rips\Eyvind Kang - The Yelm Sessions (2007) [CD FLAC] {TZ 8042}\04 - Fire in Wind.wav

Peak level 97.7 %
Extraction speed 3.3 X
Track quality 100.0 %
Test CRC 55B07BD7
Copy CRC 55B07BD7
Accurately ripped (confidence 6) [F6C21489] (AR v1)
Copy OK

Track 5

Filename C:\Users\Setup\Music\EAC Rips\Eyvind Kang - The Yelm Sessions (2007) [CD FLAC] {TZ 8042}\05 - Locus Iste.wav

Peak level 87.4 %
Extraction speed 1.5 X
Track quality 99.7 %
Test CRC 4A071D7A
Copy CRC 4A071D7A
Accurately ripped (confidence 6) [D4FF51D7] (AR v1)
Copy OK

Track 6

Filename C:\Users\Setup\Music\EAC Rips\Eyvind Kang - The Yelm Sessions (2007) [CD FLAC] {TZ 8042}\06 - Sulpicia Variation.wav

Peak level 97.7 %
Extraction speed 2.6 X
Track quality 99.9 %
Test CRC 7D0B154A
Copy CRC 7D0B154A
Accurately ripped (confidence 6) [F7A74B72] (AR v1)
Copy OK

Track 7

Filename C:\Users\Setup\Music\EAC Rips\Eyvind Kang - The Yelm Sessions (2007) [CD FLAC] {TZ 8042}\07 - Hawks Prairie.wav

Peak level 97.7 %
Extraction speed 3.6 X
Track quality 99.9 %
Test CRC 6D072B2F
Copy CRC 6D072B2F
Accurately ripped (confidence 6) [01C7EE68] (AR v1)
Copy OK

Track 8

Filename C:\Users\Setup\Music\EAC Rips\Eyvind Kang - The Yelm Sessions (2007) [CD FLAC] {TZ 8042}\08 - Hiemarmene.wav

Peak level 95.4 %
Extraction speed 3.8 X
Track quality 100.0 %
Test CRC FC032314
Copy CRC FC032314
Accurately ripped (confidence 6) [246D7F1F] (AR v1)
Copy OK

Track 9

Filename C:\Users\Setup\Music\EAC Rips\Eyvind Kang - The Yelm Sessions (2007) [CD FLAC] {TZ 8042}\09 - Mistress Mine.wav

Peak level 97.3 %
Extraction speed 3.7 X
Track quality 100.0 %
Test CRC EDA95A6D
Copy CRC EDA95A6D
Accurately ripped (confidence 6) [247A06B8] (AR v1)
Copy OK

Track 10

Filename C:\Users\Setup\Music\EAC Rips\Eyvind Kang - The Yelm Sessions (2007) [CD FLAC] {TZ 8042}\10 - Asa Tru.wav

Peak level 95.6 %
Extraction speed 4.6 X
Track quality 100.0 %
Test CRC 010339B2
Copy CRC 010339B2
Accurately ripped (confidence 6) [3A59DF48] (AR v1)
Copy OK

Track 11

Filename C:\Users\Setup\Music\EAC Rips\Eyvind Kang - The Yelm Sessions (2007) [CD FLAC] {TZ 8042}\11 - Epoché for Strings.wav

Peak level 97.7 %
Extraction speed 4.8 X
Track quality 100.0 %
Test CRC 8849E587
Copy CRC 8849E587
Accurately ripped (confidence 6) [122F0D58] (AR v1)
Copy OK


All tracks accurately ripped

No errors occurred

End of status report

–– CUETools DB Plugin V2.1.6

[CTDB TOCID: vUbaed1iVHPSDi.JxvaQEJWMI7M-] found
Submit result: vUbaed1iVHPSDi.JxvaQEJWMI7M- has been confirmed
Track | CTDB Status
1 | (3/3) Accurately ripped
2 | (3/3) Accurately ripped
3 | (3/3) Accurately ripped
4 | (3/3) Accurately ripped
5 | (3/3) Accurately ripped
6 | (3/3) Accurately ripped
7 | (3/3) Accurately ripped
8 | (3/3) Accurately ripped
9 | (3/3) Accurately ripped
10 | (3/3) Accurately ripped
11 | (3/3) Accurately ripped


==== Log checksum 3713E1F8191677A3486BD6B3C230245705459457356EFB49CCE23CD864712384 ====

Thanks to the Original ripper !