Subcategories

Frank Sinatra - A Voice on Air (1935-1955) (2015)

Posted By: delpotro
Frank Sinatra - A Voice on Air (1935-1955) (2015)

Frank Sinatra - A Voice on Air (1935-1955) (2015)
EAC Rip | FLAC (tracks+log+.cue) | 05:18:02 | 995 Mb
Vocal Jazz, Traditional Pop | Label: Sony Music, Legacy Recordings

Filling in a gap in Frank Sinatra's history, Legacy's 2015 box A Voice on Air collects over 100 radio broadcasts recorded between 1935 and 1955. This is the first collection to chronicle this era – over 90 of its 100 tracks are previously unreleased – and it's pulled from a variety of sources, including the Sinatra estate's vaults, the Library of Congress, and the Paley Center for Media, each strand assisting in sterling re-creations of original broadcasts from Frank's bobbysocks days, World War II, and the nascent saloon singer of the '50s. Sinatra wound up singing some of these songs in the studio but not necessarily in these arrangements, a wrinkle that would be tantalizing enough but a good portion of A Voice on Air is devoted to songs he only sang on the air. Some of these are little more than novelties – the flashiest being "(Li'l Abner) Don't Marry That Gal," a song co-written by cartoonist Al Capp cashing in on his hit strip – and there is a fair share of duets, with both musicians (Nat King Cole, Slim Gaillard) and cultural figures (Gov. Jimmie Davis comes in to sing his "You Are My Sunshine"). Part of the appeal of this set is how the very fact that it's grounded in specific years accentuates transience: there are jokes that need footnotes, broadcasts from World War II, commercials for cigarettes, and other musty conventions that never quite seep onto Sinatra's studio recordings. Here, they're part of the main text. There might be a fair amount of standards peppered throughout the set but they're unwitting anchors for a set that's proudly not timeless. Instead, it showcases a Sinatra on the rise, a singer relying on his inventive phrasing and incandescent charisma, elements that are undeniable and vital even when heard in these appealing old-fashioned surroundings.
Tracklist:
Disc 1 (01:19:38)
1. The Hoboken Four – Vintage Radio Tuning In / Major Bowes' Show Opening / S-H-I-N-E (02:49)
2. Fred Allen & The Four Sharps – Fred Allen Introduces Frank Sinatra and the Four Sharps / Exactly Like You (02:41)
3. Frank Sinatra – Moon Love (live) (02:59)
4. Frank Sinatra – Fame and Fortune Show Opening: I'm Getting Sentimental Over You / Marie (03:42)
5. Frank Sinatra – Deep Night (02:37)
6. Frank Sinatra & Tommy Dorsey – Ruth Lowe Interview / I'll Never Smile Again / Fame and Fortune Show Opening: I'm Getting Sentimental Over You (05:31)
7. Frank Sinatra – Frenesi (03:35)
8. Frank Sinatra – East of the Sun (And West of the Moon) (03:45)
9. Frank Sinatra – Carnaval de Broadway Opening: I'm Getting Sentimental Over You / The One I Love (04:26)
10. Frank Sinatra – Say It / Carnaval de Broadway Closing: I'm Getting Sentimental Over You (05:00)
11. Frank Sinatra – She's Funny That Way (02:08)
12. Frank Sinatra – I Don't Believe in Rumors (02:45)
13. Frank Sinatra – Medley: I'll String Along With You / As Time Goes By (03:28)
14. Frank Sinatra – That Old Black Magic (02:27)
15. Frank Sinatra – I Heard You Cried Last Night (03:19)
16. Frank Sinatra – For Me and My Gal (02:37)
17. Frank Sinatra – Moonlight Mood (03:21)
18. Frank Sinatra – There Are Such Things (03:10)
19. Frank Sinatra – Broadway Bandbox Show Opening / All or Nothing at All (orchestral) (04:28)
20. Frank Sinatra – My Heart Stood Still (03:44)
21. Frank Sinatra – The Right Kind of Love (01:51)
22. Frank Sinatra – Close to You (orchestral) (02:46)
23. Frank Sinatra – As Time Goes By (rehearsal) (03:20)
24. Frank Sinatra & Milton Berle – It's De-Lovely (02:00)
25. Freddy Cole & Frank Sinatra – Nature's Remedy Commercial (01:09)

Disc 2 (01:18:10)
1. Frank Sinatra – Songs by Sinatra Show Opening: This Love of Mine / Paper Doll (01:38)
2. Frank Sinatra – Kiss Me Again (03:43)
3. Frank Sinatra – If Loveliness Were Music (03:50)
4. Frank Sinatra – Lover Come Back to Me / Songs by Sinatra Show Closing: Put Your Dreams Away (05:28)
5. Frank Sinatra – My Heart Tells Me (03:51)
6. Frank Sinatra – My Ideal (01:27)
7. Frank Sinatra – News Bulletin / Gen. Dwight D. Eisenhower Briefing / President Franklin D. Roosevelt Address of D-Day (Excerpts) / Music for Millions Introduction & Buy a Piece of the Peace (05:42)
8. Frank Sinatra – Frank Sinatra D-Day Announcement / The Frank Sinatra Show Opening: This Love of Mine / Coming in on a Wing and a Prayer (03:40)
9. Frank Sinatra – Frank Sinatra Commentary on Special D-Day Broadcast / America the Beautiful (02:42)
10. Frank Sinatra – Frank Sinatra Dedication to Canadian Soldiers at Rockcliffe Hospital, Ontario / I'll Be Seeing You (rehearsal) (03:15)
11. Frank Sinatra – Frank Sinatra Dedication to Soldiers at Halloran Hospital, Staten Island, NY / The Way You Look Tonight (04:19)
12. Frank Sinatra – It Had to Be You (02:30)
13. Frank Sinatra & Eileen Barton – Don't Fence Me In (02:33)
14. Frank Sinatra – Lonely Love (02:54)
15. Frank Sinatra – Long Ago and Far Away (03:24)
16. Frank Sinatra, June Hutton & The Pied Pipers – Songs by Sinatra Opening: Night and Day / Aren't You Glad You're You (02:18)
17. Frank Sinatra, June Hutton & The Pied Pipers – It Might as Well Be Spring (02:32)
18. Frank Sinatra, June Hutton & The Pied Pipers – Birthday Greetings for Frank Sinatra's 30th Birthday / Frank Sinatra Introduces June Hutton / Button Up Your Overcoat (02:21)
19. Frank Sinatra, June Hutton & The Pied Pipers – Day by Day (03:06)
20. Frank Sinatra, June Hutton & The Pied Pipers – Lily Belle (02:35)
21. Frank Sinatra, June Hutton & The Pied Pipers – Ol' Man River / Songs by Sinatra Show Closing: Put Your Dreams Away (05:29)
22. Frank Sinatra, Bob Hope & Bing Crosby – Comedy Sketch: The Battle of the Century (04:26)
23. Frank Sinatra & The Pied Pipers – Songs by Sinatra Old Gold "Yankee Doodle Dandy" Commercial (01:44)
24. Frank Sinatra – The Frank Sinatra Show Vimms Vitamin Commercial (01:21)
25. Frank Sinatra – Songs by Sinatra Max Factor Commercial (01:22)

Disc 3 (01:19:40)
1. Frank Sinatra – Songs by Sinatra Show Opening: Night and Day / I'm an Old Cowhand / Tumblin' Tumbleweeds (04:05)
2. Frank Sinatra – Along the Navajo Trail (02:44)
3. Frank Sinatra – Frank Sinatra Introduction to "Home on the Range" / Home on the Range (03:59)
4. Frank Sinatra – Frank Sinatra Introduces Louisiana Gov. Jimmie Davis / You Are My Sunshine (02:39)
5. Frank Sinatra – Frank Sinatra Introduces Nat "King" Cole / Exactly Like You (03:13)
6. Frank Sinatra & Slim Gaillard – Frank Sinatra Introduces Slim Gaillard / Cement Mixer (Put-Ti Put-Ti) (05:44)
7. Frank Sinatra & Peggy Lee – You Brought a New Kind of Love to Me (01:46)
8. Frank Sinatra & Benny Goodman – I Only Have Eyes for You (02:36)
9. Frank Sinatra – You Must Have Been a Beautiful Baby (01:29)
10. Frank Sinatra & The Pied Pipers – Don't Forget Tonight Tomorrow (rehearsal) (01:52)
11. Frank Sinatra – Sweet Lorraine (orchestral version) (01:36)
12. Frank Sinatra – Personality (01:14)
13. Frank Sinatra – Who's Sorry Now? (01:20)
14. Frank Sinatra – Don't Marry That Girl (01:54)
15. Frank Sinatra – A Salute to Al Jolson Show Opening & George Jessel Introduces Frank Sinatra / Rock-A-Bye Your Baby (04:19)
16. Frank Sinatra – Zip-A-Dee-Doo-Dah (01:29)
17. Frank Sinatra – These Foolish Things (Parody) (rehearsal) (02:14)
18. Frank Sinatra – (I Love You) For Sentimental Reasons (03:36)
19. Frank Sinatra, Jimmy Durante & Garry Moore – Anything You Can Do (I Can Do Better) (02:29)
20. Frank Sinatra & Irving Berlin – Frank Sinatra Introduces Irving Berlin / Alexander's Ragtime Band (03:56)
21. Frank Sinatra & Irving Berlin – Help Me to Help My Neighbor / Irving Berlin Commentary on Frank Sinatra Winning the Jefferson Award (03:30)
22. Frank Sinatra & Johnny Mercer – Frank Sinatra Introduces Johnny Mercer / AC-Cent-Tchu-Ate the Positive (03:54)
23. Frank Sinatra – Your Hit Parade Show Opening: Lucky Day / (It's Going to Be a) Great Day (01:39)
24. Frank Sinatra – I Wish I Didn't Love You So (02:05)
25. Frank Sinatra & Doris Day – Take Me Out to the Ball Game (02:44)
26. Frank Sinatra & Doris Day – There's No Business Like Show Business (02:27)
27. Frank Sinatra – Serenade of the Bells (02:11)
28. Frank Sinatra – Frank Sinatra Receives the Modern Screen Ed Sullivan Award Nad the 1946 "Radio Father of the Year Award" / Come Rain or Come Shine (05:34)
29. Frank Sinatra – Songs by Sinatra Show Closing: Put Your Dreams Away (01:22)

Disc 4 (01:19:38)
1. Frank Sinatra – Haunted Heart (02:52)
2. Frank Sinatra – Wrap Your Troubles in Dreams (02:45)
3. Frank Sinatra – I'm Looking Over a Four Leaf Clover (02:19)
4. Frank Sinatra – Nature Boy (orchestral version) (02:56)
5. Frank Sinatra – Little White Lies (02:22)
6. Frank Sinatra – On a Slow Boat to China (02:22)
7. Frank Sinatra – Light Up Time Show Opening: Lucky Day / It All Depends on You (02:52)
8. Frank Sinatra & Dorothy Kirsten – Some Enchanted Evening (04:25)
9. Frank Sinatra & Dorothy Kirsten – Full Moon and Empty Arms (02:55)
10. Frank Sinatra – It's Only a Paper Moon (01:39)
11. Frank Sinatra – Mad About You (02:13)
12. Frank Sinatra & Dorothy Kirsten – A Fine Romance (03:08)
13. Frank Sinatra & Dean Martin – Dean Martin Introduces Frank Sinatra / I've Got a Crush on You (03:18)
14. Frank Sinatra – Why Try to Change Me Now (02:59)
15. Frank Sinatra – Birth of the Blues (03:45)
16. Frank Sinatra – To Be Perfectly Frank Show Opening: Walking and Whistlin' the Blues / I've Got the World on a String (03:02)
17. Frank Sinatra – I've Got My Love to Keep Me Warm (01:42)
18. Frank Sinatra – A Hundred Years From Today (02:21)
19. Frank Sinatra – This Can't Be Love (01:31)
20. Frank Sinatra – Them There Eyes / To Be Perfectly Frank Closing: Walkin' and Whistlin' the Blues (03:10)
21. Frank Sinatra – The Frank Sinatra Show Opening: Young at Heart / Tenderly (02:55)
22. Frank Sinatra – Hello, Young Lovers (03:35)
23. Frank Sinatra – It's Alright With Me (03:05)
24. Frank Sinatra – Our Love Is Here to Stay / The Frank Sinatra Show Closing: Put Your Dreams Away (05:23)
25. Frank Sinatra & Gary Crosby – Gary Crosby Introduces Frank Sinatra / Sam's Song (The Happy Tune) (04:19)
26. Frank Sinatra – Half as Lovely (Twice as True) (03:26)
27. Frank Sinatra – Light Up Time / Lucky Strike "LSMFT" Commercial (01:09)
28. Frank Sinatra – Frank Sinatra Sings Bobbi Home Permanment / White Rain Commercials (01:10)

Exact Audio Copy V1.1 from 23. June 2015

EAC extraction logfile from 25. December 2015, 18:58

Frank Sinatra / A Voice on Air (1935-1955)

Used drive : TSSTcorpDVD+-RW TS-H653G Adapter: 1 ID: 0

Read mode : Secure
Utilize accurate stream : Yes
Defeat audio cache : Yes
Make use of C2 pointers : No

Read offset correction : 6
Overread into Lead-In and Lead-Out : No
Fill up missing offset samples with silence : Yes
Delete leading and trailing silent blocks : No
Null samples used in CRC calculations : Yes
Used interface : Native Win32 interface for Win NT & 2000
Gap handling : Appended to previous track

Used output format : User Defined Encoder
Selected bitrate : 1024 kBit/s
Quality : High
Add ID3 tag : No
Command line compressor : C:\Program Files (x86)\Exact Audio Copy\Flac\flac.exe
Additional command line options : -8 -V -T "ARTIST=%artist%" -T "TITLE=%title%" -T "ALBUM=%albumtitle%" -T "DATE=%year%" -T "TRACKNUMBER=%tracknr%" -T "GENRE=%genre%" -T "PERFORMER=%albuminterpret%" -T "COMPOSER=%composer%" %haslyrics%–tag-from-file=LYRICS="%lyricsfile%"%haslyrics% -T "ALBUMARTIST=%albumartist%" -T "DISCNUMBER=%cdnumber%" -T "TOTALDISCS=%totalcds%" -T "TOTALTRACKS=%numtracks%" -T "COMMENT=%comment%" %source% -o %dest%


TOC of the extracted CD

Track | Start | Length | Start sector | End sector
––––––––––––––––––––––––––––-
1 | 0:00.00 | 2:49.59 | 0 | 12733
2 | 2:49.59 | 2:41.46 | 12734 | 24854
3 | 5:31.30 | 2:59.40 | 24855 | 38319
4 | 8:30.70 | 3:42.28 | 38320 | 54997
5 | 12:13.23 | 2:37.15 | 54998 | 66787
6 | 14:50.38 | 5:31.67 | 66788 | 91679
7 | 20:22.30 | 3:35.66 | 91680 | 107870
8 | 23:58.21 | 3:45.07 | 107871 | 124752
9 | 27:43.28 | 4:26.45 | 124753 | 144747
10 | 32:09.73 | 5:00.59 | 144748 | 167306
11 | 37:10.57 | 2:08.29 | 167307 | 176935
12 | 39:19.11 | 2:45.69 | 176936 | 189379
13 | 42:05.05 | 3:28.30 | 189380 | 205009
14 | 45:33.35 | 2:27.61 | 205010 | 216095
15 | 48:01.21 | 3:19.43 | 216096 | 231063
16 | 51:20.64 | 2:37.04 | 231064 | 242842
17 | 53:57.68 | 3:21.07 | 242843 | 257924
18 | 57:19.00 | 3:10.68 | 257925 | 272242
19 | 60:29.68 | 4:28.49 | 272243 | 292391
20 | 64:58.42 | 3:44.33 | 292392 | 309224
21 | 68:43.00 | 1:51.04 | 309225 | 317553
22 | 70:34.04 | 2:46.65 | 317554 | 330068
23 | 73:20.69 | 3:20.18 | 330069 | 345086
24 | 76:41.12 | 2:00.42 | 345087 | 354128
25 | 78:41.54 | 1:09.58 | 354129 | 359361


Track 1

Filename C:\rips\01 - The Hoboken Four - Vintage Radio Tuning In - Major Bowes' Show Opening - S-H-I-N-E.wav

Pre-gap length 0:00:02.00

Peak level 68.5 %
Extraction speed 4.5 X
Track quality 100.0 %
Test CRC B1930058
Copy CRC B1930058
Accurately ripped (confidence 1) [4B3000C9] (AR v2)
Copy OK

Track 2

Filename C:\rips\02 - Fred Allen & The Four Sharps - Fred Allen Introduces Frank Sinatra and the Four Sharps - Exactly Like You.wav

Pre-gap length 0:00:00.98

Peak level 83.0 %
Extraction speed 4.7 X
Track quality 100.0 %
Test CRC 975A2B3D
Copy CRC 975A2B3D
Accurately ripped (confidence 1) [1609F3D6] (AR v2)
Copy OK

Track 3

Filename C:\rips\03 - Frank Sinatra - Moon Love (live).wav

Pre-gap length 0:00:00.98

Peak level 68.9 %
Extraction speed 5.1 X
Track quality 100.0 %
Test CRC 9A91DD9F
Copy CRC 9A91DD9F
Accurately ripped (confidence 1) [BD5F2C1D] (AR v2)
Copy OK

Track 4

Filename C:\rips\04 - Frank Sinatra - Fame and Fortune Show Opening; I'm Getting Sentimental Over You - Marie.wav

Pre-gap length 0:00:00.97

Peak level 85.9 %
Extraction speed 5.6 X
Track quality 100.0 %
Test CRC 3B0D76E7
Copy CRC 3B0D76E7
Accurately ripped (confidence 1) [64C8C1EF] (AR v2)
Copy OK

Track 5

Filename C:\rips\05 - Frank Sinatra - Deep Night.wav

Pre-gap length 0:00:00.98

Peak level 79.6 %
Extraction speed 5.5 X
Track quality 100.0 %
Test CRC DCFE1967
Copy CRC DCFE1967
Accurately ripped (confidence 1) [F0BE9F06] (AR v2)
Copy OK

Track 6

Filename C:\rips\06 - Frank Sinatra & Tommy Dorsey - Ruth Lowe Interview - I'll Never Smile Again - Fame and Fortune Show Opening; I'm Getting Sentimental Over You.wav

Pre-gap length 0:00:00.98

Peak level 80.8 %
Extraction speed 6.5 X
Track quality 100.0 %
Test CRC 5316F162
Copy CRC 5316F162
Accurately ripped (confidence 1) [C8A05DFA] (AR v2)
Copy OK

Track 7

Filename C:\rips\07 - Frank Sinatra - Frenesi.wav

Pre-gap length 0:00:00.98

Peak level 97.4 %
Extraction speed 6.5 X
Track quality 100.0 %
Test CRC 5B98D404
Copy CRC 5B98D404
Accurately ripped (confidence 1) [664A1D26] (AR v2)
Copy OK

Track 8

Filename C:\rips\08 - Frank Sinatra - East of the Sun (And West of the Moon).wav

Pre-gap length 0:00:00.97

Peak level 85.8 %
Extraction speed 5.4 X
Track quality 99.9 %
Test CRC EB69F00D
Copy CRC EB69F00D
Accurately ripped (confidence 1) [F8CEA287] (AR v2)
Copy OK

Track 9

Filename C:\rips\09 - Frank Sinatra - Carnaval de Broadway Opening; I'm Getting Sentimental Over You - The One I Love.wav

Pre-gap length 0:00:00.98

Peak level 92.4 %
Extraction speed 5.8 X
Track quality 99.9 %
Test CRC 3E76D8F1
Copy CRC 3E76D8F1
Accurately ripped (confidence 1) [FB4884E5] (AR v2)
Copy OK

Track 10

Filename C:\rips\10 - Frank Sinatra - Say It - Carnaval de Broadway Closing; I'm Getting Sentimental Over You.wav

Pre-gap length 0:00:00.98

Peak level 89.2 %
Extraction speed 6.3 X
Track quality 99.9 %
Test CRC 54B26EB4
Copy CRC 54B26EB4
Accurately ripped (confidence 1) [664EED69] (AR v2)
Copy OK

Track 11

Filename C:\rips\11 - Frank Sinatra - She's Funny That Way.wav

Pre-gap length 0:00:00.97

Peak level 60.1 %
Extraction speed 6.8 X
Track quality 100.0 %
Test CRC 3256E38C
Copy CRC 3256E38C
Accurately ripped (confidence 1) [A56C8642] (AR v2)
Copy OK

Track 12

Filename C:\rips\12 - Frank Sinatra - I Don't Believe in Rumors.wav

Pre-gap length 0:00:00.98

Peak level 83.2 %
Extraction speed 7.4 X
Track quality 100.0 %
Test CRC BB97ABAE
Copy CRC BB97ABAE
Accurately ripped (confidence 1) [C0A2225A] (AR v2)
Copy OK

Track 13

Filename C:\rips\13 - Frank Sinatra - Medley; I'll String Along With You - As Time Goes By.wav

Pre-gap length 0:00:00.98

Peak level 86.4 %
Extraction speed 7.8 X
Track quality 100.0 %
Test CRC BB3C4889
Copy CRC BB3C4889
Accurately ripped (confidence 1) [7AE35CBF] (AR v2)
Copy OK

Track 14

Filename C:\rips\14 - Frank Sinatra - That Old Black Magic.wav

Pre-gap length 0:00:00.98

Peak level 91.2 %
Extraction speed 7.5 X
Track quality 100.0 %
Test CRC 09BBD330
Copy CRC 09BBD330
Accurately ripped (confidence 1) [A6860ECD] (AR v2)
Copy OK

Track 15

Filename C:\rips\15 - Frank Sinatra - I Heard You Cried Last Night.wav

Pre-gap length 0:00:00.98

Peak level 85.8 %
Extraction speed 8.1 X
Track quality 100.0 %
Test CRC DF706ECA
Copy CRC DF706ECA
Accurately ripped (confidence 1) [5CD40211] (AR v2)
Copy OK

Track 16

Filename C:\rips\16 - Frank Sinatra - For Me and My Gal.wav

Pre-gap length 0:00:00.97

Peak level 74.3 %
Extraction speed 5.7 X
Track quality 99.9 %
Test CRC E64FCA5E
Copy CRC E64FCA5E
Accurately ripped (confidence 1) [AD912BB1] (AR v2)
Copy OK

Track 17

Filename C:\rips\17 - Frank Sinatra - Moonlight Mood.wav

Pre-gap length 0:00:00.98

Peak level 88.3 %
Extraction speed 8.4 X
Track quality 100.0 %
Test CRC 808CE5C9
Copy CRC 808CE5C9
Accurately ripped (confidence 1) [F5B3BE32] (AR v2)
Copy OK

Track 18

Filename C:\rips\18 - Frank Sinatra - There Are Such Things.wav

Pre-gap length 0:00:00.98

Peak level 89.5 %
Extraction speed 6.4 X
Track quality 99.9 %
Test CRC D9A58DFC
Copy CRC D9A58DFC
Accurately ripped (confidence 1) [F775FB05] (AR v2)
Copy OK

Track 19

Filename C:\rips\19 - Frank Sinatra - Broadway Bandbox Show Opening - All or Nothing at All (orchestral).wav

Pre-gap length 0:00:00.98

Peak level 89.5 %
Extraction speed 9.1 X
Track quality 100.0 %
Test CRC 2BAC40A3
Copy CRC 2BAC40A3
Accurately ripped (confidence 1) [F70FB17C] (AR v2)
Copy OK

Track 20

Filename C:\rips\20 - Frank Sinatra - My Heart Stood Still.wav

Pre-gap length 0:00:00.98

Peak level 77.6 %
Extraction speed 7.0 X
Track quality 99.9 %
Test CRC 69BAD388
Copy CRC 69BAD388
Accurately ripped (confidence 1) [78A5C686] (AR v2)
Copy OK

Track 21

Filename C:\rips\21 - Frank Sinatra - The Right Kind of Love.wav

Pre-gap length 0:00:00.98

Peak level 69.8 %
Extraction speed 8.0 X
Track quality 100.0 %
Test CRC F1B66CD4
Copy CRC F1B66CD4
Accurately ripped (confidence 1) [6A1D3301] (AR v2)
Copy OK

Track 22

Filename C:\rips\22 - Frank Sinatra - Close to You (orchestral).wav

Pre-gap length 0:00:00.98

Peak level 84.3 %
Extraction speed 8.7 X
Track quality 100.0 %
Test CRC 50381EE0
Copy CRC 50381EE0
Accurately ripped (confidence 1) [AD2B7ED9] (AR v2)
Copy OK

Track 23

Filename C:\rips\23 - Frank Sinatra - As Time Goes By (rehearsal).wav

Pre-gap length 0:00:01.01

Peak level 79.6 %
Extraction speed 9.3 X
Track quality 100.0 %
Test CRC 05860F3B
Copy CRC 05860F3B
Accurately ripped (confidence 1) [87EACAC8] (AR v2)
Copy OK

Track 24

Filename C:\rips\24 - Frank Sinatra & Milton Berle - It's De-Lovely.wav

Pre-gap length 0:00:00.69

Peak level 89.8 %
Extraction speed 8.4 X
Track quality 100.0 %
Test CRC 848998AB
Copy CRC 848998AB
Accurately ripped (confidence 1) [12FAE8C9] (AR v2)
Copy OK

Track 25

Filename C:\rips\25 - Freddy Cole & Frank Sinatra - Nature's Remedy Commercial.wav

Pre-gap length 0:00:00.97

Peak level 54.9 %
Extraction speed 7.2 X
Track quality 100.0 %
Test CRC 5E60D5CF
Copy CRC 5E60D5CF
Accurately ripped (confidence 1) [DACC7C20] (AR v2)
Copy OK


All tracks accurately ripped

No errors occurred

End of status report

–– CUETools DB Plugin V2.1.6

[CTDB TOCID: K3qKUEDb3AbGSYHaHAA251sZl2o-] found
Submit result: K3qKUEDb3AbGSYHaHAA251sZl2o- has been confirmed
Track | CTDB Status
1 | (10/10) Accurately ripped
2 | (10/10) Accurately ripped
3 | (10/10) Accurately ripped
4 | (10/10) Accurately ripped
5 | (10/10) Accurately ripped
6 | (10/10) Accurately ripped
7 | (10/10) Accurately ripped
8 | (10/10) Accurately ripped
9 | (10/10) Accurately ripped
10 | (10/10) Accurately ripped
11 | (10/10) Accurately ripped
12 | (10/10) Accurately ripped
13 | (10/10) Accurately ripped
14 | (10/10) Accurately ripped
15 | (10/10) Accurately ripped
16 | (10/10) Accurately ripped
17 | (10/10) Accurately ripped
18 | (10/10) Accurately ripped
19 | (10/10) Accurately ripped
20 | (10/10) Accurately ripped
21 | (10/10) Accurately ripped
22 | (10/10) Accurately ripped
23 | (10/10) Accurately ripped
24 | (10/10) Accurately ripped
25 | (10/10) Accurately ripped


==== Log checksum 2C3865638BBFFC6059C8146D97B7C7F1A6A38244A08A6A69015199A724C11F26 ====

Exact Audio Copy V1.1 from 23. June 2015

EAC extraction logfile from 25. December 2015, 18:23

Frank Sinatra / A Voice on Air (1935-1955)

Used drive : TSSTcorpDVD+-RW TS-H653G Adapter: 1 ID: 0

Read mode : Secure
Utilize accurate stream : Yes
Defeat audio cache : Yes
Make use of C2 pointers : No

Read offset correction : 6
Overread into Lead-In and Lead-Out : No
Fill up missing offset samples with silence : Yes
Delete leading and trailing silent blocks : No
Null samples used in CRC calculations : Yes
Used interface : Native Win32 interface for Win NT & 2000
Gap handling : Appended to previous track

Used output format : User Defined Encoder
Selected bitrate : 1024 kBit/s
Quality : High
Add ID3 tag : No
Command line compressor : C:\Program Files (x86)\Exact Audio Copy\Flac\flac.exe
Additional command line options : -8 -V -T "ARTIST=%artist%" -T "TITLE=%title%" -T "ALBUM=%albumtitle%" -T "DATE=%year%" -T "TRACKNUMBER=%tracknr%" -T "GENRE=%genre%" -T "PERFORMER=%albuminterpret%" -T "COMPOSER=%composer%" %haslyrics%–tag-from-file=LYRICS="%lyricsfile%"%haslyrics% -T "ALBUMARTIST=%albumartist%" -T "DISCNUMBER=%cdnumber%" -T "TOTALDISCS=%totalcds%" -T "TOTALTRACKS=%numtracks%" -T "COMMENT=%comment%" %source% -o %dest%


TOC of the extracted CD

Track | Start | Length | Start sector | End sector
––––––––––––––––––––––––––––-
1 | 0:00.00 | 1:38.30 | 0 | 7379
2 | 1:38.30 | 3:43.56 | 7380 | 24160
3 | 5:22.11 | 3:50.23 | 24161 | 41433
4 | 9:12.34 | 5:28.02 | 41434 | 66035
5 | 14:40.36 | 3:51.68 | 66036 | 83428
6 | 18:32.29 | 1:27.24 | 83429 | 89977
7 | 19:59.53 | 5:42.52 | 89978 | 115679
8 | 25:42.30 | 3:40.61 | 115680 | 132240
9 | 29:23.16 | 2:42.55 | 132241 | 144445
10 | 32:05.71 | 3:15.36 | 144446 | 159106
11 | 35:21.32 | 4:19.08 | 159107 | 178539
12 | 39:40.40 | 2:30.02 | 178540 | 189791
13 | 42:10.42 | 2:33.47 | 189792 | 201313
14 | 44:44.14 | 2:54.32 | 201314 | 214395
15 | 47:38.46 | 3:24.42 | 214396 | 229737
16 | 51:03.13 | 2:18.60 | 229738 | 240147
17 | 53:21.73 | 2:32.44 | 240148 | 251591
18 | 55:54.42 | 2:21.18 | 251592 | 262184
19 | 58:15.60 | 3:06.66 | 262185 | 276200
20 | 61:22.51 | 2:35.20 | 276201 | 287845
21 | 63:57.71 | 5:29.37 | 287846 | 312557
22 | 69:27.33 | 4:26.60 | 312558 | 332567
23 | 73:54.18 | 1:44.52 | 332568 | 340419
24 | 75:38.70 | 1:21.57 | 340420 | 346551
25 | 77:00.52 | 1:22.23 | 346552 | 352724


Track 1

Filename C:\rips\01 - Frank Sinatra - Songs by Sinatra Show Opening; This Love of Mine - Paper Doll.wav

Pre-gap length 0:00:02.00

Peak level 79.5 %
Extraction speed 3.9 X
Track quality 100.0 %
Test CRC 93F9E8AA
Copy CRC 93F9E8AA
Track not present in AccurateRip database
Copy OK

Track 2

Filename C:\rips\02 - Frank Sinatra - Kiss Me Again.wav

Pre-gap length 0:00:02.00

Peak level 70.1 %
Extraction speed 4.0 X
Track quality 99.9 %
Test CRC CBFF626A
Copy CRC CBFF626A
Track not present in AccurateRip database
Copy OK

Track 3

Filename C:\rips\03 - Frank Sinatra - If Loveliness Were Music.wav

Pre-gap length 0:00:02.00

Peak level 61.0 %
Extraction speed 5.4 X
Track quality 100.0 %
Test CRC 38C8D903
Copy CRC 38C8D903
Track not present in AccurateRip database
Copy OK

Track 4

Filename C:\rips\04 - Frank Sinatra - Lover Come Back to Me - Songs by Sinatra Show Closing; Put Your Dreams Away.wav

Pre-gap length 0:00:02.01

Peak level 96.8 %
Extraction speed 5.1 X
Track quality 99.9 %
Test CRC 7E037B36
Copy CRC 7E037B36
Track not present in AccurateRip database
Copy OK

Track 5

Filename C:\rips\05 - Frank Sinatra - My Heart Tells Me.wav

Pre-gap length 0:00:02.00

Peak level 73.7 %
Extraction speed 6.2 X
Track quality 100.0 %
Test CRC A36BFF97
Copy CRC A36BFF97
Track not present in AccurateRip database
Copy OK

Track 6

Filename C:\rips\06 - Frank Sinatra - My Ideal.wav

Pre-gap length 0:00:02.00

Peak level 56.3 %
Extraction speed 3.3 X
Track quality 99.8 %
Test CRC 0923A417
Copy CRC 0923A417
Track not present in AccurateRip database
Copy OK

Track 7

Filename C:\rips\07 - Frank Sinatra - News Bulletin - Gen. Dwight D. Eisenhower Briefing - President Franklin D. Roosevelt Address of D-Day (Excerpts) - Music for Millions Introduction & Buy a Piece of the Peace.wav

Pre-gap length 0:00:02.00

Peak level 90.1 %
Extraction speed 7.0 X
Track quality 100.0 %
Test CRC CB95ED42
Copy CRC CB95ED42
Track not present in AccurateRip database
Copy OK

Track 8

Filename C:\rips\08 - Frank Sinatra - Frank Sinatra D-Day Announcement - The Frank Sinatra Show Opening; This Love of Mine - Coming in on a Wing and a Prayer.wav

Pre-gap length 0:00:02.00

Peak level 73.5 %
Extraction speed 7.0 X
Track quality 100.0 %
Test CRC 9865BCB7
Copy CRC 9865BCB7
Track not present in AccurateRip database
Copy OK

Track 9

Filename C:\rips\09 - Frank Sinatra - Frank Sinatra Commentary on Special D-Day Broadcast - America the Beautiful.wav

Pre-gap length 0:00:02.00

Peak level 73.7 %
Extraction speed 6.8 X
Track quality 100.0 %
Test CRC 48495925
Copy CRC 48495925
Track not present in AccurateRip database
Copy OK

Track 10

Filename C:\rips\10 - Frank Sinatra - Frank Sinatra Dedication to Canadian Soliders at Rockcliffe Hospital, Ontario - I'll Be Seeing You (rehearsal).wav

Pre-gap length 0:00:02.00

Peak level 95.5 %
Extraction speed 7.2 X
Track quality 100.0 %
Test CRC DF7D8387
Copy CRC DF7D8387
Track not present in AccurateRip database
Copy OK

Track 11

Filename C:\rips\11 - Frank Sinatra - Frank Sinatra Dedication to Soldiers at Halloran Hospital, Staten Island, NY - The Way You Look Tonight.wav

Pre-gap length 0:00:02.00

Peak level 83.0 %
Extraction speed 7.8 X
Track quality 100.0 %
Test CRC B128E78F
Copy CRC B128E78F
Track not present in AccurateRip database
Copy OK

Track 12

Filename C:\rips\12 - Frank Sinatra - It Had to Be You.wav

Pre-gap length 0:00:02.00

Peak level 93.7 %
Extraction speed 5.2 X
Track quality 99.9 %
Test CRC 8DBBDB5A
Copy CRC 8DBBDB5A
Track not present in AccurateRip database
Copy OK

Track 13

Filename C:\rips\13 - Frank Sinatra & Eileen Barton - Don't Fence Me In.wav

Pre-gap length 0:00:02.00

Peak level 76.4 %
Extraction speed 7.3 X
Track quality 100.0 %
Test CRC 29A03C19
Copy CRC 29A03C19
Track not present in AccurateRip database
Copy OK

Track 14

Filename C:\rips\14 - Frank Sinatra - Lonely Love.wav

Pre-gap length 0:00:02.00

Peak level 38.3 %
Extraction speed 7.8 X
Track quality 100.0 %
Test CRC 8D367FF4
Copy CRC 8D367FF4
Track not present in AccurateRip database
Copy OK

Track 15

Filename C:\rips\15 - Frank Sinatra - Long Ago and Far Away.wav

Pre-gap length 0:00:02.00

Peak level 85.8 %
Extraction speed 8.2 X
Track quality 100.0 %
Test CRC 5ABDC234
Copy CRC 5ABDC234
Track not present in AccurateRip database
Copy OK

Track 16

Filename C:\rips\16 - Frank Sinatra, June Hutton & The Pied Pipers - Songs by Sinatra Opening; Night and Day - Aren't You Glad You're You.wav

Pre-gap length 0:00:02.00

Peak level 70.5 %
Extraction speed 5.4 X
Track quality 99.9 %
Test CRC A7854840
Copy CRC A7854840
Track not present in AccurateRip database
Copy OK

Track 17

Filename C:\rips\17 - Frank Sinatra, June Hutton & The Pied Pipers - It Might as Well Be Spring.wav

Pre-gap length 0:00:02.00

Peak level 57.8 %
Extraction speed 8.0 X
Track quality 100.0 %
Test CRC 3324A600
Copy CRC 3324A600
Track not present in AccurateRip database
Copy OK

Track 18

Filename C:\rips\18 - Frank Sinatra, June Hutton & The Pied Pipers - Birthday Greetings for Frank Sinatra's 30th Birthday - Frank Sinatra Introduces June Hutton - Button Up Your Overcoat.wav

Pre-gap length 0:00:02.00

Peak level 60.3 %
Extraction speed 7.9 X
Track quality 100.0 %
Test CRC 9BA637CC
Copy CRC 9BA637CC
Track not present in AccurateRip database
Copy OK

Track 19

Filename C:\rips\19 - Frank Sinatra, June Hutton & The Pied Pipers - Day by Day.wav

Pre-gap length 0:00:02.00

Peak level 71.0 %
Extraction speed 6.3 X
Track quality 99.9 %
Test CRC 80D7EFDB
Copy CRC 80D7EFDB
Track not present in AccurateRip database
Copy OK

Track 20

Filename C:\rips\20 - Frank Sinatra, June Hutton & The Pied Pipers - Lily Belle.wav

Pre-gap length 0:00:02.00

Peak level 46.0 %
Extraction speed 8.4 X
Track quality 100.0 %
Test CRC 018FE388
Copy CRC 018FE388
Track not present in AccurateRip database
Copy OK

Track 21

Filename C:\rips\21 - Frank Sinatra, June Hutton & The Pied Pipers - Ol' Man River - Songs by Sinatra Show Closing; Put Your Dreams Away.wav

Pre-gap length 0:00:02.00

Peak level 51.2 %
Extraction speed 9.5 X
Track quality 100.0 %
Test CRC FBD58B5F
Copy CRC FBD58B5F
Track not present in AccurateRip database
Copy OK

Track 22

Filename C:\rips\22 - Frank Sinatra, Bob Hope & Bing Crosby - Comedy Sketch; The Battle of the Century.wav

Pre-gap length 0:00:02.00

Peak level 94.6 %
Extraction speed 9.6 X
Track quality 100.0 %
Test CRC 5CDDB8F9
Copy CRC 5CDDB8F9
Track not present in AccurateRip database
Copy OK

Track 23

Filename C:\rips\23 - Frank Sinatra & The Pied Pipers - Songs by Sinatra Old Gold 'Yankee Doodle Dandy' Commercial.wav

Pre-gap length 0:00:02.00

Peak level 68.8 %
Extraction speed 8.0 X
Track quality 100.0 %
Test CRC 42116027
Copy CRC 42116027
Track not present in AccurateRip database
Copy OK

Track 24

Filename C:\rips\24 - Frank Sinatra - The Frank Sinatra Show Vimms Vitamin Commercial.wav

Pre-gap length 0:00:02.00

Peak level 54.1 %
Extraction speed 7.3 X
Track quality 100.0 %
Test CRC B605E72F
Copy CRC B605E72F
Track not present in AccurateRip database
Copy OK

Track 25

Filename C:\rips\25 - Frank Sinatra - Songs by Sinatra Max Factor Commercial.wav

Pre-gap length 0:00:02.00

Peak level 71.8 %
Extraction speed 4.5 X
Track quality 99.8 %
Test CRC B4371E64
Copy CRC B4371E64
Track not present in AccurateRip database
Copy OK


None of the tracks are present in the AccurateRip database

No errors occurred

End of status report

–– CUETools DB Plugin V2.1.6

[CTDB TOCID: ikeqzvgYGV8gyfYks5KUkRy2Ll8-] found
Submit result: ikeqzvgYGV8gyfYks5KUkRy2Ll8- has been confirmed
Track | CTDB Status
1 | (8/8) Accurately ripped
2 | (8/8) Accurately ripped
3 | (8/8) Accurately ripped
4 | (8/8) Accurately ripped
5 | (8/8) Accurately ripped
6 | (8/8) Accurately ripped
7 | (8/8) Accurately ripped
8 | (8/8) Accurately ripped
9 | (8/8) Accurately ripped
10 | (8/8) Accurately ripped
11 | (8/8) Accurately ripped
12 | (8/8) Accurately ripped
13 | (8/8) Accurately ripped
14 | (8/8) Accurately ripped
15 | (8/8) Accurately ripped
16 | (8/8) Accurately ripped
17 | (8/8) Accurately ripped
18 | (8/8) Accurately ripped
19 | (8/8) Accurately ripped
20 | (8/8) Accurately ripped
21 | (7/8) Accurately ripped
22 | (7/8) Accurately ripped
23 | (8/8) Accurately ripped
24 | (8/8) Accurately ripped
25 | (8/8) Accurately ripped


==== Log checksum 8A2F45C554337EB6CFDB6CC63A1049EB39FDF963DEBE8C478383A1A4851C87F6 ====

Exact Audio Copy V1.1 from 23. June 2015

EAC extraction logfile from 25. December 2015, 17:57

Frank Sinatra / A Voice on Air (1935-1955)

Used drive : TSSTcorpDVD+-RW TS-H653G Adapter: 1 ID: 0

Read mode : Secure
Utilize accurate stream : Yes
Defeat audio cache : Yes
Make use of C2 pointers : No

Read offset correction : 6
Overread into Lead-In and Lead-Out : No
Fill up missing offset samples with silence : Yes
Delete leading and trailing silent blocks : No
Null samples used in CRC calculations : Yes
Used interface : Native Win32 interface for Win NT & 2000
Gap handling : Appended to previous track

Used output format : User Defined Encoder
Selected bitrate : 1024 kBit/s
Quality : High
Add ID3 tag : No
Command line compressor : C:\Program Files (x86)\Exact Audio Copy\Flac\flac.exe
Additional command line options : -8 -V -T "ARTIST=%artist%" -T "TITLE=%title%" -T "ALBUM=%albumtitle%" -T "DATE=%year%" -T "TRACKNUMBER=%tracknr%" -T "GENRE=%genre%" -T "PERFORMER=%albuminterpret%" -T "COMPOSER=%composer%" %haslyrics%–tag-from-file=LYRICS="%lyricsfile%"%haslyrics% -T "ALBUMARTIST=%albumartist%" -T "DISCNUMBER=%cdnumber%" -T "TOTALDISCS=%totalcds%" -T "TOTALTRACKS=%numtracks%" -T "COMMENT=%comment%" %source% -o %dest%


TOC of the extracted CD

Track | Start | Length | Start sector | End sector
––––––––––––––––––––––––––––-
1 | 0:00.00 | 4:05.59 | 0 | 18433
2 | 4:05.59 | 2:44.41 | 18434 | 30774
3 | 6:50.25 | 3:59.46 | 30775 | 48745
4 | 10:49.71 | 2:39.17 | 48746 | 60687
5 | 13:29.13 | 3:13.02 | 60688 | 75164
6 | 16:42.15 | 5:44.25 | 75165 | 100989
7 | 22:26.40 | 1:46.15 | 100990 | 108954
8 | 24:12.55 | 2:36.67 | 108955 | 120721
9 | 26:49.47 | 1:29.54 | 120722 | 127450
10 | 28:19.26 | 1:52.18 | 127451 | 135868
11 | 30:11.44 | 1:36.41 | 135869 | 143109
12 | 31:48.10 | 1:14.39 | 143110 | 148698
13 | 33:02.49 | 1:20.72 | 148699 | 154770
14 | 34:23.46 | 1:54.57 | 154771 | 163377
15 | 36:18.28 | 4:19.37 | 163378 | 182839
16 | 40:37.65 | 1:29.65 | 182840 | 189579
17 | 42:07.55 | 2:14.41 | 189580 | 199670
18 | 44:22.21 | 3:36.01 | 199671 | 215871
19 | 47:58.22 | 2:29.48 | 215872 | 227094
20 | 50:27.70 | 3:56.72 | 227095 | 244866
21 | 54:24.67 | 3:30.29 | 244867 | 260645
22 | 57:55.21 | 3:54.04 | 260646 | 278199
23 | 61:49.25 | 1:39.41 | 278200 | 285665
24 | 63:28.66 | 2:05.28 | 285666 | 295068
25 | 65:34.19 | 2:44.36 | 295069 | 307404
26 | 68:18.55 | 2:27.39 | 307405 | 318468
27 | 70:46.19 | 2:11.27 | 318469 | 328320
28 | 72:57.46 | 5:34.02 | 328321 | 353372
29 | 78:31.48 | 1:22.19 | 353373 | 359541


Track 1

Filename C:\rips\01 - Frank Sinatra - Songs by Sinatra Show Opening; Night and Day - I'm an Old Cowhand - Tumblin' Tumbleweeds.wav

Pre-gap length 0:00:02.00

Peak level 83.0 %
Extraction speed 4.9 X
Track quality 100.0 %
Test CRC BF1113CC
Copy CRC BF1113CC
Track not present in AccurateRip database
Copy OK

Track 2

Filename C:\rips\02 - Frank Sinatra - Along the Navajo Trail.wav

Pre-gap length 0:00:01.00

Peak level 86.7 %
Extraction speed 4.9 X
Track quality 100.0 %
Test CRC EA71F119
Copy CRC EA71F119
Track not present in AccurateRip database
Copy OK

Track 3

Filename C:\rips\03 - Frank Sinatra - Frank Sinatra Introduction to 'Home on the Range' - Home on the Range.wav

Pre-gap length 0:00:01.00

Peak level 87.5 %
Extraction speed 5.5 X
Track quality 100.0 %
Test CRC 13BF8D99
Copy CRC 13BF8D99
Track not present in AccurateRip database
Copy OK

Track 4

Filename C:\rips\04 - Frank Sinatra - Frank Sinatra Introduces Louisiana Gov. Jimmie Davis - You Are My Sunshine.wav

Pre-gap length 0:00:01.00

Peak level 87.4 %
Extraction speed 5.5 X
Track quality 100.0 %
Test CRC AF052C57
Copy CRC AF052C57
Track not present in AccurateRip database
Copy OK

Track 5

Filename C:\rips\05 - Frank Sinatra - Frank Sinatra Introduces Nat 'King' Cole - Exactly Like You.wav

Pre-gap length 0:00:01.01

Peak level 95.9 %
Extraction speed 5.8 X
Track quality 100.0 %
Test CRC 8E3E6CEE
Copy CRC 8E3E6CEE
Track not present in AccurateRip database
Copy OK

Track 6

Filename C:\rips\06 - Frank Sinatra & Slim Gaillard - Frank Sinatra Introduces Slim Gaillard - Cement Mixer (Put-Ti Put-Ti).wav

Pre-gap length 0:00:00.92

Peak level 94.9 %
Extraction speed 6.6 X
Track quality 100.0 %
Test CRC C0B69ED6
Copy CRC C0B69ED6
Track not present in AccurateRip database
Copy OK

Track 7

Filename C:\rips\07 - Frank Sinatra & Peggy Lee - You Brought a New Kind of Love to Me.wav

Pre-gap length 0:00:01.00

Peak level 96.9 %
Extraction speed 5.7 X
Track quality 100.0 %
Test CRC A432EC77
Copy CRC A432EC77
Track not present in AccurateRip database
Copy OK

Track 8

Filename C:\rips\08 - Frank Sinatra & Benny Goodman - I Only Have Eyes for You.wav

Pre-gap length 0:00:01.01

Peak level 92.4 %
Extraction speed 6.4 X
Track quality 100.0 %
Test CRC 1D025DC0
Copy CRC 1D025DC0
Track not present in AccurateRip database
Copy OK

Track 9

Filename C:\rips\09 - Frank Sinatra - You Must Have Been a Beautiful Baby.wav

Pre-gap length 0:00:01.00

Peak level 92.6 %
Extraction speed 5.7 X
Track quality 100.0 %
Test CRC 8869496B
Copy CRC 8869496B
Track not present in AccurateRip database
Copy OK

Track 10

Filename C:\rips\10 - Frank Sinatra & The Pied Pipers - Don't Forget Tonight Tomorrow (rehearsal).wav

Pre-gap length 0:00:01.00

Peak level 92.3 %
Extraction speed 4.2 X
Track quality 99.9 %
Test CRC 50B30F62
Copy CRC 50B30F62
Track not present in AccurateRip database
Copy OK

Track 11

Filename C:\rips\11 - Frank Sinatra - Sweet Lorraine (orchestral version).wav

Pre-gap length 0:00:01.00

Peak level 98.3 %
Extraction speed 6.0 X
Track quality 100.0 %
Test CRC 1DED8C12
Copy CRC 1DED8C12
Track not present in AccurateRip database
Copy OK

Track 12

Filename C:\rips\12 - Frank Sinatra - Personality.wav

Pre-gap length 0:00:00.96

Peak level 92.4 %
Extraction speed 5.6 X
Track quality 100.0 %
Test CRC CFAF93FE
Copy CRC CFAF93FE
Track not present in AccurateRip database
Copy OK

Track 13

Filename C:\rips\13 - Frank Sinatra - Who's Sorry Now¿.wav

Pre-gap length 0:00:01.00

Peak level 86.1 %
Extraction speed 3.5 X
Track quality 99.8 %
Test CRC A6AEC829
Copy CRC A6AEC829
Track not present in AccurateRip database
Copy OK

Track 14

Filename C:\rips\14 - Frank Sinatra - Don't Marry That Girl.wav

Pre-gap length 0:00:01.00

Peak level 79.7 %
Extraction speed 6.5 X
Track quality 100.0 %
Test CRC E420D745
Copy CRC E420D745
Track not present in AccurateRip database
Copy OK

Track 15

Filename C:\rips\15 - Frank Sinatra - A Salute to Al Jolson Show Opening & George Jessel Introduces Frank Sinatra - Rock-A-Bye Your Baby.wav

Pre-gap length 0:00:01.00

Peak level 94.1 %
Extraction speed 7.8 X
Track quality 100.0 %
Test CRC AE4741CA
Copy CRC AE4741CA
Track not present in AccurateRip database
Copy OK

Track 16

Filename C:\rips\16 - Frank Sinatra - Zip-A-Dee-Doo-Dah.wav

Pre-gap length 0:00:01.00

Peak level 75.0 %
Extraction speed 6.3 X
Track quality 100.0 %
Test CRC 8FAC40AA
Copy CRC 8FAC40AA
Track not present in AccurateRip database
Copy OK

Track 17

Filename C:\rips\17 - Frank Sinatra - These Foolish Things (Parody) (rehearsal).wav

Pre-gap length 0:00:01.01

Peak level 85.9 %
Extraction speed 7.2 X
Track quality 100.0 %
Test CRC 4692300C
Copy CRC 4692300C
Track not present in AccurateRip database
Copy OK

Track 18

Filename C:\rips\18 - Frank Sinatra - (I Love You) For Sentimental Reasons.wav

Pre-gap length 0:00:01.00

Peak level 77.3 %
Extraction speed 8.0 X
Track quality 100.0 %
Test CRC 1BBC0935
Copy CRC 1BBC0935
Track not present in AccurateRip database
Copy OK

Track 19

Filename C:\rips\19 - Frank Sinatra, Jimmy Durante & Garry Moore - Anything You Can Do (I Can Do Better).wav

Pre-gap length 0:00:01.01

Peak level 82.6 %
Extraction speed 7.7 X
Track quality 100.0 %
Test CRC E8308BF5
Copy CRC E8308BF5
Track not present in AccurateRip database
Copy OK

Track 20

Filename C:\rips\20 - Frank Sinatra & Irving Berlin - Frank Sinatra Introduces Irving Berlin - Alexander's Ragtime Band.wav

Pre-gap length 0:00:01.01

Peak level 93.4 %
Extraction speed 8.4 X
Track quality 100.0 %
Test CRC 27561AB2
Copy CRC 27561AB2
Track not present in AccurateRip database
Copy OK

Track 21

Filename C:\rips\21 - Frank Sinatra & Irving Berlin - Help Me to Help My Neighbor - Irving Berlin Commentary on Frank Sinatra Winning the Jefferson Award.wav

Pre-gap length 0:00:01.01

Peak level 93.3 %
Extraction speed 8.5 X
Track quality 100.0 %
Test CRC B2F690B4
Copy CRC B2F690B4
Track not present in AccurateRip database
Copy OK

Track 22

Filename C:\rips\22 - Frank Sinatra & Johnny Mercer - Frank Sinatra Introduces Johnny Mercer - AC-Cent-Tchu-Ate the Positive.wav

Pre-gap length 0:00:01.00

Peak level 79.5 %
Extraction speed 6.9 X
Track quality 99.9 %
Test CRC 2362844D
Copy CRC 2362844D
Track not present in AccurateRip database
Copy OK

Track 23

Filename C:\rips\23 - Frank Sinatra - Your Hit Parade Show Opening; Lucky Day - (It's Going to Be a) Great Day.wav

Pre-gap length 0:00:01.01

Peak level 94.7 %
Extraction speed 7.6 X
Track quality 100.0 %
Test CRC 1C16CBE6
Copy CRC 1C16CBE6
Track not present in AccurateRip database
Copy OK

Track 24

Filename C:\rips\24 - Frank Sinatra - I Wish I Didn't Love You So.wav

Pre-gap length 0:00:01.00

Peak level 74.5 %
Extraction speed 8.0 X
Track quality 100.0 %
Test CRC 77DC9D67
Copy CRC 77DC9D67
Track not present in AccurateRip database
Copy OK

Track 25

Filename C:\rips\25 - Frank Sinatra & Doris Day - Take Me Out to the Ball Game.wav

Pre-gap length 0:00:01.01

Peak level 90.2 %
Extraction speed 8.7 X
Track quality 100.0 %
Test CRC 4F1FA9BA
Copy CRC 4F1FA9BA
Track not present in AccurateRip database
Copy OK

Track 26

Filename C:\rips\26 - Frank Sinatra & Doris Day - There's No Business Like Show Business.wav

Pre-gap length 0:00:01.01

Peak level 82.6 %
Extraction speed 8.5 X
Track quality 100.0 %
Test CRC A2F8C058
Copy CRC A2F8C058
Track not present in AccurateRip database
Copy OK

Track 27

Filename C:\rips\27 - Frank Sinatra - Serenade of the Bells.wav

Pre-gap length 0:00:01.00

Peak level 78.9 %
Extraction speed 8.5 X
Track quality 100.0 %
Test CRC 102D725D
Copy CRC 102D725D
Track not present in AccurateRip database
Copy OK

Track 28

Filename C:\rips\28 - Frank Sinatra - Frank Sinatra Receives the Modern Screen Ed Sullivan Award Nad the 1946 'Radio Father of the Year Award' - Come Rain or Come Shine.wav

Pre-gap length 0:00:01.00

Peak level 93.2 %
Extraction speed 10.0 X
Track quality 100.0 %
Test CRC EEC8B7DB
Copy CRC EEC8B7DB
Track not present in AccurateRip database
Copy OK

Track 29

Filename C:\rips\29 - Frank Sinatra - Songs by Sinatra Show Closing; Put Your Dreams Away.wav

Pre-gap length 0:00:01.01

Peak level 73.3 %
Extraction speed 7.7 X
Track quality 100.0 %
Test CRC 9BA2F589
Copy CRC 9BA2F589
Track not present in AccurateRip database
Copy OK


None of the tracks are present in the AccurateRip database

No errors occurred

End of status report

–– CUETools DB Plugin V2.1.6

[CTDB TOCID: bpu5NomR4XaFBnZxUM2032Q8k2k-] found
Submit result: bpu5NomR4XaFBnZxUM2032Q8k2k- has been confirmed
Track | CTDB Status
1 | (9/9) Accurately ripped
2 | (9/9) Accurately ripped
3 | (9/9) Accurately ripped
4 | (9/9) Accurately ripped
5 | (9/9) Accurately ripped
6 | (9/9) Accurately ripped
7 | (9/9) Accurately ripped
8 | (9/9) Accurately ripped
9 | (9/9) Accurately ripped
10 | (9/9) Accurately ripped
11 | (9/9) Accurately ripped
12 | (9/9) Accurately ripped
13 | (9/9) Accurately ripped
14 | (9/9) Accurately ripped
15 | (9/9) Accurately ripped
16 | (9/9) Accurately ripped
17 | (9/9) Accurately ripped
18 | (9/9) Accurately ripped
19 | (9/9) Accurately ripped
20 | (9/9) Accurately ripped
21 | (9/9) Accurately ripped
22 | (9/9) Accurately ripped
23 | (9/9) Accurately ripped
24 | (9/9) Accurately ripped
25 | (9/9) Accurately ripped
26 | (9/9) Accurately ripped
27 | (9/9) Accurately ripped
28 | (9/9) Accurately ripped
29 | (9/9) Accurately ripped


==== Log checksum 3CA9AC80CA219AAFBBBDC066DECDE01BF71BD9787AEC254C447F79F1CD1066D1 ====

Exact Audio Copy V1.1 from 23. June 2015

EAC extraction logfile from 25. December 2015, 16:44

Frank Sinatra / A Voice on Air (1935-1955)

Used drive : TSSTcorpDVD+-RW TS-H653G Adapter: 1 ID: 0

Read mode : Secure
Utilize accurate stream : Yes
Defeat audio cache : Yes
Make use of C2 pointers : No

Read offset correction : 6
Overread into Lead-In and Lead-Out : No
Fill up missing offset samples with silence : Yes
Delete leading and trailing silent blocks : No
Null samples used in CRC calculations : Yes
Used interface : Native Win32 interface for Win NT & 2000
Gap handling : Appended to previous track

Used output format : User Defined Encoder
Selected bitrate : 1024 kBit/s
Quality : High
Add ID3 tag : No
Command line compressor : C:\Program Files (x86)\Exact Audio Copy\Flac\flac.exe
Additional command line options : -8 -V -T "ARTIST=%artist%" -T "TITLE=%title%" -T "ALBUM=%albumtitle%" -T "DATE=%year%" -T "TRACKNUMBER=%tracknr%" -T "GENRE=%genre%" -T "PERFORMER=%albuminterpret%" -T "COMPOSER=%composer%" %haslyrics%–tag-from-file=LYRICS="%lyricsfile%"%haslyrics% -T "ALBUMARTIST=%albumartist%" -T "DISCNUMBER=%cdnumber%" -T "TOTALDISCS=%totalcds%" -T "TOTALTRACKS=%numtracks%" -T "COMMENT=%comment%" %source% -o %dest%


TOC of the extracted CD

Track | Start | Length | Start sector | End sector
––––––––––––––––––––––––––––-
1 | 0:00.00 | 2:52.74 | 0 | 12973
2 | 2:52.74 | 2:45.57 | 12974 | 25405
3 | 5:38.56 | 2:19.73 | 25406 | 35903
4 | 7:58.54 | 2:56.37 | 35904 | 49140
5 | 10:55.16 | 2:22.58 | 49141 | 59848
6 | 13:17.74 | 2:22.09 | 59849 | 70507
7 | 15:40.08 | 2:52.55 | 70508 | 83462
8 | 18:32.63 | 4:25.27 | 83463 | 103364
9 | 22:58.15 | 2:55.12 | 103365 | 116501
10 | 25:53.27 | 1:39.24 | 116502 | 123950
11 | 27:32.51 | 2:13.68 | 123951 | 133993
12 | 29:46.44 | 3:08.29 | 133994 | 148122
13 | 32:54.73 | 3:18.64 | 148123 | 163036
14 | 36:13.62 | 2:59.05 | 163037 | 176466
15 | 39:12.67 | 3:45.35 | 176467 | 193376
16 | 42:58.27 | 3:02.23 | 193377 | 207049
17 | 46:00.50 | 1:42.02 | 207050 | 214701
18 | 47:42.52 | 2:21.33 | 214702 | 225309
19 | 50:04.10 | 1:31.60 | 225310 | 232194
20 | 51:35.70 | 3:10.56 | 232195 | 246500
21 | 54:46.51 | 2:55.72 | 246501 | 259697
22 | 57:42.48 | 3:35.14 | 259698 | 275836
23 | 61:17.62 | 3:05.57 | 275837 | 289768
24 | 64:23.44 | 5:23.34 | 289769 | 314027
25 | 69:47.03 | 4:19.67 | 314028 | 333519
26 | 74:06.70 | 3:26.73 | 333520 | 349042
27 | 77:33.68 | 1:09.45 | 349043 | 354262
28 | 78:43.38 | 1:10.72 | 354263 | 359584


Track 1

Filename C:\rips\01 - Frank Sinatra - Haunted Heart.wav

Pre-gap length 0:00:02.00

Peak level 90.7 %
Extraction speed 3.5 X
Track quality 99.9 %
Test CRC A8F93FC8
Copy CRC A8F93FC8
Track not present in AccurateRip database
Copy OK

Track 2

Filename C:\rips\02 - Frank Sinatra - Wrap Your Troubles in Dreams.wav

Pre-gap length 0:00:01.01

Peak level 81.4 %
Extraction speed 4.8 X
Track quality 100.0 %
Test CRC 1F9289B3
Copy CRC 1F9289B3
Track not present in AccurateRip database
Copy OK

Track 3

Filename C:\rips\03 - Frank Sinatra - I'm Looking Over a Four Leaf Clover.wav

Pre-gap length 0:00:01.01

Peak level 84.6 %
Extraction speed 4.8 X
Track quality 100.0 %
Test CRC 293D3887
Copy CRC 293D3887
Track not present in AccurateRip database
Copy OK

Track 4

Filename C:\rips\04 - Frank Sinatra - Nature Boy (orchestral version).wav

Pre-gap length 0:00:01.01

Peak level 95.4 %
Extraction speed 5.3 X
Track quality 100.0 %
Test CRC DAAF2EC4
Copy CRC DAAF2EC4
Track not present in AccurateRip database
Copy OK

Track 5

Filename C:\rips\05 - Frank Sinatra - Little White Lies.wav

Pre-gap length 0:00:01.00

Peak level 91.7 %
Extraction speed 3.8 X
Track quality 99.9 %
Test CRC D5EB5249
Copy CRC D5EB5249
Track not present in AccurateRip database
Copy OK

Track 6

Filename C:\rips\06 - Frank Sinatra - On a Slow Boat to China.wav

Pre-gap length 0:00:01.01

Peak level 92.4 %
Extraction speed 5.4 X
Track quality 100.0 %
Test CRC 10E5916E
Copy CRC 10E5916E
Track not present in AccurateRip database
Copy OK

Track 7

Filename C:\rips\07 - Frank Sinatra - Light Up Time Show Opening; Lucky Day - It All Depends on You.wav

Pre-gap length 0:00:01.01

Peak level 90.3 %
Extraction speed 6.0 X
Track quality 100.0 %
Test CRC 1367E416
Copy CRC 1367E416
Track not present in AccurateRip database
Copy OK

Track 8

Filename C:\rips\08 - Frank Sinatra & Dorothy Kirsten - Some Enchanted Evening.wav

Pre-gap length 0:00:01.00

Peak level 90.6 %
Extraction speed 6.7 X
Track quality 100.0 %
Test CRC E986E0A3
Copy CRC E986E0A3
Track not present in AccurateRip database
Copy OK

Track 9

Filename C:\rips\09 - Frank Sinatra & Dorothy Kirsten - Full Moon and Empty Arms.wav

Pre-gap length 0:00:01.01

Peak level 84.5 %
Extraction speed 6.5 X
Track quality 100.0 %
Test CRC 19A8B38E
Copy CRC 19A8B38E
Track not present in AccurateRip database
Copy OK

Track 10

Filename C:\rips\10 - Frank Sinatra - It's Only a Paper Moon.wav

Pre-gap length 0:00:01.00

Peak level 71.6 %
Extraction speed 5.8 X
Track quality 100.0 %
Test CRC 15D1F2DC
Copy CRC 15D1F2DC
Track not present in AccurateRip database
Copy OK

Track 11

Filename C:\rips\11 - Frank Sinatra - Mad About You.wav

Pre-gap length 0:00:01.00

Peak level 81.6 %
Extraction speed 6.4 X
Track quality 100.0 %
Test CRC B9BA7A09
Copy CRC B9BA7A09
Track not present in AccurateRip database
Copy OK

Track 12

Filename C:\rips\12 - Frank Sinatra & Dorothy Kirsten - A Fine Romance.wav

Pre-gap length 0:00:01.00

Peak level 85.1 %
Extraction speed 7.0 X
Track quality 100.0 %
Test CRC 0D624733
Copy CRC 0D624733
Track not present in AccurateRip database
Copy OK

Track 13

Filename C:\rips\13 - Frank Sinatra & Dean Martin - Dean Martin Introduces Frank Sinatra - I've Got a Crush on You.wav

Pre-gap length 0:00:01.00

Peak level 73.8 %
Extraction speed 5.5 X
Track quality 99.9 %
Test CRC E28FF976
Copy CRC E28FF976
Track not present in AccurateRip database
Copy OK

Track 14

Filename C:\rips\14 - Frank Sinatra - Why Try to Change Me Now.wav

Pre-gap length 0:00:01.00

Peak level 86.8 %
Extraction speed 7.3 X
Track quality 100.0 %
Test CRC B6298333
Copy CRC B6298333
Track not present in AccurateRip database
Copy OK

Track 15

Filename C:\rips\15 - Frank Sinatra - Birth of the Blues.wav

Pre-gap length 0:00:01.00

Peak level 92.6 %
Extraction speed 7.8 X
Track quality 100.0 %
Test CRC 44B3FDCB
Copy CRC 44B3FDCB
Track not present in AccurateRip database
Copy OK

Track 16

Filename C:\rips\16 - Frank Sinatra - To Be Perfectly Frank Show Opening; Walking and Whistlin' the Blues - I've Got the World on a String.wav

Pre-gap length 0:00:01.00

Peak level 90.8 %
Extraction speed 7.7 X
Track quality 100.0 %
Test CRC 73DEA677
Copy CRC 73DEA677
Track not present in AccurateRip database
Copy OK

Track 17

Filename C:\rips\17 - Frank Sinatra - I've Got My Love to Keep Me Warm.wav

Pre-gap length 0:00:01.01

Peak level 87.3 %
Extraction speed 6.8 X
Track quality 100.0 %
Test CRC B9CDDFFF
Copy CRC B9CDDFFF
Track not present in AccurateRip database
Copy OK

Track 18

Filename C:\rips\18 - Frank Sinatra - A Hundred Years From Today.wav

Pre-gap length 0:00:01.01

Peak level 78.5 %
Extraction speed 5.3 X
Track quality 99.9 %
Test CRC EF7BC5A5
Copy CRC EF7BC5A5
Track not present in AccurateRip database
Copy OK

Track 19

Filename C:\rips\19 - Frank Sinatra - This Can't Be Love.wav

Pre-gap length 0:00:01.00

Peak level 96.7 %
Extraction speed 6.9 X
Track quality 100.0 %
Test CRC 0E951C45
Copy CRC 0E951C45
Track not present in AccurateRip database
Copy OK

Track 20

Filename C:\rips\20 - Frank Sinatra - Them There Eyes - To Be Perfectly Frank Closing; Walkin' and Whistlin' the Blues.wav

Pre-gap length 0:00:01.00

Peak level 86.6 %
Extraction speed 8.2 X
Track quality 100.0 %
Test CRC B4B654A1
Copy CRC B4B654A1
Track not present in AccurateRip database
Copy OK

Track 21

Filename C:\rips\21 - Frank Sinatra - The Frank Sinatra Show Opening; Young at Heart - Tenderly.wav

Pre-gap length 0:00:01.00

Peak level 83.0 %
Extraction speed 6.1 X
Track quality 99.9 %
Test CRC 67144205
Copy CRC 67144205
Track not present in AccurateRip database
Copy OK

Track 22

Filename C:\rips\22 - Frank Sinatra - Hello, Young Lovers.wav

Pre-gap length 0:00:01.00

Peak level 72.3 %
Extraction speed 8.7 X
Track quality 100.0 %
Test CRC 13E7151C
Copy CRC 13E7151C
Track not present in AccurateRip database
Copy OK

Track 23

Filename C:\rips\23 - Frank Sinatra - It's Alright With Me.wav

Pre-gap length 0:00:01.00

Peak level 65.4 %
Extraction speed 8.6 X
Track quality 100.0 %
Test CRC 337B0D54
Copy CRC 337B0D54
Track not present in AccurateRip database
Copy OK

Track 24

Filename C:\rips\24 - Frank Sinatra - Our Love Is Here to Stay - The Frank Sinatra Show Closing; Put Your Dreams Away.wav

Pre-gap length 0:00:01.01

Peak level 54.0 %
Extraction speed 9.5 X
Track quality 100.0 %
Test CRC 6BB3B180
Copy CRC 6BB3B180
Track not present in AccurateRip database
Copy OK

Track 25

Filename C:\rips\25 - Frank Sinatra & Gary Crosby - Gary Crosby Introduces Frank Sinatra - Sam's Song (The Happy Tune).wav

Pre-gap length 0:00:01.00

Peak level 91.9 %
Extraction speed 9.5 X
Track quality 100.0 %
Test CRC E2EA8696
Copy CRC E2EA8696
Track not present in AccurateRip database
Copy OK

Track 26

Filename C:\rips\26 - Frank Sinatra - Half as Lovely (Twice as True).wav

Pre-gap length 0:00:01.00

Peak level 67.6 %
Extraction speed 9.4 X
Track quality 100.0 %
Test CRC 30342F2A
Copy CRC 30342F2A
Track not present in AccurateRip database
Copy OK

Track 27

Filename C:\rips\27 - Frank Sinatra - Light Up Time - Lucky Strike 'LSMFT' Commercial.wav

Pre-gap length 0:00:01.01

Peak level 70.6 %
Extraction speed 7.2 X
Track quality 100.0 %
Test CRC E2AC1924
Copy CRC E2AC1924
Track not present in AccurateRip database
Copy OK

Track 28

Filename C:\rips\28 - Frank Sinatra - Frank Sinatra Sings Bobbi Home Permanment - White Rain Commercials.wav

Pre-gap length 0:00:01.00

Peak level 67.0 %
Extraction speed 7.2 X
Track quality 100.0 %
Test CRC B82DC2CD
Copy CRC B82DC2CD
Track not present in AccurateRip database
Copy OK


None of the tracks are present in the AccurateRip database

No errors occurred

End of status report

–– CUETools DB Plugin V2.1.6

[CTDB TOCID: jgWmmuOvqNFq7Haz.czWNUKbCCM-] found
Submit result: jgWmmuOvqNFq7Haz.czWNUKbCCM- has been confirmed
Track | CTDB Status
1 | (9/9) Accurately ripped
2 | (9/9) Accurately ripped
3 | (9/9) Accurately ripped
4 | (9/9) Accurately ripped
5 | (9/9) Accurately ripped
6 | (9/9) Accurately ripped
7 | (9/9) Accurately ripped
8 | (9/9) Accurately ripped
9 | (9/9) Accurately ripped
10 | (9/9) Accurately ripped
11 | (9/9) Accurately ripped
12 | (9/9) Accurately ripped
13 | (9/9) Accurately ripped
14 | (9/9) Accurately ripped
15 | (9/9) Accurately ripped
16 | (9/9) Accurately ripped
17 | (9/9) Accurately ripped
18 | (9/9) Accurately ripped
19 | (9/9) Accurately ripped
20 | (9/9) Accurately ripped
21 | (9/9) Accurately ripped
22 | (9/9) Accurately ripped
23 | (9/9) Accurately ripped
24 | (9/9) Accurately ripped
25 | (9/9) Accurately ripped
26 | (9/9) Accurately ripped
27 | (9/9) Accurately ripped
28 | (9/9) Accurately ripped


==== Log checksum ACE8DCB6A831ADC8A846FA80E833FA5E08F05F1AD2B27C5A3B8AFE7BF631AB73 ====

Thanks to the Original ripper subix5 !