Subcategories

Frank Sinatra - The 1953-1962 Albums (2019) {10-CD Box Set, New Continent 648046, 43 bonus tracks}

Posted By: ruskaval
Frank Sinatra - The 1953-1962 Albums (2019) {10-CD Box Set, New Continent 648046, 43 bonus tracks}

Frank Sinatra - The 1953-1962 Albums (2019) {10-CD Box Set, New Continent 648046, 43 bonus tracks}
XLD rip (secure mode) | FLAC (tracks)+CUE+LOG -> 4.00 Gb | MP3 @320 -> 1.70 Gb
Full Artwork @ 300 dpi (jpg) -> 173 Mb | 5% repair rar
© 1953-62, 2019 New Continent | 648046
Vocal / Jazz / Standards / Swing / Traditional Pop / Show Tunes / Vocal Jazz

There is no need to stress the importance of Frank Sinatra (1915-1998) in the world of vocal jazz and popular music. His ability to swing every song, and to give true life to their lyrics make him a unique figure, whose voice is well known all over the globe. This collection compiles 17 complete LPs from his golden years, which are complemented by 43 bonus tracks taken from singles and other albums from the same period. Sinatra is wonderfully backed by orchestras conducted by NELSON RIDDLE, BILLY MAY, JOHNNY MANDEL, COUNT BASIE, SY NOLIVER, and ROBERT FARNON.
Frank Sinatra - The 1953-1962 Albums (2019) {10-CD Box Set, New Continent 648046, 43 bonus tracks}

This is not just a great value but a great collection of Frank Sinatra's Albums from 1953 to 1962, first on Capitol and then on the Reprise label. The colorful box contains the 17 complete albums on 10 CDs and also includes 43 bonus tracks- over 12 hours of music. Each CD has a picture sleeve and a 24 page booklet is included. This is set is by New Continent- a company I have never of but this set is first class in every way. The sound quality is exceptional (about half of these recordings are presented in original mono and the ones recorded after 1957 in stereo). Sinatra left Capital records in 1960 and founded Reprise records to give himself more creative control.

Frank Sinatra - The 1953-1962 Albums (2019) {10-CD Box Set, New Continent 648046, 43 bonus tracks}

Frank Sinatra - The 1953-1962 Albums (2019) {10-CD Box Set, New Continent 648046, 43 bonus tracks}


But he was at his peak of creativity during the period covered in this package- a mature and experienced voice. There have been many Sinatra CD packages assembled since his death in 1999- many of which I own, but this one is my favorite. One criticism- Sinatra had at least six albums of new material released by both Capital and Reprise in 1962 and only two of them are in this set- missing is the great "Point Of No Return" album. By the way, this package is available at this very low price because it was produced in England where all recordings made prior to 1963 no longer have copyright protection.
Frank Sinatra - The 1953-1962 Albums (2019) {10-CD Box Set, New Continent 648046, 43 bonus tracks}

Frank Sinatra - The 1953-1962 Albums (2019) {10-CD Box Set, New Continent 648046, 43 bonus tracks}


INCLUDES 24-PAGE BOOKLET

Works on This Record

SET CONTAINS THE FOLLOWING LPs IN THEIR ENTIRETIES:


• SONGS FOR YOUNG LOVERS (Capitol H488)
• SWING EASY! (Capitol H528)
• IN THE WEE SMALL HOURS (Capitol W581)
• LOOK TO YOUR HEART (Capitol W1164)
• SONGS FOR SWINGIN’ LOVERS (Capitol W653)
• A SWINGIN’ AFFAIR! (Capitol W803)
• COME FLY WITH ME (Capitol W920)
• ONLY THE LONELY (Capitol W1053)
• COME DANCE WITH ME! (Capitol W1069)
• NICE ‘N’ EASY (Capitol SW1417)
• SINATRA’S SWINGIN’ SESSION!!! (Capitol SW1491)
• COME SWING WITH ME! (Capitol SW1594)
• RING-A-DING DING! (Reprise R9 1001)
• SWING ALONG WITH ME (Reprise R9 1002)
• I REMEMBER TOMMY (Reprise R9 1003)
• SINATRA SINGS GREAT SONGS FROM GREAT BRITAIN (Reprise R9-1006)
• SINATRA-BASIE (Reprise R9-1008)

Frank Sinatra - The 1953-1962 Albums (2019) {10-CD Box Set, New Continent 648046, 43 bonus tracks}


X Lossless Decoder version 20170729 (150.3)

XLD extraction logfile from 2019-04-08 09:49:38 -0600

Frank Sinatra / The 1953-1962 Albums

Used drive : Optiarc DVD RW AD-7580S (revision FX02)
Media type : Pressed CD

Ripper mode : XLD Secure Ripper
Disable audio cache : OK for the drive with a cache less than 1375KiB
Make use of C2 pointers : NO
Read offset correction : 6
Max retry count : 100
Gap status : Analyzed, Appended (except HTOA)

TOC of the extracted CD
Track | Start | Length | Start sector | End sector
––––––––––––––––––––––––––––-
1 | 00:00:00 | 03:19:21 | 0 | 14945
2 | 03:19:21 | 02:29:29 | 14946 | 26149
3 | 05:48:50 | 02:32:02 | 26150 | 37551
4 | 08:20:52 | 02:16:64 | 37552 | 47815
5 | 10:37:41 | 02:15:18 | 47816 | 57958
6 | 12:52:59 | 02:24:48 | 57959 | 68806
7 | 15:17:32 | 02:27:68 | 68807 | 79899
8 | 17:45:25 | 02:09:57 | 79900 | 89631
9 | 19:55:07 | 02:33:72 | 89632 | 101178
10 | 22:29:04 | 02:39:17 | 101179 | 113120
11 | 25:08:21 | 02:41:54 | 113121 | 125249
12 | 27:50:00 | 03:12:59 | 125250 | 139708
13 | 31:02:59 | 02:56:46 | 139709 | 152954
14 | 33:59:30 | 02:55:09 | 152955 | 166088
15 | 36:54:39 | 02:00:51 | 166089 | 175139
16 | 38:55:15 | 03:08:41 | 175140 | 189280
17 | 42:03:56 | 02:35:68 | 189281 | 200973
18 | 44:39:49 | 02:30:56 | 200974 | 212279
19 | 47:10:30 | 02:47:46 | 212280 | 224850
20 | 49:58:01 | 02:44:23 | 224851 | 237173
21 | 52:42:24 | 02:59:37 | 237174 | 250635
22 | 55:41:61 | 03:14:65 | 250636 | 265250
23 | 58:56:51 | 02:56:18 | 265251 | 278468
24 | 61:52:69 | 02:51:31 | 278469 | 291324
25 | 64:44:25 | 02:42:74 | 291325 | 303548
26 | 67:27:24 | 02:37:50 | 303549 | 315373
27 | 70:04:74 | 03:31:09 | 315374 | 331207
28 | 73:36:08 | 03:14:14 | 331208 | 345771

AccurateRip Summary
Disc not found in AccurateRip DB.

All Tracks
Album gain : -7.81 dB
Peak : 0.922882
Statistics
Read error : 0
Jitter error (maybe fixed) : 0
Retry sector count : 0
Damaged sector count : 0

Track 01
Filename : /Users/rips/The 1953-1962 Albums - Frank Sinatra (2019) {New Continent 648046} [FLAC-CD]/Disc 01/01. Frank Sinatra - Just One Of Those Things.flac
Pre-gap length : 00:02:00

Track gain : -6.80 dB
Peak : 0.922821
CRC32 hash (test run) : 663A0B90
CRC32 hash : 663A0B90
CRC32 hash (skip zero) : 5C8D034E
AccurateRip v1 signature : C12D3D3E
AccurateRip v2 signature : B05E92E9
->Track not present in AccurateRip database.
Statistics
Read error : 0
Jitter error (maybe fixed) : 0
Retry sector count : 0
Damaged sector count : 0

Track 02
Filename : /Users/rips/The 1953-1962 Albums - Frank Sinatra (2019) {New Continent 648046} [FLAC-CD]/Disc 01/02. Frank Sinatra - I'm Gonna Sit Right Down And Write Myself A Letter.flac

Track gain : -6.81 dB
Peak : 0.922760
CRC32 hash (test run) : 76BE2176
CRC32 hash : 76BE2176
CRC32 hash (skip zero) : EA5ABEEB
AccurateRip v1 signature : E4185E25
AccurateRip v2 signature : FC0EE87B
->Track not present in AccurateRip database.
Statistics
Read error : 0
Jitter error (maybe fixed) : 0
Retry sector count : 0
Damaged sector count : 0

Track 03
Filename : /Users/rips/The 1953-1962 Albums - Frank Sinatra (2019) {New Continent 648046} [FLAC-CD]/Disc 01/03. Frank Sinatra - Sunday.flac

Track gain : -7.35 dB
Peak : 0.922760
CRC32 hash (test run) : 13811DA2
CRC32 hash : 13811DA2
CRC32 hash (skip zero) : 1221B542
AccurateRip v1 signature : 2F8D1B51
AccurateRip v2 signature : 5E96AD4C
->Track not present in AccurateRip database.
Statistics
Read error : 0
Jitter error (maybe fixed) : 0
Retry sector count : 0
Damaged sector count : 0

Track 04
Filename : /Users/rips/The 1953-1962 Albums - Frank Sinatra (2019) {New Continent 648046} [FLAC-CD]/Disc 01/04. Frank Sinatra - Wrap Your Troubles In Dreams.flac

Track gain : -7.44 dB
Peak : 0.922760
CRC32 hash (test run) : 78EA61EE
CRC32 hash : 78EA61EE
CRC32 hash (skip zero) : 02103A4C
AccurateRip v1 signature : B6CBFA28
AccurateRip v2 signature : F0793B97
->Track not present in AccurateRip database.
Statistics
Read error : 0
Jitter error (maybe fixed) : 0
Retry sector count : 0
Damaged sector count : 0

Track 05
Filename : /Users/rips/The 1953-1962 Albums - Frank Sinatra (2019) {New Continent 648046} [FLAC-CD]/Disc 01/05. Frank Sinatra - Taking A Chance On Love.flac

Track gain : -8.37 dB
Peak : 0.922882
CRC32 hash (test run) : DED88423
CRC32 hash : DED88423
CRC32 hash (skip zero) : E00BDC94
AccurateRip v1 signature : 8465DE12
AccurateRip v2 signature : 04984FF6
->Track not present in AccurateRip database.
Statistics
Read error : 0
Jitter error (maybe fixed) : 0
Retry sector count : 0
Damaged sector count : 0

Track 06
Filename : /Users/rips/The 1953-1962 Albums - Frank Sinatra (2019) {New Continent 648046} [FLAC-CD]/Disc 01/06. Frank Sinatra - Jeepers Creepers.flac

Track gain : -7.92 dB
Peak : 0.922852
CRC32 hash (test run) : 4BF513AE
CRC32 hash : 4BF513AE
CRC32 hash (skip zero) : 572E7548
AccurateRip v1 signature : 18380217
AccurateRip v2 signature : 83846F5A
->Track not present in AccurateRip database.
Statistics
Read error : 0
Jitter error (maybe fixed) : 0
Retry sector count : 0
Damaged sector count : 0

Track 07
Filename : /Users/rips/The 1953-1962 Albums - Frank Sinatra (2019) {New Continent 648046} [FLAC-CD]/Disc 01/07. Frank Sinatra - Get Happy.flac

Track gain : -8.30 dB
Peak : 0.922852
CRC32 hash (test run) : 640D7F8D
CRC32 hash : 640D7F8D
CRC32 hash (skip zero) : 2DDE6790
AccurateRip v1 signature : 48DA93ED
AccurateRip v2 signature : 0ACC2171
->Track not present in AccurateRip database.
Statistics
Read error : 0
Jitter error (maybe fixed) : 0
Retry sector count : 0
Damaged sector count : 0

Track 08
Filename : /Users/rips/The 1953-1962 Albums - Frank Sinatra (2019) {New Continent 648046} [FLAC-CD]/Disc 01/08. Frank Sinatra - All Of Me.flac

Track gain : -8.65 dB
Peak : 0.922852
CRC32 hash (test run) : E082EE27
CRC32 hash : E082EE27
CRC32 hash (skip zero) : 7CCCC7E4
AccurateRip v1 signature : 39776F3B
AccurateRip v2 signature : C0497BE5
->Track not present in AccurateRip database.
Statistics
Read error : 0
Jitter error (maybe fixed) : 0
Retry sector count : 0
Damaged sector count : 0

Track 09
Filename : /Users/rips/The 1953-1962 Albums - Frank Sinatra (2019) {New Continent 648046} [FLAC-CD]/Disc 01/09. Frank Sinatra - My Funny Valentine.flac

Track gain : -7.25 dB
Peak : 0.922791
CRC32 hash (test run) : 97FD06F0
CRC32 hash : 97FD06F0
CRC32 hash (skip zero) : 9D22F83C
AccurateRip v1 signature : C23014D6
AccurateRip v2 signature : EE87B932
->Track not present in AccurateRip database.
Statistics
Read error : 0
Jitter error (maybe fixed) : 0
Retry sector count : 0
Damaged sector count : 0

Track 10
Filename : /Users/rips/The 1953-1962 Albums - Frank Sinatra (2019) {New Continent 648046} [FLAC-CD]/Disc 01/10. Frank Sinatra - The Girl Next Door.flac

Track gain : -6.92 dB
Peak : 0.922729
CRC32 hash (test run) : B15E28AE
CRC32 hash : B15E28AE
CRC32 hash (skip zero) : 1489B44C
AccurateRip v1 signature : B680B232
AccurateRip v2 signature : 1283EC86
->Track not present in AccurateRip database.
Statistics
Read error : 0
Jitter error (maybe fixed) : 0
Retry sector count : 0
Damaged sector count : 0

Track 11
Filename : /Users/rips/The 1953-1962 Albums - Frank Sinatra (2019) {New Continent 648046} [FLAC-CD]/Disc 01/11. Frank Sinatra - A Foggy Day.flac

Track gain : -7.02 dB
Peak : 0.922791
CRC32 hash (test run) : 367C0802
CRC32 hash : 367C0802
CRC32 hash (skip zero) : 333FF15B
AccurateRip v1 signature : 8FFFE272
AccurateRip v2 signature : B722B3CC
->Track not present in AccurateRip database.
Statistics
Read error : 0
Jitter error (maybe fixed) : 0
Retry sector count : 0
Damaged sector count : 0

Track 12
Filename : /Users/rips/The 1953-1962 Albums - Frank Sinatra (2019) {New Continent 648046} [FLAC-CD]/Disc 01/12. Frank Sinatra - Like Someone In Love.flac

Track gain : -5.13 dB
Peak : 0.922699
CRC32 hash (test run) : CDD6FBA7
CRC32 hash : CDD6FBA7
CRC32 hash (skip zero) : 5E2C1BFC
AccurateRip v1 signature : 239C0D23
AccurateRip v2 signature : 818D1123
->Track not present in AccurateRip database.
Statistics
Read error : 0
Jitter error (maybe fixed) : 0
Retry sector count : 0
Damaged sector count : 0

Track 13
Filename : /Users/rips/The 1953-1962 Albums - Frank Sinatra (2019) {New Continent 648046} [FLAC-CD]/Disc 01/13. Frank Sinatra - I Get A Kick Out Of You.flac

Track gain : -7.32 dB
Peak : 0.922791
CRC32 hash (test run) : 1403238F
CRC32 hash : 1403238F
CRC32 hash (skip zero) : 61A9F0FA
AccurateRip v1 signature : 77C8C894
AccurateRip v2 signature : 44678B2D
->Track not present in AccurateRip database.
Statistics
Read error : 0
Jitter error (maybe fixed) : 0
Retry sector count : 0
Damaged sector count : 0

Track 14
Filename : /Users/rips/The 1953-1962 Albums - Frank Sinatra (2019) {New Continent 648046} [FLAC-CD]/Disc 01/14. Frank Sinatra - Litte Girl Blue.flac

Track gain : -4.92 dB
Peak : 0.922699
CRC32 hash (test run) : 23221F4B
CRC32 hash : 23221F4B
CRC32 hash (skip zero) : 3E80ED1A
AccurateRip v1 signature : A485CBB3
AccurateRip v2 signature : 275F4FDB
->Track not present in AccurateRip database.
Statistics
Read error : 0
Jitter error (maybe fixed) : 0
Retry sector count : 0
Damaged sector count : 0

Track 15
Filename : /Users/rips/The 1953-1962 Albums - Frank Sinatra (2019) {New Continent 648046} [FLAC-CD]/Disc 01/15. Frank Sinatra - They Can't Take That Away From Me.flac

Track gain : -7.67 dB
Peak : 0.922791
CRC32 hash (test run) : 3A7CA8E1
CRC32 hash : 3A7CA8E1
CRC32 hash (skip zero) : FF8281CB
AccurateRip v1 signature : BBE8F5C4
AccurateRip v2 signature : A2D74D23
->Track not present in AccurateRip database.
Statistics
Read error : 0
Jitter error (maybe fixed) : 0
Retry sector count : 0
Damaged sector count : 0

Track 16
Filename : /Users/rips/The 1953-1962 Albums - Frank Sinatra (2019) {New Continent 648046} [FLAC-CD]/Disc 01/16. Frank Sinatra - Violets For Your Furs.flac

Track gain : -6.85 dB
Peak : 0.922729
CRC32 hash (test run) : 8DF75FBD
CRC32 hash : 8DF75FBD
CRC32 hash (skip zero) : E9DA15C8
AccurateRip v1 signature : 99A7F635
AccurateRip v2 signature : 7CAED113
->Track not present in AccurateRip database.
Statistics
Read error : 0
Jitter error (maybe fixed) : 0
Retry sector count : 0
Damaged sector count : 0

Track 17
Filename : /Users/rips/The 1953-1962 Albums - Frank Sinatra (2019) {New Continent 648046} [FLAC-CD]/Disc 01/17. Frank Sinatra - Lean Baby.flac

Track gain : -8.17 dB
Peak : 0.922791
CRC32 hash (test run) : E8160DD6
CRC32 hash : E8160DD6
CRC32 hash (skip zero) : 11C870DA
AccurateRip v1 signature : EB77EF5C
AccurateRip v2 signature : 70182F99
->Track not present in AccurateRip database.
Statistics
Read error : 0
Jitter error (maybe fixed) : 0
Retry sector count : 0
Damaged sector count : 0

Track 18
Filename : /Users/rips/The 1953-1962 Albums - Frank Sinatra (2019) {New Continent 648046} [FLAC-CD]/Disc 01/18. Frank Sinatra - I Love You.flac

Track gain : -9.87 dB
Peak : 0.922821
CRC32 hash (test run) : 51249933
CRC32 hash : 51249933
CRC32 hash (skip zero) : A4F4BB28
AccurateRip v1 signature : 7DDED93C
AccurateRip v2 signature : 06B70F61
->Track not present in AccurateRip database.
Statistics
Read error : 0
Jitter error (maybe fixed) : 0
Retry sector count : 0
Damaged sector count : 0

Track 19
Filename : /Users/rips/The 1953-1962 Albums - Frank Sinatra (2019) {New Continent 648046} [FLAC-CD]/Disc 01/19. Frank Sinatra - How Could You Do A Thing Like That To Me.flac

Track gain : -8.98 dB
Peak : 0.922852
CRC32 hash (test run) : 1CF97669
CRC32 hash : 1CF97669
CRC32 hash (skip zero) : 4A41ADF3
AccurateRip v1 signature : C19B3DA7
AccurateRip v2 signature : E780D62F
->Track not present in AccurateRip database.
Statistics
Read error : 0
Jitter error (maybe fixed) : 0
Retry sector count : 0
Damaged sector count : 0

Track 20
Filename : /Users/rips/The 1953-1962 Albums - Frank Sinatra (2019) {New Continent 648046} [FLAC-CD]/Disc 01/20. Frank Sinatra - Why Should I Cry Over You.flac

Track gain : -10.16 dB
Peak : 0.922852
CRC32 hash (test run) : C7A645A1
CRC32 hash : C7A645A1
CRC32 hash (skip zero) : C826A208
AccurateRip v1 signature : 26673867
AccurateRip v2 signature : 0A047D0B
->Track not present in AccurateRip database.
Statistics
Read error : 0
Jitter error (maybe fixed) : 0
Retry sector count : 0
Damaged sector count : 0

Track 21
Filename : /Users/rips/The 1953-1962 Albums - Frank Sinatra (2019) {New Continent 648046} [FLAC-CD]/Disc 01/21. Frank Sinatra - Someone To Watch Over Me.flac

Track gain : -6.39 dB
Peak : 0.922516
CRC32 hash (test run) : 7F792F18
CRC32 hash : 7F792F18
CRC32 hash (skip zero) : 56BC0618
AccurateRip v1 signature : 97E6836E
AccurateRip v2 signature : 65812E9A
->Track not present in AccurateRip database.
Statistics
Read error : 0
Jitter error (maybe fixed) : 0
Retry sector count : 0
Damaged sector count : 0

Track 22
Filename : /Users/rips/The 1953-1962 Albums - Frank Sinatra (2019) {New Continent 648046} [FLAC-CD]/Disc 01/22. Frank Sinatra - My One And Only Love.flac

Track gain : -6.25 dB
Peak : 0.922699
CRC32 hash (test run) : C263C1FE
CRC32 hash : C263C1FE
CRC32 hash (skip zero) : 9040728C
AccurateRip v1 signature : 8B9E2128
AccurateRip v2 signature : C92648A3
->Track not present in AccurateRip database.
Statistics
Read error : 0
Jitter error (maybe fixed) : 0
Retry sector count : 0
Damaged sector count : 0

Track 23
Filename : /Users/rips/The 1953-1962 Albums - Frank Sinatra (2019) {New Continent 648046} [FLAC-CD]/Disc 01/23. Frank Sinatra - It Worries Me.flac

Track gain : -5.40 dB
Peak : 0.922729
CRC32 hash (test run) : 815E0645
CRC32 hash : 815E0645
CRC32 hash (skip zero) : 7D9E7099
AccurateRip v1 signature : 4D2BBAD4
AccurateRip v2 signature : A88C3626
->Track not present in AccurateRip database.
Statistics
Read error : 0
Jitter error (maybe fixed) : 0
Retry sector count : 0
Damaged sector count : 0

Track 24
Filename : /Users/rips/The 1953-1962 Albums - Frank Sinatra (2019) {New Continent 648046} [FLAC-CD]/Disc 01/24. Frank Sinatra - I Can Read Between The Lines.flac

Track gain : -5.53 dB
Peak : 0.922699
CRC32 hash (test run) : C62739CC
CRC32 hash : C62739CC
CRC32 hash (skip zero) : 878BA718
AccurateRip v1 signature : 78086233
AccurateRip v2 signature : D00094EF
->Track not present in AccurateRip database.
Statistics
Read error : 0
Jitter error (maybe fixed) : 0
Retry sector count : 0
Damaged sector count : 0

Track 25
Filename : /Users/rips/The 1953-1962 Albums - Frank Sinatra (2019) {New Continent 648046} [FLAC-CD]/Disc 01/25. Frank Sinatra - Take A Chance.flac

Track gain : -8.99 dB
Peak : 0.922852
CRC32 hash (test run) : 972B5AC4
CRC32 hash : 972B5AC4
CRC32 hash (skip zero) : FC050894
AccurateRip v1 signature : 1B0930F8
AccurateRip v2 signature : 147B7A2A
->Track not present in AccurateRip database.
Statistics
Read error : 0
Jitter error (maybe fixed) : 0
Retry sector count : 0
Damaged sector count : 0

Track 26
Filename : /Users/rips/The 1953-1962 Albums - Frank Sinatra (2019) {New Continent 648046} [FLAC-CD]/Disc 01/26. Frank Sinatra - You're Cheatin Yourself (If You're Cheatin On Me).flac

Track gain : -9.50 dB
Peak : 0.922852
CRC32 hash (test run) : 3BE3F42C
CRC32 hash : 3BE3F42C
CRC32 hash (skip zero) : 5DF6DFE8
AccurateRip v1 signature : 97AF729F
AccurateRip v2 signature : D9AEA1E7
->Track not present in AccurateRip database.
Statistics
Read error : 0
Jitter error (maybe fixed) : 0
Retry sector count : 0
Damaged sector count : 0

Track 27
Filename : /Users/rips/The 1953-1962 Albums - Frank Sinatra (2019) {New Continent 648046} [FLAC-CD]/Disc 01/27. Frank Sinatra - Time After Time.flac

Track gain : -7.07 dB
Peak : 0.922821
CRC32 hash (test run) : 13BC762C
CRC32 hash : 13BC762C
CRC32 hash (skip zero) : 0062B56D
AccurateRip v1 signature : 63869B94
AccurateRip v2 signature : 4CE4E06B
->Track not present in AccurateRip database.
Statistics
Read error : 0
Jitter error (maybe fixed) : 0
Retry sector count : 0
Damaged sector count : 0

Track 28
Filename : /Users/rips/The 1953-1962 Albums - Frank Sinatra (2019) {New Continent 648046} [FLAC-CD]/Disc 01/28. Frank Sinatra - The Lady Is A Tramp.flac

Track gain : -6.75 dB
Peak : 0.922821
CRC32 hash (test run) : AB1179DD
CRC32 hash : AB1179DD
CRC32 hash (skip zero) : 9664CF2A
AccurateRip v1 signature : 430EF423
AccurateRip v2 signature : F945D3AA
->Track not present in AccurateRip database.
Statistics
Read error : 0
Jitter error (maybe fixed) : 0
Retry sector count : 0
Damaged sector count : 0

No errors occurred

End of status report

––-BEGIN XLD SIGNATURE––-
iywF1H__ptRQISWS7zG2LsS.ag1zmwKN3eO5ZW2hauxecMJtaj2qLCBavWYZDEgda1bOfCvou1zn.uB6jAM3FC_yMp4OYrBb8fmaKiW
––-END XLD SIGNATURE––-
X Lossless Decoder version 20170729 (150.3)

XLD extraction logfile from 2019-04-08 12:39:59 -0600

Frank Sinatra / The 1953-1962 Albums

Used drive : Optiarc DVD RW AD-7580S (revision FX02)
Media type : Pressed CD

Ripper mode : XLD Secure Ripper
Disable audio cache : OK for the drive with a cache less than 1375KiB
Make use of C2 pointers : NO
Read offset correction : 6
Max retry count : 100
Gap status : Analyzed, Appended (except HTOA)

TOC of the extracted CD
Track | Start | Length | Start sector | End sector
––––––––––––––––––––––––––––-
1 | 00:00:00 | 02:35:29 | 0 | 11653
2 | 02:35:29 | 02:43:41 | 11654 | 23919
3 | 05:18:70 | 02:29:57 | 23920 | 35151
4 | 07:48:52 | 02:31:26 | 35152 | 46502
5 | 10:20:03 | 02:38:17 | 46503 | 58369
6 | 12:58:20 | 02:47:56 | 58370 | 70950
7 | 15:46:01 | 02:01:02 | 70951 | 80027
8 | 17:47:03 | 03:30:06 | 80028 | 95783
9 | 21:17:09 | 03:09:57 | 95784 | 110015
10 | 24:26:66 | 02:51:48 | 110016 | 122888
11 | 27:18:39 | 02:47:24 | 122889 | 135437
12 | 30:05:63 | 02:12:05 | 135438 | 145342
13 | 32:17:68 | 03:20:61 | 145343 | 160403
14 | 35:38:54 | 03:22:39 | 160404 | 175592
15 | 39:01:18 | 02:31:02 | 175593 | 186919
16 | 41:32:20 | 03:33:49 | 186920 | 202943
17 | 45:05:69 | 04:38:36 | 202944 | 223829
18 | 49:44:30 | 03:31:04 | 223830 | 239658
19 | 53:15:34 | 02:12:57 | 239659 | 249615
20 | 55:28:16 | 02:52:26 | 249616 | 262541
21 | 58:20:42 | 03:32:02 | 262542 | 278443
22 | 61:52:44 | 02:57:46 | 278444 | 291764
23 | 64:50:15 | 02:45:19 | 291765 | 304158
24 | 67:35:34 | 03:51:35 | 304159 | 321518
25 | 71:26:69 | 02:38:50 | 321519 | 333418
26 | 74:05:44 | 02:58:26 | 333419 | 346794
27 | 77:03:70 | 02:25:27 | 346795 | 357696

AccurateRip Summary
Disc not found in AccurateRip DB.

All Tracks
Album gain : -4.01 dB
Peak : 0.989899
Statistics
Read error : 0
Jitter error (maybe fixed) : 0
Retry sector count : 0
Damaged sector count : 0

Track 01
Filename : /Users/rips/The 1953-1962 Albums - Frank Sinatra (2019) {New Continent 648046} [FLAC-CD]/Disc 05/01. Frank Sinatra - Come Dance With Me.flac
Pre-gap length : 00:02:00

Track gain : -3.54 dB
Peak : 0.806122
CRC32 hash (test run) : 9051E2B7
CRC32 hash : 9051E2B7
CRC32 hash (skip zero) : 305B953A
AccurateRip v1 signature : 49359EE7
AccurateRip v2 signature : 923808B2
->Track not present in AccurateRip database.
Statistics
Read error : 0
Jitter error (maybe fixed) : 0
Retry sector count : 0
Damaged sector count : 0

Track 02
Filename : /Users/rips/The 1953-1962 Albums - Frank Sinatra (2019) {New Continent 648046} [FLAC-CD]/Disc 05/02. Frank Sinatra - Something's Gotta Give.flac

Track gain : -4.67 dB
Peak : 0.950958
CRC32 hash (test run) : 3A1FF20D
CRC32 hash : 3A1FF20D
CRC32 hash (skip zero) : 54CB3FC5
AccurateRip v1 signature : B9FEDB87
AccurateRip v2 signature : 7F370992
->Track not present in AccurateRip database.
Statistics
Read error : 0
Jitter error (maybe fixed) : 0
Retry sector count : 0
Damaged sector count : 0

Track 03
Filename : /Users/rips/The 1953-1962 Albums - Frank Sinatra (2019) {New Continent 648046} [FLAC-CD]/Disc 05/03. Frank Sinatra - Just In Time.flac

Track gain : -5.69 dB
Peak : 0.989899
CRC32 hash (test run) : 919941C3
CRC32 hash : 919941C3
CRC32 hash (skip zero) : E86313A3
AccurateRip v1 signature : A75778C8
AccurateRip v2 signature : CE2E9DFF
->Track not present in AccurateRip database.
Statistics
Read error : 0
Jitter error (maybe fixed) : 0
Retry sector count : 0
Damaged sector count : 0

Track 04
Filename : /Users/rips/The 1953-1962 Albums - Frank Sinatra (2019) {New Continent 648046} [FLAC-CD]/Disc 05/04. Frank Sinatra - Dancing In The Dark.flac

Track gain : -3.62 dB
Peak : 0.881439
CRC32 hash (test run) : 9C716F61
CRC32 hash : 9C716F61
CRC32 hash (skip zero) : A3178D0A
AccurateRip v1 signature : 8089152D
AccurateRip v2 signature : F9BF0DD8
->Track not present in AccurateRip database.
Statistics
Read error : 0
Jitter error (maybe fixed) : 0
Retry sector count : 0
Damaged sector count : 0

Track 05
Filename : /Users/rips/The 1953-1962 Albums - Frank Sinatra (2019) {New Continent 648046} [FLAC-CD]/Disc 05/05. Frank Sinatra - Too Close For Comfort.flac

Track gain : -5.15 dB
Peak : 0.913818
CRC32 hash (test run) : 19E8863B
CRC32 hash : 19E8863B
CRC32 hash (skip zero) : 48323F55
AccurateRip v1 signature : 063190C0
AccurateRip v2 signature : F7E4AE23
->Track not present in AccurateRip database.
Statistics
Read error : 0
Jitter error (maybe fixed) : 0
Retry sector count : 0
Damaged sector count : 0

Track 06
Filename : /Users/rips/The 1953-1962 Albums - Frank Sinatra (2019) {New Continent 648046} [FLAC-CD]/Disc 05/06. Frank Sinatra - I Could Have Danced All Night.flac

Track gain : -3.64 dB
Peak : 0.895660
CRC32 hash (test run) : 40CF4F33
CRC32 hash : 40CF4F33
CRC32 hash (skip zero) : F10E26B1
AccurateRip v1 signature : 01E554A5
AccurateRip v2 signature : 38782A9A
->Track not present in AccurateRip database.
Statistics
Read error : 0
Jitter error (maybe fixed) : 0
Retry sector count : 0
Damaged sector count : 0

Track 07
Filename : /Users/rips/The 1953-1962 Albums - Frank Sinatra (2019) {New Continent 648046} [FLAC-CD]/Disc 05/07. Frank Sinatra - Saturday Night (Is The Loneliest Night Of The Week).flac

Track gain : -4.38 dB
Peak : 0.908112
CRC32 hash (test run) : 97B86F47
CRC32 hash : 97B86F47
CRC32 hash (skip zero) : 14878809
AccurateRip v1 signature : 7E47251E
AccurateRip v2 signature : BCD13280
->Track not present in AccurateRip database.
Statistics
Read error : 0
Jitter error (maybe fixed) : 0
Retry sector count : 0
Damaged sector count : 0

Track 08
Filename : /Users/rips/The 1953-1962 Albums - Frank Sinatra (2019) {New Continent 648046} [FLAC-CD]/Disc 05/08. Frank Sinatra - Day In, Day Out.flac

Track gain : -4.48 dB
Peak : 0.965302
CRC32 hash (test run) : A7F9A4DD
CRC32 hash : A7F9A4DD
CRC32 hash (skip zero) : 195D2630
AccurateRip v1 signature : D16AF576
AccurateRip v2 signature : C2E6D207
->Track not present in AccurateRip database.
Statistics
Read error : 0
Jitter error (maybe fixed) : 0
Retry sector count : 0
Damaged sector count : 0

Track 09
Filename : /Users/rips/The 1953-1962 Albums - Frank Sinatra (2019) {New Continent 648046} [FLAC-CD]/Disc 05/09. Frank Sinatra - Cheek To Cheek.flac

Track gain : -3.14 dB
Peak : 0.846619
CRC32 hash (test run) : 60CB5B74
CRC32 hash : 60CB5B74
CRC32 hash (skip zero) : DCDF5671
AccurateRip v1 signature : C733A14B
AccurateRip v2 signature : 0EBE2606
->Track not present in AccurateRip database.
Statistics
Read error : 0
Jitter error (maybe fixed) : 0
Retry sector count : 0
Damaged sector count : 0

Track 10
Filename : /Users/rips/The 1953-1962 Albums - Frank Sinatra (2019) {New Continent 648046} [FLAC-CD]/Disc 05/10. Frank Sinatra - Baubles, Bangles And Beads.flac

Track gain : -2.99 dB
Peak : 0.934448
CRC32 hash (test run) : C67A7A3E
CRC32 hash : C67A7A3E
CRC32 hash (skip zero) : 71B7D7DF
AccurateRip v1 signature : E7E8E107
AccurateRip v2 signature : EF6C9A7E
->Track not present in AccurateRip database.
Statistics
Read error : 0
Jitter error (maybe fixed) : 0
Retry sector count : 0
Damaged sector count : 0

Track 11
Filename : /Users/rips/The 1953-1962 Albums - Frank Sinatra (2019) {New Continent 648046} [FLAC-CD]/Disc 05/11. Frank Sinatra - The Song Is You.flac

Track gain : -3.80 dB
Peak : 0.923981
CRC32 hash (test run) : 220F0AD0
CRC32 hash : 220F0AD0
CRC32 hash (skip zero) : 087A2C5B
AccurateRip v1 signature : F58CB9E6
AccurateRip v2 signature : 44BED3A7
->Track not present in AccurateRip database.
Statistics
Read error : 0
Jitter error (maybe fixed) : 0
Retry sector count : 0
Damaged sector count : 0

Track 12
Filename : /Users/rips/The 1953-1962 Albums - Frank Sinatra (2019) {New Continent 648046} [FLAC-CD]/Disc 05/12. Frank Sinatra - The Last Dance.flac

Track gain : -1.13 dB
Peak : 0.745178
CRC32 hash (test run) : 754A05F6
CRC32 hash : 754A05F6
CRC32 hash (skip zero) : 456D8E47
AccurateRip v1 signature : 4034F157
AccurateRip v2 signature : 4DAC4FA5
->Track not present in AccurateRip database.
Statistics
Read error : 0
Jitter error (maybe fixed) : 0
Retry sector count : 0
Damaged sector count : 0

Track 13
Filename : /Users/rips/The 1953-1962 Albums - Frank Sinatra (2019) {New Continent 648046} [FLAC-CD]/Disc 05/13. Frank Sinatra - Come Fly With Me.flac

Track gain : -4.54 dB
Peak : 0.812134
CRC32 hash (test run) : 435E8C33
CRC32 hash : 435E8C33
CRC32 hash (skip zero) : 9B88690C
AccurateRip v1 signature : E1AADF14
AccurateRip v2 signature : 77BD51A4
->Track not present in AccurateRip database.
Statistics
Read error : 0
Jitter error (maybe fixed) : 0
Retry sector count : 0
Damaged sector count : 0

Track 14
Filename : /Users/rips/The 1953-1962 Albums - Frank Sinatra (2019) {New Continent 648046} [FLAC-CD]/Disc 05/14. Frank Sinatra - Around The World.flac

Track gain : -1.87 dB
Peak : 0.640747
CRC32 hash (test run) : A34C96B2
CRC32 hash : A34C96B2
CRC32 hash (skip zero) : 4CD6A7DB
AccurateRip v1 signature : A28F7B93
AccurateRip v2 signature : 0EE1BFEA
->Track not present in AccurateRip database.
Statistics
Read error : 0
Jitter error (maybe fixed) : 0
Retry sector count : 0
Damaged sector count : 0

Track 15
Filename : /Users/rips/The 1953-1962 Albums - Frank Sinatra (2019) {New Continent 648046} [FLAC-CD]/Disc 05/15. Frank Sinatra - Isle Of Capri.flac

Track gain : -4.53 dB
Peak : 0.876190
CRC32 hash (test run) : 5BE1465C
CRC32 hash : 5BE1465C
CRC32 hash (skip zero) : 980DF608
AccurateRip v1 signature : D302EA9F
AccurateRip v2 signature : DC7006BC
->Track not present in AccurateRip database.
Statistics
Read error : 0
Jitter error (maybe fixed) : 0
Retry sector count : 0
Damaged sector count : 0

Track 16
Filename : /Users/rips/The 1953-1962 Albums - Frank Sinatra (2019) {New Continent 648046} [FLAC-CD]/Disc 05/16. Frank Sinatra - Moonlight In Vermont.flac

Track gain : 1.23 dB
Peak : 0.696747
CRC32 hash (test run) : 5534C968
CRC32 hash : 5534C968
CRC32 hash (skip zero) : F2FF115E
AccurateRip v1 signature : 50C56F13
AccurateRip v2 signature : B7A38919
->Track not present in AccurateRip database.
Statistics
Read error : 0
Jitter error (maybe fixed) : 0
Retry sector count : 0
Damaged sector count : 0

Track 17
Filename : /Users/rips/The 1953-1962 Albums - Frank Sinatra (2019) {New Continent 648046} [FLAC-CD]/Disc 05/17. Frank Sinatra - Autumn In New York.flac

Track gain : -0.25 dB
Peak : 0.709259
CRC32 hash (test run) : 0B9F40A4
CRC32 hash : 0B9F40A4
CRC32 hash (skip zero) : 8566252B
AccurateRip v1 signature : 78556F26
AccurateRip v2 signature : 2D4C3226
->Track not present in AccurateRip database.
Statistics
Read error : 0
Jitter error (maybe fixed) : 0
Retry sector count : 0
Damaged sector count : 0

Track 18
Filename : /Users/rips/The 1953-1962 Albums - Frank Sinatra (2019) {New Continent 648046} [FLAC-CD]/Disc 05/18. Frank Sinatra - On The Road To Mandalay.flac

Track gain : -4.76 dB
Peak : 0.844299
CRC32 hash (test run) : 014B90DD
CRC32 hash : 014B90DD
CRC32 hash (skip zero) : 8AB37C33
AccurateRip v1 signature : 3D8413CE
AccurateRip v2 signature : EB4639E0
->Track not present in AccurateRip database.
Statistics
Read error : 0
Jitter error (maybe fixed) : 0
Retry sector count : 0
Damaged sector count : 0

Track 19
Filename : /Users/rips/The 1953-1962 Albums - Frank Sinatra (2019) {New Continent 648046} [FLAC-CD]/Disc 05/19. Frank Sinatra - Let's Get Away From It All.flac

Track gain : -4.81 dB
Peak : 0.813507
CRC32 hash (test run) : 210DF28A
CRC32 hash : 210DF28A
CRC32 hash (skip zero) : 6592A35F
AccurateRip v1 signature : 122568B0
AccurateRip v2 signature : 345DAD53
->Track not present in AccurateRip database.
Statistics
Read error : 0
Jitter error (maybe fixed) : 0
Retry sector count : 0
Damaged sector count : 0

Track 20
Filename : /Users/rips/The 1953-1962 Albums - Frank Sinatra (2019) {New Continent 648046} [FLAC-CD]/Disc 05/20. Frank Sinatra - April In Paris.flac

Track gain : -3.06 dB
Peak : 0.787445
CRC32 hash (test run) : 8D977C17
CRC32 hash : 8D977C17
CRC32 hash (skip zero) : 4EF4E155
AccurateRip v1 signature : 300EE58B
AccurateRip v2 signature : 4D0D3262
->Track not present in AccurateRip database.
Statistics
Read error : 0
Jitter error (maybe fixed) : 0
Retry sector count : 0
Damaged sector count : 0

Track 21
Filename : /Users/rips/The 1953-1962 Albums - Frank Sinatra (2019) {New Continent 648046} [FLAC-CD]/Disc 05/21. Frank Sinatra - London By Night.flac

Track gain : 0.26 dB
Peak : 0.732056
CRC32 hash (test run) : E147B1ED
CRC32 hash : E147B1ED
CRC32 hash (skip zero) : 3B0B4DAE
AccurateRip v1 signature : 281081C2
AccurateRip v2 signature : 727EC418
->Track not present in AccurateRip database.
Statistics
Read error : 0
Jitter error (maybe fixed) : 0
Retry sector count : 0
Damaged sector count : 0

Track 22
Filename : /Users/rips/The 1953-1962 Albums - Frank Sinatra (2019) {New Continent 648046} [FLAC-CD]/Disc 05/22. Frank Sinatra - Brazil.flac

Track gain : -4.79 dB
Peak : 0.824890
CRC32 hash (test run) : 2ECBFA4B
CRC32 hash : 2ECBFA4B
CRC32 hash (skip zero) : 8066F942
AccurateRip v1 signature : 6FECDECF
AccurateRip v2 signature : 58F83FFB
->Track not present in AccurateRip database.
Statistics
Read error : 0
Jitter error (maybe fixed) : 0
Retry sector count : 0
Damaged sector count : 0

Track 23
Filename : /Users/rips/The 1953-1962 Albums - Frank Sinatra (2019) {New Continent 648046} [FLAC-CD]/Disc 05/23. Frank Sinatra - Blue Hawaii.flac

Track gain : 0.03 dB
Peak : 0.676361
CRC32 hash (test run) : 31815D8B
CRC32 hash : 31815D8B
CRC32 hash (skip zero) : D4BC4D78
AccurateRip v1 signature : CE80DC68
AccurateRip v2 signature : 62279538
->Track not present in AccurateRip database.
Statistics
Read error : 0
Jitter error (maybe fixed) : 0
Retry sector count : 0
Damaged sector count : 0

Track 24
Filename : /Users/rips/The 1953-1962 Albums - Frank Sinatra (2019) {New Continent 648046} [FLAC-CD]/Disc 05/24. Frank Sinatra - It's Nice To Go Trav'ling.flac

Track gain : -5.29 dB
Peak : 0.876007
CRC32 hash (test run) : 2BB64375
CRC32 hash : 2BB64375
CRC32 hash (skip zero) : 9D330207
AccurateRip v1 signature : 402684F1
AccurateRip v2 signature : 03C6C082
->Track not present in AccurateRip database.
Statistics
Read error : 0
Jitter error (maybe fixed) : 0
Retry sector count : 0
Damaged sector count : 0

Track 25
Filename : /Users/rips/The 1953-1962 Albums - Frank Sinatra (2019) {New Continent 648046} [FLAC-CD]/Disc 05/25. Frank Sinatra - Nothing In Common.flac

Track gain : -2.56 dB
Peak : 0.688080
CRC32 hash (test run) : FDBC5E87
CRC32 hash : FDBC5E87
CRC32 hash (skip zero) : BBFC34C4
AccurateRip v1 signature : 1DF4CE68
AccurateRip v2 signature : 219D18D6
->Track not present in AccurateRip database.
Statistics
Read error : 0
Jitter error (maybe fixed) : 0
Retry sector count : 0
Damaged sector count : 0

Track 26
Filename : /Users/rips/The 1953-1962 Albums - Frank Sinatra (2019) {New Continent 648046} [FLAC-CD]/Disc 05/26. Frank Sinatra - Same Old Song And Dance.flac

Track gain : -3.33 dB
Peak : 0.772278
CRC32 hash (test run) : CBF19A17
CRC32 hash : CBF19A17
CRC32 hash (skip zero) : C97B529B
AccurateRip v1 signature : C8568EE8
AccurateRip v2 signature : 74554AD0
->Track not present in AccurateRip database.
Statistics
Read error : 0
Jitter error (maybe fixed) : 0
Retry sector count : 0
Damaged sector count : 0

Track 27
Filename : /Users/rips/The 1953-1962 Albums - Frank Sinatra (2019) {New Continent 648046} [FLAC-CD]/Disc 05/27. Frank Sinatra - How Are Ya' Fixed For Love.flac

Track gain : -5.00 dB
Peak : 0.791382
CRC32 hash (test run) : A0AE47FD
CRC32 hash : A0AE47FD
CRC32 hash (skip zero) : 954B68ED
AccurateRip v1 signature : B1DCFB4F
AccurateRip v2 signature : 526BF3F1
->Track not present in AccurateRip database.
Statistics
Read error : 0
Jitter error (maybe fixed) : 0
Retry sector count : 0
Damaged sector count : 0

No errors occurred

End of status report

––-BEGIN XLD SIGNATURE––-
4pphG4dvacyh1_.8izK26WXAXSxJS057rQ6JYaJWOuFRQ_ZKVyVHuyLC_1nWMKhMiapM7147kFl1BEEEN7vzQCWs.tVtMYtEAvuRqpe
––-END XLD SIGNATURE––-
X Lossless Decoder version 20170729 (150.3)

XLD extraction logfile from 2019-04-08 15:54:00 -0600

Frank Sinatra / The 1953-1962 Albums

Used drive : Optiarc DVD RW AD-7580S (revision FX02)
Media type : Pressed CD

Ripper mode : XLD Secure Ripper
Disable audio cache : OK for the drive with a cache less than 1375KiB
Make use of C2 pointers : NO
Read offset correction : 6
Max retry count : 100
Gap status : Analyzed, Appended (except HTOA)

TOC of the extracted CD
Track | Start | Length | Start sector | End sector
––––––––––––––––––––––––––––-
1 | 00:00:00 | 03:36:17 | 0 | 16216
2 | 03:36:17 | 03:17:23 | 16217 | 31014
3 | 06:53:40 | 04:09:60 | 31015 | 49749
4 | 11:03:25 | 02:53:02 | 49750 | 62726
5 | 13:56:27 | 03:23:58 | 62727 | 78009
6 | 17:20:10 | 03:03:42 | 78010 | 91776
7 | 20:23:52 | 03:56:60 | 91777 | 109536
8 | 24:20:37 | 03:26:28 | 109537 | 125014
9 | 27:46:65 | 03:22:05 | 125015 | 140169
10 | 31:08:70 | 03:46:45 | 140170 | 157164
11 | 34:55:40 | 03:18:29 | 157165 | 172043
12 | 38:13:69 | 03:30:54 | 172044 | 187847
13 | 41:44:48 | 02:43:64 | 187848 | 200136
14 | 44:28:37 | 02:37:57 | 200137 | 211968
15 | 47:06:19 | 02:31:74 | 211969 | 223367
16 | 49:38:18 | 04:37:15 | 223368 | 244157
17 | 54:15:33 | 03:31:29 | 244158 | 260011
18 | 57:46:62 | 02:37:58 | 260012 | 271844
19 | 60:24:45 | 04:26:43 | 271845 | 291837
20 | 64:51:13 | 02:36:12 | 291838 | 303549
21 | 67:27:25 | 04:06:71 | 303550 | 322070

AccurateRip Summary
Disc not found in AccurateRip DB.

All Tracks
Album gain : -5.15 dB
Peak : 1.000000
Statistics
Read error : 0
Jitter error (maybe fixed) : 0
Retry sector count : 0
Damaged sector count : 0

Track 01
Filename : /Users/rips/The 1953-1962 Albums - Frank Sinatra (2019) {New Continent 648046} [FLAC-CD]/Disc 10/01. Frank Sinatra - The Very Thought Of You.flac
Pre-gap length : 00:02:00

Track gain : -1.86 dB
Peak : 0.865021
CRC32 hash (test run) : F7D92503
CRC32 hash : F7D92503
CRC32 hash (skip zero) : 33604C47
AccurateRip v1 signature : 52FF39CB
AccurateRip v2 signature : 3A283AA8
->Track not present in AccurateRip database.
Statistics
Read error : 0
Jitter error (maybe fixed) : 0
Retry sector count : 0
Damaged sector count : 0

Track 02
Filename : /Users/rips/The 1953-1962 Albums - Frank Sinatra (2019) {New Continent 648046} [FLAC-CD]/Disc 10/02. Frank Sinatra - We'll Gather Lilacs In The Spring.flac

Track gain : -3.36 dB
Peak : 0.785187
CRC32 hash (test run) : 97759CCE
CRC32 hash : 97759CCE
CRC32 hash (skip zero) : B1CBF897
AccurateRip v1 signature : D41DF2BF
AccurateRip v2 signature : 967424E8
->Track not present in AccurateRip database.
Statistics
Read error : 0
Jitter error (maybe fixed) : 0
Retry sector count : 0
Damaged sector count : 0

Track 03
Filename : /Users/rips/The 1953-1962 Albums - Frank Sinatra (2019) {New Continent 648046} [FLAC-CD]/Disc 10/03. Frank Sinatra - If I Had You.flac

Track gain : -0.24 dB
Peak : 0.780151
CRC32 hash (test run) : 56C180D2
CRC32 hash : 56C180D2
CRC32 hash (skip zero) : D7C5D94D
AccurateRip v1 signature : 47110624
AccurateRip v2 signature : D252AABE
->Track not present in AccurateRip database.
Statistics
Read error : 0
Jitter error (maybe fixed) : 0
Retry sector count : 0
Damaged sector count : 0

Track 04
Filename : /Users/rips/The 1953-1962 Albums - Frank Sinatra (2019) {New Continent 648046} [FLAC-CD]/Disc 10/04. Frank Sinatra - Now Is The Hour.flac

Track gain : -2.32 dB
Peak : 0.926575
CRC32 hash (test run) : 93C1AD68
CRC32 hash : 93C1AD68
CRC32 hash (skip zero) : 57E13BC7
AccurateRip v1 signature : 5664F647
AccurateRip v2 signature : 3640574E
->Track not present in AccurateRip database.
Statistics
Read error : 0
Jitter error (maybe fixed) : 0
Retry sector count : 0
Damaged sector count : 0

Track 05
Filename : /Users/rips/The 1953-1962 Albums - Frank Sinatra (2019) {New Continent 648046} [FLAC-CD]/Disc 10/05. Frank Sinatra - The Gypsy.flac

Track gain : -3.76 dB
Peak : 0.948273
CRC32 hash (test run) : FF36F27C
CRC32 hash : FF36F27C
CRC32 hash (skip zero) : D866E6EB
AccurateRip v1 signature : 58698E5B
AccurateRip v2 signature : 6081AC89
->Track not present in AccurateRip database.
Statistics
Read error : 0
Jitter error (maybe fixed) : 0
Retry sector count : 0
Damaged sector count : 0

Track 06
Filename : /Users/rips/The 1953-1962 Albums - Frank Sinatra (2019) {New Continent 648046} [FLAC-CD]/Disc 10/06. Frank Sinatra - Roses Of Picardy.flac

Track gain : -4.49 dB
Peak : 0.891174
CRC32 hash (test run) : C66BFF9C
CRC32 hash : C66BFF9C
CRC32 hash (skip zero) : F74B6AC8
AccurateRip v1 signature : 0AB9F037
AccurateRip v2 signature : D2991EAD
->Track not present in AccurateRip database.
Statistics
Read error : 0
Jitter error (maybe fixed) : 0
Retry sector count : 0
Damaged sector count : 0

Track 07
Filename : /Users/rips/The 1953-1962 Albums - Frank Sinatra (2019) {New Continent 648046} [FLAC-CD]/Disc 10/07. Frank Sinatra - A Nightingale Sang In Berkeley Square.flac

Track gain : -2.87 dB
Peak : 0.791016
CRC32 hash (test run) : A50AEC02
CRC32 hash : A50AEC02
CRC32 hash (skip zero) : EFF7133D
AccurateRip v1 signature : 09817ECF
AccurateRip v2 signature : A1D88187
->Track not present in AccurateRip database.
Statistics
Read error : 0
Jitter error (maybe fixed) : 0
Retry sector count : 0
Damaged sector count : 0

Track 08
Filename : /Users/rips/The 1953-1962 Albums - Frank Sinatra (2019) {New Continent 648046} [FLAC-CD]/Disc 10/08. Frank Sinatra - A Garden In The Rain.flac

Track gain : -4.57 dB
Peak : 1.000000
CRC32 hash (test run) : D5242016
CRC32 hash : D5242016
CRC32 hash (skip zero) : BEDFF1AB
AccurateRip v1 signature : 491C9B81
AccurateRip v2 signature : 4974E6DD
->Track not present in AccurateRip database.
Statistics
Read error : 0
Jitter error (maybe fixed) : 0
Retry sector count : 0
Damaged sector count : 0

Track 09
Filename : /Users/rips/The 1953-1962 Albums - Frank Sinatra (2019) {New Continent 648046} [FLAC-CD]/Disc 10/09. Frank Sinatra - London By Night.flac

Track gain : -2.57 dB
Peak : 0.873199
CRC32 hash (test run) : 1B6B61DE
CRC32 hash : 1B6B61DE
CRC32 hash (skip zero) : 5A8F829E
AccurateRip v1 signature : DF154CF3
AccurateRip v2 signature : 42CA62D1
->Track not present in AccurateRip database.
Statistics
Read error : 0
Jitter error (maybe fixed) : 0
Retry sector count : 0
Damaged sector count : 0

Track 10
Filename : /Users/rips/The 1953-1962 Albums - Frank Sinatra (2019) {New Continent 648046} [FLAC-CD]/Disc 10/10. Frank Sinatra - We'll Meet Again.flac

Track gain : -1.37 dB
Peak : 0.664581
CRC32 hash (test run) : 5386EB28
CRC32 hash : 5386EB28
CRC32 hash (skip zero) : CDDF52C0
AccurateRip v1 signature : 1C09A0CB
AccurateRip v2 signature : 0FFD1EDD
->Track not present in AccurateRip database.
Statistics
Read error : 0
Jitter error (maybe fixed) : 0
Retry sector count : 0
Damaged sector count : 0

Track 11
Filename : /Users/rips/The 1953-1962 Albums - Frank Sinatra (2019) {New Continent 648046} [FLAC-CD]/Disc 10/11. Frank Sinatra - I'll Follow My Secret Heary.flac

Track gain : -1.81 dB
Peak : 0.797821
CRC32 hash (test run) : 44DA3EFC
CRC32 hash : 44DA3EFC
CRC32 hash (skip zero) : 87BFEFE9
AccurateRip v1 signature : 687C2663
AccurateRip v2 signature : 8B34AFF2
->Track not present in AccurateRip database.
Statistics
Read error : 0
Jitter error (maybe fixed) : 0
Retry sector count : 0
Damaged sector count : 0

Track 12
Filename : /Users/rips/The 1953-1962 Albums - Frank Sinatra (2019) {New Continent 648046} [FLAC-CD]/Disc 10/12. Frank Sinatra - Pennies From Heaven.flac

Track gain : -5.98 dB
Peak : 1.000000
CRC32 hash (test run) : E6F35CF9
CRC32 hash : E6F35CF9
CRC32 hash (skip zero) : 3BF903DA
AccurateRip v1 signature : B8424DEB
AccurateRip v2 signature : 3C15AFF5
->Track not present in AccurateRip database.
Statistics
Read error : 0
Jitter error (maybe fixed) : 0
Retry sector count : 0
Damaged sector count : 0

Track 13
Filename : /Users/rips/The 1953-1962 Albums - Frank Sinatra (2019) {New Continent 648046} [FLAC-CD]/Disc 10/13. Frank Sinatra - Please Be Kind.flac

Track gain : -6.28 dB
Peak : 0.691895
CRC32 hash (test run) : 80A182D4
CRC32 hash : 80A182D4
CRC32 hash (skip zero) : 97E40A29
AccurateRip v1 signature : 8EF57455
AccurateRip v2 signature : EEB62B7B
->Track not present in AccurateRip database.
Statistics
Read error : 0
Jitter error (maybe fixed) : 0
Retry sector count : 0
Damaged sector count : 0

Track 14
Filename : /Users/rips/The 1953-1962 Albums - Frank Sinatra (2019) {New Continent 648046} [FLAC-CD]/Disc 10/14. Frank Sinatra - (Love Is) The Tender Trap.flac

Track gain : -4.83 dB
Peak : 1.000000
CRC32 hash (test run) : 68AAB702
CRC32 hash : 68AAB702
CRC32 hash (skip zero) : 5824EADB
AccurateRip v1 signature : 0256B410
AccurateRip v2 signature : 835C4AC7
->Track not present in AccurateRip database.
Statistics
Read error : 0
Jitter error (maybe fixed) : 0
Retry sector count : 0
Damaged sector count : 0

Track 15
Filename : /Users/rips/The 1953-1962 Albums - Frank Sinatra (2019) {New Continent 648046} [FLAC-CD]/Disc 10/15. Frank Sinatra - Looking At The World Thru Rose Colored Glasses.flac

Track gain : -8.11 dB
Peak : 1.000000
CRC32 hash (test run) : 52A7B39D
CRC32 hash : 52A7B39D
CRC32 hash (skip zero) : 77D997CC
AccurateRip v1 signature : 34A335C4
AccurateRip v2 signature : 8BDEA056
->Track not present in AccurateRip database.
Statistics
Read error : 0
Jitter error (maybe fixed) : 0
Retry sector count : 0
Damaged sector count : 0

Track 16
Filename : /Users/rips/The 1953-1962 Albums - Frank Sinatra (2019) {New Continent 648046} [FLAC-CD]/Disc 10/16. Frank Sinatra - My Kind Of Girl.flac

Track gain : -4.79 dB
Peak : 1.000000
CRC32 hash (test run) : 0308DD29
CRC32 hash : 0308DD29
CRC32 hash (skip zero) : E4E357A5
AccurateRip v1 signature : 1A4EA32B
AccurateRip v2 signature : 91BB0E3E
->Track not present in AccurateRip database.
Statistics
Read error : 0
Jitter error (maybe fixed) : 0
Retry sector count : 0
Damaged sector count : 0

Track 17
Filename : /Users/rips/The 1953-1962 Albums - Frank Sinatra (2019) {New Continent 648046} [FLAC-CD]/Disc 10/17. Frank Sinatra - I Only Have Eyes For You.flac

Track gain : -7.02 dB
Peak : 1.000000
CRC32 hash (test run) : FC6491A7
CRC32 hash : FC6491A7
CRC32 hash (skip zero) : EBF34C57
AccurateRip v1 signature : CFCEE954
AccurateRip v2 signature : EA1CFD50
->Track not present in AccurateRip database.
Statistics
Read error : 0
Jitter error (maybe fixed) : 0
Retry sector count : 0
Damaged sector count : 0

Track 18
Filename : /Users/rips/The 1953-1962 Albums - Frank Sinatra (2019) {New Continent 648046} [FLAC-CD]/Disc 10/18. Frank Sinatra - Nice Work If You Can Get It.flac

Track gain : -5.79 dB
Peak : 0.693451
CRC32 hash (test run) : 646710F2
CRC32 hash : 646710F2
CRC32 hash (skip zero) : CAA321E2
AccurateRip v1 signature : 406F6607
AccurateRip v2 signature : DDD593BF
->Track not present in AccurateRip database.
Statistics
Read error : 0
Jitter error (maybe fixed) : 0
Retry sector count : 0
Damaged sector count : 0

Track 19
Filename : /Users/rips/The 1953-1962 Albums - Frank Sinatra (2019) {New Continent 648046} [FLAC-CD]/Disc 10/19. Frank Sinatra - Learnin' The Blues.flac

Track gain : -6.18 dB
Peak : 1.000000
CRC32 hash (test run) : 03FE14C5
CRC32 hash : 03FE14C5
CRC32 hash (skip zero) : 5199558A
AccurateRip v1 signature : DEEC1FF0
AccurateRip v2 signature : A5C6EA6E
->Track not present in AccurateRip database.
Statistics
Read error : 0
Jitter error (maybe fixed) : 0
Retry sector count : 0
Damaged sector count : 0

Track 20
Filename : /Users/rips/The 1953-1962 Albums - Frank Sinatra (2019) {New Continent 648046} [FLAC-CD]/Disc 10/20. Frank Sinatra - I'm Gonna Sit Right Down And Write Myself A Letter.flac

Track gain : -9.51 dB
Peak : 1.000000
CRC32 hash (test run) : 1CA5C250
CRC32 hash : 1CA5C250
CRC32 hash (skip zero) : 5D627380
AccurateRip v1 signature : 1ECA8CD5
AccurateRip v2 signature : E8F3BA7E
->Track not present in AccurateRip database.
Statistics
Read error : 0
Jitter error (maybe fixed) : 0
Retry sector count : 0
Damaged sector count : 0

Track 21
Filename : /Users/rips/The 1953-1962 Albums - Frank Sinatra (2019) {New Continent 648046} [FLAC-CD]/Disc 10/21. Frank Sinatra - I Won't Dance.flac

Track gain : -4.75 dB
Peak : 0.755676
CRC32 hash (test run) : B6907A5E
CRC32 hash : B6907A5E
CRC32 hash (skip zero) : 73DAB78C
AccurateRip v1 signature : C89C0412
AccurateRip v2 signature : 38D058C2
->Track not present in AccurateRip database.
Statistics
Read error : 0
Jitter error (maybe fixed) : 0
Retry sector count : 0
Damaged sector count : 0

No errors occurred

End of status report

––-BEGIN XLD SIGNATURE––-
CFUKYMsLbj7GSuN5go339d4Q5q5Fhzr7bUrJluQDYQkNOljJZmWjUNGglDnRKo6h6o1tpEgbMwOtaq7Vh2sfRGJtcw.i54PYt8VOFSO
––-END XLD SIGNATURE––-


Frank Sinatra - The 1953-1962 Albums (2019) {10-CD Box Set, New Continent 648046, 43 bonus tracks}

Frank Sinatra - The 1953-1962 Albums (2019) {10-CD Box Set, New Continent 648046, 43 bonus tracks}

Frank Sinatra - The 1953-1962 Albums (2019) {10-CD Box Set, New Continent 648046, 43 bonus tracks}



===