Subcategories
Tags
Language
Tags

Frank Zappa - Greasy Love Songs (2010) {Zappa Records ZR 20010}

Posted By: ruskaval
Frank Zappa - Greasy Love Songs (2010) {Zappa Records ZR 20010}

Frank Zappa - Greasy Love Songs (2010) {Zappa Records ZR 20010}
EAC rip (secure mode) | FLAC (tracks)+CUE+LOG -> 408 Mb | MP3 @320 -> 161 Mb
Full Artwork @ 300 dpi (jpg) -> 17 Mb | 5% repair rar
© 2010 Zappa Records / ZFT | ZR 20010
Rock / Experimental Rock / Doo Wop

Another Anniversary Frank Zappa Audio Documentary project/object celebrating Zappa's Cruising With Ruben & The Jets. The Doo Wop and Pachuco references mark this as Zappa's homage to the music and culture of his teenage world in 1950's Southern California. Contains Original 1968 Vinyl Stereo Mix, Interviews and Related Rarities.

Among additional tracks included are alternate mono mixes, an unreleased cover of “Valerie" which enjoyed heavy rotation in the Mothers' concerts circa 1967 and a version of “Love of My Life" from Studio Z, bringing this CD from 40 minutes in the vinyl release to well over an hour of “the stuff of teen-age legend," according to Gail Zappa's text. “The thrall, the threnodies, the three and four part harmonies, the keys to the kingdom of sociological and panchromatic sexual edification." The package, #3 in the FZ Audio Documentary Series, also contains Cheech Marin's highly evocative liner notes recalling his 1968 audition for Zappa.
Frank Zappa - Greasy Love Songs (2010) {Zappa Records ZR 20010}


Personnel

The Mothers of Invention per Frank Zappa's original liner notes on Cruising With Ruben & The Jets

Ray Collins: lead vocals
Frank Zappa: low grumbles, oo-wah & lead guitar
Roy Estrada: high weazlings, dwaedy-doop & electric bass
Jimmy Carl Black and/or Arthur Dyer Tripp III: lewd pulsating rhythm
Ian Underwood or Don Preston: redundant piano triplets
Motorhead Sherwood: baritone sax & tambourine
Bunk Gardner & Ian Underwood: tenor & alto saxes

Track Listing:
01 - Cheap Thrills (Original Mix)
02 - Love Of My Life (Original Mix)
03 - How Could I Be Such A Fool (Original Mix)
04 - Deseri (Original Mix)
05 - I'm Not Satisfied (Original Mix)
06 - Jelly Roll Gum Drop (Original Mix)
07 - Anything (Original Mix)
08 - Later That Night (Original Mix)
09 - You Didn't Try To Call Me (Original Mix)
10 - Fountain Of Love (Original Mix)
11 - No. No. No. (Original Mix)
12 - Anyway The Wind Blows (Original Mix)
13 - Stuff Up The Cracks (Original Mix)
14 - Jelly Roll Gum Drop (Alternate Mix)
15 - No. No. No. (Alternate Mix)
16 - Stuff Up The Cracks (Alternate Mix)
17 - Serious Fan Mail (Dialogue)
18 - Valerie (Alternate Early Version)
19 - Jelly Roll Gum Drop (Single Mix)
20 - Secret Greasing (Dialogue)
21 - Love Of My Life (Cucamonga Version)

Exact Audio Copy V0.99 prebeta 4 from 23. January 2008

EAC extraction logfile from 22. April 2010, 1:46

Frank Zappa / Greasy Love Songs

Used drive : TSSTcorpCD/DVDW SH-S182M Adapter: 5 ID: 1

Read mode : Secure
Utilize accurate stream : Yes
Defeat audio cache : Yes
Make use of C2 pointers : No

Read offset correction : 6
Overread into Lead-In and Lead-Out : No
Fill up missing offset samples with silence : Yes
Delete leading and trailing silent blocks : No
Null samples used in CRC calculations : Yes
Used interface : Installed external ASPI interface
Gap handling : Appended to previous track

Used output format : Internal WAV Routines
Sample format : 44.100 Hz; 16 Bit; Stereo


TOC of the extracted CD

Track | Start | Length | Start sector | End sector
––––––––––––––––––––––––––––-
1 | 0:00.00 | 2:22.56 | 0 | 10705
2 | 2:22.56 | 3:09.56 | 10706 | 24936
3 | 5:32.37 | 3:34.60 | 24937 | 41046
4 | 9:07.22 | 2:06.60 | 41047 | 50556
5 | 11:14.07 | 4:03.25 | 50557 | 68806
6 | 15:17.32 | 2:20.14 | 68807 | 79320
7 | 17:37.46 | 3:04.02 | 79321 | 93122
8 | 20:41.48 | 3:05.51 | 93123 | 107048
9 | 23:47.24 | 3:56.43 | 107049 | 124791
10 | 27:43.67 | 3:01.20 | 124792 | 138386
11 | 30:45.12 | 2:29.30 | 138387 | 149591
12 | 33:14.42 | 2:57.44 | 149592 | 162910
13 | 36:12.11 | 4:34.43 | 162911 | 183503
14 | 40:46.54 | 2:17.40 | 183504 | 193818
15 | 43:04.19 | 3:06.03 | 193819 | 207771
16 | 46:10.22 | 6:05.24 | 207772 | 235170
17 | 52:15.46 | 5:10.49 | 235171 | 258469
18 | 57:26.20 | 3:03.22 | 258470 | 272216
19 | 60:29.42 | 2:24.32 | 272217 | 283048
20 | 62:53.74 | 3:36.28 | 283049 | 299276
21 | 66:30.27 | 2:05.47 | 299277 | 308698


Track 1

Filename C:\RIPS\01 - Cheap Thrills (Original Mix).wav

Pre-gap length 0:00:02.00

Peak level 99.7 %
Track quality 100.0 %
Test CRC AC485DC0
Copy CRC AC485DC0
Track not present in AccurateRip database
Copy OK

Track 2

Filename C:\RIPS\02 - Love Of My Life (Original Mix).wav

Peak level 99.7 %
Track quality 100.0 %
Test CRC 3C7E8CD6
Copy CRC 3C7E8CD6
Track not present in AccurateRip database
Copy OK

Track 3

Filename C:\RIPS\03 - How Could I Be Such A Fool (Original Mix).wav

Peak level 99.7 %
Track quality 100.0 %
Test CRC 02119380
Copy CRC 02119380
Track not present in AccurateRip database
Copy OK

Track 4

Filename C:\RIPS\04 - Deseri (Original Mix).wav

Peak level 99.7 %
Track quality 100.0 %
Test CRC 6CFBDE7B
Copy CRC 6CFBDE7B
Track not present in AccurateRip database
Copy OK

Track 5

Filename C:\RIPS\05 - I'm Not Satisfied (Original Mix).wav

Peak level 99.7 %
Track quality 100.0 %
Test CRC 5B1CC328
Copy CRC 5B1CC328
Track not present in AccurateRip database
Copy OK

Track 6

Filename C:\RIPS\06 - Jelly Roll Gum Drop (Original Mix).wav

Peak level 99.7 %
Track quality 100.0 %
Test CRC 60AD30C9
Copy CRC 60AD30C9
Track not present in AccurateRip database
Copy OK

Track 7

Filename C:\RIPS\07 - Anything (Original Mix).wav

Peak level 99.7 %
Track quality 100.0 %
Test CRC FA521E8D
Copy CRC FA521E8D
Track not present in AccurateRip database
Copy OK

Track 8

Filename C:\RIPS\08 - Later That Night (Original Mix).wav

Peak level 99.7 %
Track quality 100.0 %
Test CRC F0FC7C58
Copy CRC F0FC7C58
Track not present in AccurateRip database
Copy OK

Track 9

Filename C:\RIPS\09 - You Didn't Try To Call Me (Original Mix).wav

Peak level 99.7 %
Track quality 100.0 %
Test CRC 9AD56ED7
Copy CRC 9AD56ED7
Track not present in AccurateRip database
Copy OK

Track 10

Filename C:\RIPS\10 - Fountain Of Love (Original Mix).wav

Peak level 99.7 %
Track quality 100.0 %
Test CRC 73672D2D
Copy CRC 73672D2D
Track not present in AccurateRip database
Copy OK

Track 11

Filename C:\RIPS\11 - No. No. No. (Original Mix).wav

Peak level 99.7 %
Track quality 99.9 %
Test CRC EB4E468E
Copy CRC EB4E468E
Track not present in AccurateRip database
Copy OK

Track 12

Filename C:\RIPS\12 - Anyway The Wind Blows (Original Mix).wav

Peak level 99.7 %
Track quality 100.0 %
Test CRC B409B2E5
Copy CRC B409B2E5
Track not present in AccurateRip database
Copy OK

Track 13

Filename C:\RIPS\13 - Stuff Up The Cracks (Original Mix).wav

Peak level 99.7 %
Track quality 100.0 %
Test CRC AFA40DC5
Copy CRC AFA40DC5
Track not present in AccurateRip database
Copy OK

Track 14

Filename C:\RIPS\14 - Jelly Roll Gum Drop (Alternate Mix).wav

Peak level 99.7 %
Track quality 100.0 %
Test CRC 1056A2A6
Copy CRC 1056A2A6
Track not present in AccurateRip database
Copy OK

Track 15

Filename C:\RIPS\15 - No. No. No. (Alternate Mix).wav

Peak level 99.7 %
Track quality 100.0 %
Test CRC 2E1D6DE5
Copy CRC 2E1D6DE5
Track not present in AccurateRip database
Copy OK

Track 16

Filename C:\RIPS\16 - Stuff Up The Cracks (Alternate Mix).wav

Peak level 99.7 %
Track quality 100.0 %
Test CRC 6B30C067
Copy CRC 6B30C067
Track not present in AccurateRip database
Copy OK

Track 17

Filename C:\RIPS\17 - Serious Fan Mail (Dialogue).wav

Pre-gap length 0:00:01.72

Peak level 98.8 %
Track quality 100.0 %
Test CRC 2974FF95
Copy CRC 2974FF95
Track not present in AccurateRip database
Copy OK

Track 18

Filename C:\RIPS\18 - Valerie (Alternate Early Version).wav

Peak level 98.8 %
Track quality 99.9 %
Test CRC 904BD181
Copy CRC 904BD181
Track not present in AccurateRip database
Copy OK

Track 19

Filename C:\RIPS\19 - Jelly Roll Gum Drop (Single Mix).wav

Peak level 99.9 %
Track quality 99.9 %
Test CRC 92C85B7A
Copy CRC 92C85B7A
Track not present in AccurateRip database
Copy OK

Track 20

Filename C:\RIPS\20 - Secret Greasing (Dialogue).wav

Peak level 98.8 %
Track quality 100.0 %
Test CRC 1B719DB7
Copy CRC 1B719DB7
Track not present in AccurateRip database
Copy OK

Track 21

Filename C:\RIPS\21 - Love Of My Life (Cucamonga Version).wav

Pre-gap length 0:00:10.27

Peak level 98.5 %
Track quality 100.0 %
Test CRC 3BBD9D87
Copy CRC 3BBD9D87
Track not present in AccurateRip database
Copy OK


None of the tracks are present in the AccurateRip database

No errors occurred

End of status report


Frank Zappa - Greasy Love Songs (2010) {Zappa Records ZR 20010}

Frank Zappa - Greasy Love Songs (2010) {Zappa Records ZR 20010}



===