Tags
Language
Tags

Frankie Miller - Blackland Farmer - The Complete Starday Recordings and More (2008) {3CD, Bear Family BCD16566CH rec 1957-1969}

Posted By: ruskaval
Frankie Miller - Blackland Farmer - The Complete Starday Recordings and More (2008) {3CD, Bear Family BCD16566CH rec 1957-1969}

Frankie Miller - Blackland Farmer - The Complete Starday Recordings and More (2008) {3CD, Bear Family BCD16566CH rec 1957-1969}
EAC rip (secure mode) | FLAC (tracks)+CUE+LOG -> 740 Mb | MP3 @320 -> 460 Mb
Full Artwork @ 600 dpi (png) -> 1.48 Gb | 5% repair rar
© 1957-69, 2008 Starday / Bear Family Records | BCD16566CH
Country / Honky Tonk / Rockabilly

Good-natured and unassuming, and possessing an easy, slightly raspy baritone voice that brought an everyman feel to everything he sang, Frankie Miller ought to be a household name in country circles, but he isn't, and his relative obscurity as the 21st century opens is as much a mystery as it is unforgivable. Although he recorded often, Miller's key years were with Don Pierce's Starday label out of Nashville in the late '50s and early '60s (roughly 1959 to 1963), the time period covered by this marvelous three-disc anthology from Bear Family Records.
Frankie Miller - Blackland Farmer - The Complete Starday Recordings and More (2008) {3CD, Bear Family BCD16566CH rec 1957-1969}

With the usual Bear Family precision, this set includes both sides of the 17 singles Miller released with Starday, his three solo LPs with the label, his complete gospel EP, his pre-Starday single from Cowtown Hoedown, several sides he recorded with United Artists in 1962 and with Pete Drake's Stop label in 1966, plus previously unissued tracks, demos, and live performances, making this package a bonanza for Miller fans and collectors. Miller's easygoing, unhurried style makes everything go down as natural as a feather, and that steadiness makes him seem like everyone's likable neighbor, whether he is flirting with honky tonk or edging around the margins of rockabilly, and it's impossible, if you give him a chance, not to like this guy.
Frankie Miller - Blackland Farmer - The Complete Starday Recordings and More (2008) {3CD, Bear Family BCD16566CH rec 1957-1969}

Miller's most striking recording, and his signature song, is his own "Blackland Farmer," a track he originally recorded in 1956 but which sat unreleased until 1959 when Starday took a chance on it. "Blackland Farmer," marked by its distinctive percussion track, which mimicked the sound of a horse walking on hard ground, consequently shot to the top of the country charts, and the sparse, folky arrangement and Miller's simple, sincere singing make it sound surprisingly fresh some 50 years later. Miller had a second Top Ten country hit in 1959 with the sturdy "Family Man," but that was to be his commercial peak and while he continued to put out quality work, country music seemed to pass him by, eventually relegating him to footnote status, a neglect that seems downright criminal. Hopefully this generous, comfortable, and detailed set will help address the situation and bring Miller the contemporary attention he deserves.
Frankie Miller - Blackland Farmer - The Complete Starday Recordings and More (2008) {3CD, Bear Family BCD16566CH rec 1957-1969}


bear-family.com INFO

Track Listing:

CD 01


01. Blackland Farmer
02. True Blue
03. Poppin' Johnny
04. Family Man
05. The Money Side Of Life
06. Reunion
07. Baby Rocked Her Dolly
08. Rain, Rain
09. Strictly Nuthin'
10. Young Widow Brown
11. Two Lips Away
12. Out Of Bounds
13. I'll Write To You
14. Richest Poor Boy
15. Lookin' Around Downtown
16. A Little Bit's Better (Then Nothing At All)
17. The Cat And The Mouse
18. It's Not Easy
19. Losing Again
20. If I'd Known Then
21. Just For You
22. Prison Grey
23. Tornado
24. Big Talk Of The Town [LP Version]
25. Reunion [Without Harmony]
26. Baby Rocked Her Dolly [Without Harmony]
27. Rain, Rain [Without Harmony]
28. The Cat And The Mouse [Alternate Take]
29. Faded Bible
30. Who Do You Think
31. Trust The Saviour
32. Valley Of Death
33. Family Bible

Frankie Miller - Blackland Farmer - The Complete Starday Recordings and More (2008) {3CD, Bear Family BCD16566CH rec 1957-1969}

Frankie Miller - Blackland Farmer - The Complete Starday Recordings and More (2008) {3CD, Bear Family BCD16566CH rec 1957-1969}


CD 02

01. Gotta Win My Baby Back Again
02. The Picture At St. Helene
03. Losing By A Hair
04. I Miss Her Every Way
05. One Excuse (Is As Good As Another)
06. The Party's Over
07. Too Hot To Handle
08. A Little South Of Memphis
09. Fifteen Acres Of Peanut Land
10. Out Of This World
11. Mean Old Greyhound Bus
12. It Took A Lot Of Love (To Let Her Go)
13. Starving For Love
14. I Can Almost Forget
15. Big Talk Of The Town [Single Version]
16. Truck Driving Buddy
17. Bringing Mary Home
18. The Country Music Who's Who
19. A Tough Row To Hoe
20. Charlie's Got A Good Thing Going
21. She's My Antibiotic (In White)
22. Fickle Hand Of Fate
23. True Love Stays
24. Starving For Love [Alternate Take]
25. Maybe You Would Love Me Then
26. It Took A Lot Of Love (To Let Her Go) [Alternate Take]
27. Pain
28. I Put The Blue In Her Eyes
29. Wrong Side Of The Tracks
30. World War III

Frankie Miller - Blackland Farmer - The Complete Starday Recordings and More (2008) {3CD, Bear Family BCD16566CH rec 1957-1969}

Frankie Miller - Blackland Farmer - The Complete Starday Recordings and More (2008) {3CD, Bear Family BCD16566CH rec 1957-1969}


CD 03

01. Just For Spite
02. Give A Purpose To My Love
03. I Should Be
04. Don't Make Me Miss You
05. Impersonations - I Walk The Line/Always Late [Live]
06. Katy Malone
07. It's Not Easy
08. Peppermint Candy
09. Family Man
10. Blues Of Yesterday
11. I Remember Dad
12. House Down The Road
13. A Little South Of Memphis
14. I'd Rather Have You
15. Tears Of Time
16. Funny Way Of Lovin'
17. Let's Forget It
18. Fall Of The Alamo
19. I'll Get Over You (Still Keep Hoping)
20. A Tough Row To Hoe
21. The Wagon Yard
22. Out Of This World
23. She Put The Misery On Me
24. Lonesome Time
25. Keeping Up With The Jones
26. A Little Bit's Better (Then Nothing At All)
27. Two Lips Away
28. Blackland Farmer [Live]
29. Meeting Elvis At The Hayride [Conversation w/Hank Davis]
30. Memories Of Tommy Hill [Conversation w/Hank Davis]
31. Creating Hoofbeats [Conversation w/Hank Davis]
32. The Blackland Farmer Tape [Conversation w/Hank Davis]
33. Headlining A Rock Show [Conversation w/Hank Davis]

Frankie Miller - Blackland Farmer - The Complete Starday Recordings and More (2008) {3CD, Bear Family BCD16566CH rec 1957-1969}

Frankie Miller - Blackland Farmer - The Complete Starday Recordings and More (2008) {3CD, Bear Family BCD16566CH rec 1957-1969}


Exact Audio Copy V1.0 beta 2 from 29. April 2011

EAC extraction logfile from 12. June 2011, 16:53

Frankie Miiller / Blackland Farmer - The Complete Starday Recordings, And More [disc 1]

Used drive : HL-DT-STDVD+-RW GSA-H73N Adapter: 1 ID: 0

Read mode : Secure
Utilize accurate stream : Yes
Defeat audio cache : Yes
Make use of C2 pointers : No

Read offset correction : 102
Overread into Lead-In and Lead-Out : No
Fill up missing offset samples with silence : Yes
Delete leading and trailing silent blocks : No
Null samples used in CRC calculations : Yes
Used interface : Native Win32 interface for Win NT & 2000
Gap handling : Appended to previous track

Used output format : User Defined Encoder
Selected bitrate : 1024 kBit/s
Quality : High
Add ID3 tag : No
Command line compressor : C:\Program Files\Exact Audio Copy\FLAC\FLAC.EXE
Additional command line options : -8 -V -T "ARTIST=%artist%" -T "TITLE=%title%" -T "ALBUM=%albumtitle%" -T "DATE=%year%" -T "TRACKNUMBER=%tracknr%" -T "GENRE=%genre%" -T "PERFORMER=%albuminterpret%" -T "COMPOSER=%composer%" %haslyrics%–tag-from-file=LYRICS


TOC of the extracted CD

Track | Start | Length | Start sector | End sector
––––––––––––––––––––––––––––-
1 | 0:00.00 | 2:32.20 | 0 | 11419
2 | 2:32.20 | 2:21.42 | 11420 | 22036
3 | 4:53.62 | 2:20.25 | 22037 | 32561
4 | 7:14.12 | 1:56.60 | 32562 | 41321
5 | 9:10.72 | 2:39.25 | 41322 | 53271
6 | 11:50.22 | 2:13.15 | 53272 | 63261
7 | 14:03.37 | 2:40.50 | 63262 | 75311
8 | 16:44.12 | 2:14.03 | 75312 | 85364
9 | 18:58.15 | 2:24.35 | 85365 | 96199
10 | 21:22.50 | 2:38.02 | 96200 | 108051
11 | 24:00.52 | 1:58.25 | 108052 | 116926
12 | 25:59.02 | 2:21.15 | 116927 | 127516
13 | 28:20.17 | 2:09.00 | 127517 | 137191
14 | 30:29.17 | 2:18.48 | 137192 | 147589
15 | 32:47.65 | 1:58.47 | 147590 | 156486
16 | 34:46.37 | 2:35.40 | 156487 | 168151
17 | 37:22.02 | 2:34.65 | 168152 | 179766
18 | 39:56.67 | 2:48.10 | 179767 | 192376
19 | 42:45.02 | 2:41.28 | 192377 | 204479
20 | 45:26.30 | 2:11.10 | 204480 | 214314
21 | 47:37.40 | 2:18.50 | 214315 | 224714
22 | 49:56.15 | 2:44.57 | 224715 | 237071
23 | 52:40.72 | 2:49.13 | 237072 | 249759
24 | 55:30.10 | 2:16.12 | 249760 | 259971
25 | 57:46.22 | 2:13.03 | 259972 | 269949
26 | 59:59.25 | 2:41.32 | 269950 | 282056
27 | 62:40.57 | 2:15.48 | 282057 | 292229
28 | 64:56.30 | 2:37.15 | 292230 | 304019
29 | 67:33.45 | 2:34.60 | 304020 | 315629
30 | 70:08.30 | 2:22.32 | 315630 | 326311
31 | 72:30.62 | 1:46.63 | 326312 | 334324
32 | 74:17.50 | 1:59.20 | 334325 | 343269
33 | 76:16.70 | 1:59.47 | 343270 | 352241


Track 1

Filename K:\Audio Projects\EAC Rips\01 - Blackland Farmer.wav

Pre-gap length 0:00:02.00

Peak level 97.9 %
Extraction speed 1.6 X
Track quality 100.0 %
Test CRC FF04E07A
Copy CRC FF04E07A
Track not present in AccurateRip database
Copy OK

Track 2

Filename K:\Audio Projects\EAC Rips\02 - True Blue.wav

Peak level 88.5 %
Extraction speed 1.7 X
Track quality 100.0 %
Test CRC F25F913A
Copy CRC F25F913A
Track not present in AccurateRip database
Copy OK

Track 3

Filename K:\Audio Projects\EAC Rips\03 - Poppin' Johnny.wav

Pre-gap length 0:00:01.70

Peak level 87.3 %
Extraction speed 1.8 X
Track quality 100.0 %
Test CRC FE0DB437
Copy CRC FE0DB437
Track not present in AccurateRip database
Copy OK

Track 4

Filename K:\Audio Projects\EAC Rips\04 - Family Man.wav

Pre-gap length 0:00:01.30

Peak level 87.3 %
Extraction speed 1.8 X
Track quality 100.0 %
Test CRC 4789780A
Copy CRC 4789780A
Track not present in AccurateRip database
Copy OK

Track 5

Filename K:\Audio Projects\EAC Rips\05 - The Money Side Of Life.wav

Pre-gap length 0:00:01.25

Peak level 97.9 %
Extraction speed 1.7 X
Track quality 99.9 %
Test CRC 454CB554
Copy CRC 454CB554
Track not present in AccurateRip database
Copy OK

Track 6

Filename K:\Audio Projects\EAC Rips\06 - Reunion.wav

Pre-gap length 0:00:01.02

Peak level 87.3 %
Extraction speed 1.9 X
Track quality 100.0 %
Test CRC 074C37E2
Copy CRC 074C37E2
Track not present in AccurateRip database
Copy OK

Track 7

Filename K:\Audio Projects\EAC Rips\07 - Baby Rocked Her Dolly.wav

Pre-gap length 0:00:01.20

Peak level 97.9 %
Extraction speed 1.8 X
Track quality 99.9 %
Test CRC 973B080D
Copy CRC 973B080D
Track not present in AccurateRip database
Copy OK

Track 8

Filename K:\Audio Projects\EAC Rips\08 - Rain, Rain.wav

Pre-gap length 0:00:01.47

Peak level 92.5 %
Extraction speed 2.1 X
Track quality 100.0 %
Test CRC D9903414
Copy CRC D9903414
Track not present in AccurateRip database
Copy OK

Track 9

Filename K:\Audio Projects\EAC Rips\09 - Strictly Nuthin'.wav

Pre-gap length 0:00:01.18

Peak level 97.9 %
Extraction speed 2.2 X
Track quality 100.0 %
Test CRC F98A40E6
Copy CRC F98A40E6
Track not present in AccurateRip database
Copy OK

Track 10

Filename K:\Audio Projects\EAC Rips\10 - Young Widow Brown.wav

Pre-gap length 0:00:01.05

Peak level 97.9 %
Extraction speed 1.9 X
Track quality 99.9 %
Test CRC D2F12E47
Copy CRC D2F12E47
Track not present in AccurateRip database
Copy OK

Track 11

Filename K:\Audio Projects\EAC Rips\11 - Two Lips Away.wav

Pre-gap length 0:00:01.02

Peak level 97.9 %
Extraction speed 2.2 X
Track quality 100.0 %
Test CRC D6F7911D
Copy CRC D6F7911D
Track not present in AccurateRip database
Copy OK

Track 12

Filename K:\Audio Projects\EAC Rips\12 - Out Of Bounds.wav

Pre-gap length 0:00:01.02

Peak level 97.9 %
Extraction speed 2.4 X
Track quality 100.0 %
Test CRC 98CC4CA8
Copy CRC 98CC4CA8
Track not present in AccurateRip database
Copy OK

Track 13

Filename K:\Audio Projects\EAC Rips\13 - I'll Write To You.wav

Peak level 97.9 %
Extraction speed 2.4 X
Track quality 100.0 %
Test CRC 173F44F8
Copy CRC 173F44F8
Track not present in AccurateRip database
Copy OK

Track 14

Filename K:\Audio Projects\EAC Rips\14 - Richest Poor Boy.wav

Peak level 97.9 %
Extraction speed 2.5 X
Track quality 100.0 %
Test CRC 602FC565
Copy CRC 602FC565
Track not present in AccurateRip database
Copy OK

Track 15

Filename K:\Audio Projects\EAC Rips\15 - Lookin' Around Downtown.wav

Pre-gap length 0:00:01.10

Peak level 97.9 %
Extraction speed 2.5 X
Track quality 100.0 %
Test CRC C87EDC94
Copy CRC C87EDC94
Track not present in AccurateRip database
Copy OK

Track 16

Filename K:\Audio Projects\EAC Rips\16 - A Little Bit's Better (Than Nothing At All).wav

Peak level 97.9 %
Extraction speed 2.7 X
Track quality 100.0 %
Test CRC 20E86588
Copy CRC 20E86588
Track not present in AccurateRip database
Copy OK

Track 17

Filename K:\Audio Projects\EAC Rips\17 - The Cat And The Mouse.wav

Pre-gap length 0:00:01.32

Peak level 97.9 %
Extraction speed 2.7 X
Track quality 100.0 %
Test CRC E04FCF2D
Copy CRC E04FCF2D
Track not present in AccurateRip database
Copy OK

Track 18

Filename K:\Audio Projects\EAC Rips\18 - It's Not Easy.wav

Pre-gap length 0:00:01.52

Peak level 97.9 %
Extraction speed 2.9 X
Track quality 100.0 %
Test CRC 0FDC530F
Copy CRC 0FDC530F
Track not present in AccurateRip database
Copy OK

Track 19

Filename K:\Audio Projects\EAC Rips\19 - Losing Again.wav

Peak level 93.3 %
Extraction speed 2.8 X
Track quality 100.0 %
Test CRC D07BA0A1
Copy CRC D07BA0A1
Track not present in AccurateRip database
Copy OK

Track 20

Filename K:\Audio Projects\EAC Rips\20 - If I'd Known Then.wav

Peak level 91.6 %
Extraction speed 2.3 X
Track quality 99.9 %
Test CRC 4B280B41
Copy CRC 4B280B41
Track not present in AccurateRip database
Copy OK

Track 21

Filename K:\Audio Projects\EAC Rips\21 - Just For You.wav

Pre-gap length 0:00:01.15

Peak level 97.9 %
Extraction speed 2.9 X
Track quality 100.0 %
Test CRC 95597B1F
Copy CRC 95597B1F
Track not present in AccurateRip database
Copy OK

Track 22

Filename K:\Audio Projects\EAC Rips\22 - Prison Grey.wav

Peak level 97.9 %
Extraction speed 3.1 X
Track quality 100.0 %
Test CRC 0D30D2C7
Copy CRC 0D30D2C7
Track not present in AccurateRip database
Copy OK

Track 23

Filename K:\Audio Projects\EAC Rips\23 - Tornado.wav

Pre-gap length 0:00:01.65

Peak level 90.3 %
Extraction speed 3.1 X
Track quality 100.0 %
Test CRC 10F9BF74
Copy CRC 10F9BF74
Track not present in AccurateRip database
Copy OK

Track 24

Filename K:\Audio Projects\EAC Rips\24 - Big Talk Of The Town [LP Version].wav

Peak level 97.9 %
Extraction speed 3.1 X
Track quality 100.0 %
Test CRC 3E05BA0C
Copy CRC 3E05BA0C
Track not present in AccurateRip database
Copy OK

Track 25

Filename K:\Audio Projects\EAC Rips\25 - Reunion [without harmony].wav

Pre-gap length 0:00:01.47

Peak level 97.9 %
Extraction speed 3.1 X
Track quality 100.0 %
Test CRC 9F3A7DBA
Copy CRC 9F3A7DBA
Track not present in AccurateRip database
Copy OK

Track 26

Filename K:\Audio Projects\EAC Rips\26 - Baby Rocked Her Dolly [without harmony].wav

Pre-gap length 0:00:01.03

Peak level 97.9 %
Extraction speed 3.2 X
Track quality 100.0 %
Test CRC B008D6A3
Copy CRC B008D6A3
Track not present in AccurateRip database
Copy OK

Track 27

Filename K:\Audio Projects\EAC Rips\27 - Rain, Rain [without harmony].wav

Pre-gap length 0:00:01.10

Peak level 97.9 %
Extraction speed 3.2 X
Track quality 100.0 %
Test CRC C9152162
Copy CRC C9152162
Track not present in AccurateRip database
Copy OK

Track 28

Filename K:\Audio Projects\EAC Rips\28 - The Cat And The Mouse [alt].wav

Pre-gap length 0:00:01.38

Peak level 97.9 %
Extraction speed 3.3 X
Track quality 100.0 %
Test CRC E4656B56
Copy CRC E4656B56
Track not present in AccurateRip database
Copy OK

Track 29

Filename K:\Audio Projects\EAC Rips\29 - Faded Bible.wav

Peak level 97.9 %
Extraction speed 3.3 X
Track quality 100.0 %
Test CRC 5AA78C63
Copy CRC 5AA78C63
Track not present in AccurateRip database
Copy OK

Track 30

Filename K:\Audio Projects\EAC Rips\30 - Who Do You Think.wav

Pre-gap length 0:00:01.03

Peak level 97.9 %
Extraction speed 2.8 X
Track quality 99.9 %
Test CRC DB1C5EBF
Copy CRC DB1C5EBF
Track not present in AccurateRip database
Copy OK

Track 31

Filename K:\Audio Projects\EAC Rips\31 - Trust The Saviour.wav

Pre-gap length 0:00:01.65

Peak level 97.9 %
Extraction speed 3.1 X
Track quality 100.0 %
Test CRC 090ECC8B
Copy CRC 090ECC8B
Track not present in AccurateRip database
Copy OK

Track 32

Filename K:\Audio Projects\EAC Rips\32 - Valley Of Death.wav

Pre-gap length 0:00:01.50

Peak level 97.9 %
Extraction speed 3.3 X
Track quality 100.0 %
Test CRC 11730654
Copy CRC 11730654
Track not present in AccurateRip database
Copy OK

Track 33

Filename K:\Audio Projects\EAC Rips\33 - Family Bible.wav

Pre-gap length 0:00:01.20

Peak level 93.0 %
Extraction speed 3.3 X
Track quality 100.0 %
Test CRC 8BB958AC
Copy CRC 8BB958AC
Track not present in AccurateRip database
Copy OK


None of the tracks are present in the AccurateRip database

No errors occurred

End of status report

==== Log checksum FEFD583F2EBE0232094A5CBF1DE0D198A6CE03135386282DF86C5F3E465E113C ====
Exact Audio Copy V1.0 beta 2 from 29. April 2011

EAC extraction logfile from 12. June 2011, 18:09

Frankie Miller / Blackland Farmer - The Complete Starday Recordings, And More [disc 2]

Used drive : HL-DT-STDVD+-RW GSA-H73N Adapter: 1 ID: 0

Read mode : Secure
Utilize accurate stream : Yes
Defeat audio cache : Yes
Make use of C2 pointers : No

Read offset correction : 102
Overread into Lead-In and Lead-Out : No
Fill up missing offset samples with silence : Yes
Delete leading and trailing silent blocks : No
Null samples used in CRC calculations : Yes
Used interface : Native Win32 interface for Win NT & 2000
Gap handling : Appended to previous track

Used output format : User Defined Encoder
Selected bitrate : 1024 kBit/s
Quality : High
Add ID3 tag : No
Command line compressor : C:\Program Files\Exact Audio Copy\FLAC\FLAC.EXE
Additional command line options : -8 -V -T "ARTIST=%artist%" -T "TITLE=%title%" -T "ALBUM=%albumtitle%" -T "DATE=%year%" -T "TRACKNUMBER=%tracknr%" -T "GENRE=%genre%" -T "PERFORMER=%albuminterpret%" -T "COMPOSER=%composer%" %haslyrics%–tag-from-file=LYRICS


TOC of the extracted CD

Track | Start | Length | Start sector | End sector
––––––––––––––––––––––––––––-
1 | 0:00.00 | 2:12.20 | 0 | 9919
2 | 2:12.20 | 2:33.72 | 9920 | 21466
3 | 4:46.17 | 2:13.55 | 21467 | 31496
4 | 6:59.72 | 2:20.08 | 31497 | 42004
5 | 9:20.05 | 1:56.30 | 42005 | 50734
6 | 11:16.35 | 2:51.35 | 50735 | 63594
7 | 14:07.70 | 2:38.07 | 63595 | 75451
8 | 16:46.02 | 2:30.73 | 75452 | 86774
9 | 19:17.00 | 2:28.17 | 86775 | 97891
10 | 21:45.17 | 2:31.08 | 97892 | 109224
11 | 24:16.25 | 2:17.07 | 109225 | 119506
12 | 26:33.32 | 2:28.08 | 119507 | 130614
13 | 29:01.40 | 2:05.02 | 130615 | 139991
14 | 31:06.42 | 2:26.18 | 139992 | 150959
15 | 33:32.60 | 2:27.42 | 150960 | 162026
16 | 36:00.27 | 1:52.55 | 162027 | 170481
17 | 37:53.07 | 3:15.43 | 170482 | 185149
18 | 41:08.50 | 2:14.52 | 185150 | 195251
19 | 43:23.27 | 2:22.30 | 195252 | 205931
20 | 45:45.57 | 2:01.58 | 205932 | 215064
21 | 47:47.40 | 1:39.00 | 215065 | 222489
22 | 49:26.40 | 1:48.27 | 222490 | 230616
23 | 51:14.67 | 1:42.20 | 230617 | 238286
24 | 52:57.12 | 2:06.08 | 238287 | 247744
25 | 55:03.20 | 2:26.10 | 247745 | 258704
26 | 57:29.30 | 2:15.50 | 258705 | 268879
27 | 59:45.05 | 2:12.70 | 268880 | 278849
28 | 61:58.00 | 2:40.05 | 278850 | 290854
29 | 64:38.05 | 2:34.10 | 290855 | 302414
30 | 67:12.15 | 3:06.20 | 302415 | 316384


Track 1

Filename K:\Audio Projects\EAC Rips\01 - Gotta Win My Baby Back Again.wav

Pre-gap length 0:00:02.00

Peak level 97.9 %
Extraction speed 1.4 X
Track quality 100.0 %
Test CRC B2CB4328
Copy CRC B2CB4328
Track not present in AccurateRip database
Copy OK

Track 2

Filename K:\Audio Projects\EAC Rips\02 - The Picture At St. Helene.wav

Pre-gap length 0:00:01.08

Peak level 97.9 %
Extraction speed 1.6 X
Track quality 100.0 %
Test CRC 9274A342
Copy CRC 9274A342
Track not present in AccurateRip database
Copy OK

Track 3

Filename K:\Audio Projects\EAC Rips\03 - Losing By A Hair.wav

Pre-gap length 0:00:01.52

Peak level 83.3 %
Extraction speed 1.6 X
Track quality 100.0 %
Test CRC C6D48CC0
Copy CRC C6D48CC0
Track not present in AccurateRip database
Copy OK

Track 4

Filename K:\Audio Projects\EAC Rips\04 - I Miss Her Every Way.wav

Pre-gap length 0:00:01.10

Peak level 97.9 %
Extraction speed 1.4 X
Track quality 99.9 %
Test CRC 2F66C2F3
Copy CRC 2F66C2F3
Track not present in AccurateRip database
Copy OK

Track 5

Filename K:\Audio Projects\EAC Rips\05 - One Excuse Is As Good As Another.wav

Peak level 97.9 %
Extraction speed 1.7 X
Track quality 100.0 %
Test CRC 1B20C471
Copy CRC 1B20C471
Track not present in AccurateRip database
Copy OK

Track 6

Filename K:\Audio Projects\EAC Rips\06 - The Party's Over.wav

Pre-gap length 0:00:02.00

Peak level 98.0 %
Extraction speed 1.9 X
Track quality 100.0 %
Test CRC 65D9FF4A
Copy CRC 65D9FF4A
Track not present in AccurateRip database
Copy OK

Track 7

Filename K:\Audio Projects\EAC Rips\07 - Too Hot To Handle.wav

Peak level 97.9 %
Extraction speed 2.0 X
Track quality 100.0 %
Test CRC 1C8FCE37
Copy CRC 1C8FCE37
Track not present in AccurateRip database
Copy OK

Track 8

Filename K:\Audio Projects\EAC Rips\08 - A Little South Of Memphis.wav

Pre-gap length 0:00:01.45

Peak level 97.9 %
Extraction speed 2.0 X
Track quality 100.0 %
Test CRC C290F663
Copy CRC C290F663
Track not present in AccurateRip database
Copy OK

Track 9

Filename K:\Audio Projects\EAC Rips\09 - Fifteen Acres of Peanut Land.wav

Peak level 97.9 %
Extraction speed 2.1 X
Track quality 100.0 %
Test CRC F7036433
Copy CRC F7036433
Track not present in AccurateRip database
Copy OK

Track 10

Filename K:\Audio Projects\EAC Rips\10 - Out Of This World.wav

Pre-gap length 0:00:01.37

Peak level 97.9 %
Extraction speed 2.1 X
Track quality 100.0 %
Test CRC 01D3EF45
Copy CRC 01D3EF45
Track not present in AccurateRip database
Copy OK

Track 11

Filename K:\Audio Projects\EAC Rips\11 - Mean Old Greyhound Dog.wav

Peak level 98.0 %
Extraction speed 1.8 X
Track quality 99.9 %
Test CRC 62CF07B5
Copy CRC 62CF07B5
Track not present in AccurateRip database
Copy OK

Track 12

Filename K:\Audio Projects\EAC Rips\12 - It Took A Lot Of Love (To Let Her Go).wav

Pre-gap length 0:00:01.27

Peak level 97.9 %
Extraction speed 2.3 X
Track quality 100.0 %
Test CRC 2C3D0407
Copy CRC 2C3D0407
Track not present in AccurateRip database
Copy OK

Track 13

Filename K:\Audio Projects\EAC Rips\13 - Starving For Love.wav

Pre-gap length 0:00:01.63

Peak level 97.9 %
Extraction speed 2.2 X
Track quality 100.0 %
Test CRC 0F402895
Copy CRC 0F402895
Track not present in AccurateRip database
Copy OK

Track 14

Filename K:\Audio Projects\EAC Rips\14 - I Can Almost Forget.wav

Pre-gap length 0:00:01.35

Peak level 97.9 %
Extraction speed 2.4 X
Track quality 100.0 %
Test CRC D89316D3
Copy CRC D89316D3
Track not present in AccurateRip database
Copy OK

Track 15

Filename K:\Audio Projects\EAC Rips\15 - Big Talk Of The Town [Single Version].wav

Pre-gap length 0:00:01.48

Peak level 97.9 %
Extraction speed 2.5 X
Track quality 100.0 %
Test CRC D7DA2381
Copy CRC D7DA2381
Track not present in AccurateRip database
Copy OK

Track 16

Filename K:\Audio Projects\EAC Rips\16 - Truck Driving Buddy.wav

Pre-gap length 0:00:01.20

Peak level 97.9 %
Extraction speed 2.3 X
Track quality 100.0 %
Test CRC FFF1176F
Copy CRC FFF1176F
Track not present in AccurateRip database
Copy OK

Track 17

Filename K:\Audio Projects\EAC Rips\17 - Bringing Mary Home.wav

Pre-gap length 0:00:02.02

Peak level 97.9 %
Extraction speed 2.7 X
Track quality 100.0 %
Test CRC 27C1BE68
Copy CRC 27C1BE68
Track not present in AccurateRip database
Copy OK

Track 18

Filename K:\Audio Projects\EAC Rips\18 - The Country Music Who's Who.wav

Pre-gap length 0:00:01.50

Peak level 97.9 %
Extraction speed 2.6 X
Track quality 100.0 %
Test CRC 66C86D2F
Copy CRC 66C86D2F
Track not present in AccurateRip database
Copy OK

Track 19

Filename K:\Audio Projects\EAC Rips\19 - A Tough Row To Hoe.wav

Pre-gap length 0:00:01.50

Peak level 98.0 %
Extraction speed 2.2 X
Track quality 99.9 %
Test CRC 0CA25192
Copy CRC 0CA25192
Track not present in AccurateRip database
Copy OK

Track 20

Filename K:\Audio Projects\EAC Rips\20 - Charlie's Got A Good Thing Going.wav

Peak level 97.9 %
Extraction speed 2.6 X
Track quality 100.0 %
Test CRC E0A8BCDF
Copy CRC E0A8BCDF
Track not present in AccurateRip database
Copy OK

Track 21

Filename K:\Audio Projects\EAC Rips\21 - She's My Antibiotic (In White).wav

Pre-gap length 0:00:01.05

Peak level 97.9 %
Extraction speed 2.6 X
Track quality 100.0 %
Test CRC F54CB66F
Copy CRC F54CB66F
Track not present in AccurateRip database
Copy OK

Track 22

Filename K:\Audio Projects\EAC Rips\22 - Fickle Hand Of Fate.wav

Peak level 97.9 %
Extraction speed 2.6 X
Track quality 100.0 %
Test CRC 90C77AC4
Copy CRC 90C77AC4
Track not present in AccurateRip database
Copy OK

Track 23

Filename K:\Audio Projects\EAC Rips\23 - True Love Stays.wav

Pre-gap length 0:00:01.42

Peak level 97.9 %
Extraction speed 2.0 X
Track quality 99.8 %
Test CRC 22049D51
Copy CRC 22049D51
Track not present in AccurateRip database
Copy OK

Track 24

Filename K:\Audio Projects\EAC Rips\24 - Starving For Love [alt].wav

Pre-gap length 0:00:01.02

Peak level 97.9 %
Extraction speed 2.8 X
Track quality 100.0 %
Test CRC 84BAC35B
Copy CRC 84BAC35B
Track not present in AccurateRip database
Copy OK

Track 25

Filename K:\Audio Projects\EAC Rips\25 - Maybe You Would Love Me Then.wav

Pre-gap length 0:00:01.13

Peak level 97.9 %
Extraction speed 3.0 X
Track quality 100.0 %
Test CRC A42B0F04
Copy CRC A42B0F04
Track not present in AccurateRip database
Copy OK

Track 26

Filename K:\Audio Projects\EAC Rips\26 - It Took A Lot Of Love (To Let Her Go) [alt].wav

Pre-gap length 0:00:01.25

Peak level 97.9 %
Extraction speed 2.9 X
Track quality 100.0 %
Test CRC CE8294EF
Copy CRC CE8294EF
Track not present in AccurateRip database
Copy OK

Track 27

Filename K:\Audio Projects\EAC Rips\27 - Pain.wav

Pre-gap length 0:00:01.50

Peak level 97.9 %
Extraction speed 3.0 X
Track quality 100.0 %
Test CRC A6B55C45
Copy CRC A6B55C45
Track not present in AccurateRip database
Copy OK

Track 28

Filename K:\Audio Projects\EAC Rips\28 - I Put The Blue In Her Eyes.wav

Pre-gap length 0:00:01.33

Peak level 97.9 %
Extraction speed 3.1 X
Track quality 100.0 %
Test CRC 085D2926
Copy CRC 085D2926
Track not present in AccurateRip database
Copy OK

Track 29

Filename K:\Audio Projects\EAC Rips\29 - Wrong Side Of The Tracks.wav

Pre-gap length 0:00:01.08

Peak level 97.9 %
Extraction speed 3.1 X
Track quality 100.0 %
Test CRC 531ADCCE
Copy CRC 531ADCCE
Track not present in AccurateRip database
Copy OK

Track 30

Filename K:\Audio Projects\EAC Rips\30 - World War III.wav

Pre-gap length 0:00:01.05

Peak level 97.9 %
Extraction speed 2.8 X
Track quality 99.9 %
Test CRC CAB0A3EE
Copy CRC CAB0A3EE
Track not present in AccurateRip database
Copy OK


None of the tracks are present in the AccurateRip database

No errors occurred

End of status report

==== Log checksum A58468FBEA9BFBB349C057CB8D142779E37627A419BB57CF93ED8245022BE3E0 ====
Exact Audio Copy V1.0 beta 2 from 29. April 2011

EAC extraction logfile from 13. July 2011, 6:29

Frankie Miller / Blackland Farmer - The Complete Starday Recordings, And More [disc 3]

Used drive : HL-DT-STDVD+-RW GSA-H73N Adapter: 1 ID: 0

Read mode : Secure
Utilize accurate stream : Yes
Defeat audio cache : Yes
Make use of C2 pointers : No

Read offset correction : 102
Overread into Lead-In and Lead-Out : No
Fill up missing offset samples with silence : Yes
Delete leading and trailing silent blocks : No
Null samples used in CRC calculations : Yes
Used interface : Native Win32 interface for Win NT & 2000
Gap handling : Appended to previous track

Used output format : User Defined Encoder
Selected bitrate : 1024 kBit/s
Quality : High
Add ID3 tag : No
Command line compressor : C:\Program Files\Exact Audio Copy\FLAC\FLAC.EXE
Additional command line options : -8 -V -T "ARTIST=%artist%" -T "TITLE=%title%" -T "ALBUM=%albumtitle%" -T "DATE=%year%" -T "TRACKNUMBER=%tracknr%" -T "GENRE=%genre%" -T "PERFORMER=%albuminterpret%" -T "COMPOSER=%composer%" %haslyrics%–tag-from-file=LYRICS


TOC of the extracted CD

Track | Start | Length | Start sector | End sector
––––––––––––––––––––––––––––-
1 | 0:00.00 | 2:39.20 | 0 | 11944
2 | 2:39.20 | 2:20.50 | 11945 | 22494
3 | 4:59.70 | 2:01.20 | 22495 | 31589
4 | 7:01.15 | 2:03.10 | 31590 | 40824
5 | 9:04.25 | 2:16.12 | 40825 | 51036
6 | 11:20.37 | 2:45.53 | 51037 | 63464
7 | 14:06.15 | 1:21.12 | 63465 | 69551
8 | 15:27.27 | 1:42.20 | 69552 | 77221
9 | 17:09.47 | 1:51.20 | 77222 | 85566
10 | 19:00.67 | 2:41.23 | 85567 | 97664
11 | 21:42.15 | 3:12.30 | 97665 | 112094
12 | 24:54.45 | 2:01.47 | 112095 | 121216
13 | 26:56.17 | 1:10.58 | 121217 | 126524
14 | 28:07.00 | 1:10.67 | 126525 | 131841
15 | 29:17.67 | 1:29.70 | 131842 | 138586
16 | 30:47.62 | 0:59.48 | 138587 | 143059
17 | 31:47.35 | 1:13.65 | 143060 | 148599
18 | 33:01.25 | 1:58.62 | 148600 | 157511
19 | 35:00.12 | 1:43.23 | 157512 | 165259
20 | 36:43.35 | 2:17.47 | 165260 | 175581
21 | 39:01.07 | 2:03.18 | 175582 | 184824
22 | 41:04.25 | 1:26.15 | 184825 | 191289
23 | 42:30.40 | 1:26.15 | 191290 | 197754
24 | 43:56.55 | 2:27.12 | 197755 | 208791
25 | 46:23.67 | 2:49.58 | 208792 | 221524
26 | 49:13.50 | 1:13.20 | 221525 | 227019
27 | 50:26.70 | 2:28.15 | 227020 | 238134
28 | 52:55.10 | 2:52.40 | 238135 | 251074
29 | 55:47.50 | 1:40.62 | 251075 | 258636
30 | 57:28.37 | 1:40.15 | 258637 | 266151
31 | 59:08.52 | 0:37.58 | 266152 | 268984
32 | 59:46.35 | 1:23.17 | 268985 | 275226
33 | 61:09.52 | 0:55.40 | 275227 | 279391


Track 1

Filename K:\Audio Projects\EAC Rips\01 - Just For Spite.wav

Pre-gap length 0:00:02.00

Peak level 87.3 %
Extraction speed 1.2 X
Track quality 99.9 %
Test CRC 8CA38743
Copy CRC 8CA38743
Track not present in AccurateRip database
Copy OK

Track 2

Filename K:\Audio Projects\EAC Rips\02 - Give A Purpose To My Love.wav

Pre-gap length 0:00:01.65

Peak level 97.9 %
Extraction speed 1.5 X
Track quality 100.0 %
Test CRC D79E25F3
Copy CRC D79E25F3
Track not present in AccurateRip database
Copy OK

Track 3

Filename K:\Audio Projects\EAC Rips\03 - I Should Be.wav

Pre-gap length 0:00:01.43

Peak level 100.0 %
Extraction speed 1.5 X
Track quality 100.0 %
Test CRC 457C8B83
Copy CRC 457C8B83
Track not present in AccurateRip database
Copy OK

Track 4

Filename K:\Audio Projects\EAC Rips\04 - Don't Make Me Miss You.wav

Pre-gap length 0:00:01.10

Peak level 100.0 %
Extraction speed 1.3 X
Track quality 99.9 %
Test CRC C08E70FF
Copy CRC C08E70FF
Track not present in AccurateRip database
Copy OK

Track 5

Filename K:\Audio Projects\EAC Rips\05 - Impersonations - I Walk The Line and Always Late [Live].wav

Pre-gap length 0:00:01.48

Peak level 97.9 %
Extraction speed 1.7 X
Track quality 100.0 %
Test CRC 82695EDA
Copy CRC 82695EDA
Track not present in AccurateRip database
Copy OK

Track 6

Filename K:\Audio Projects\EAC Rips\06 - Katy Malone.wav

Pre-gap length 0:00:01.65

Peak level 100.0 %
Extraction speed 1.9 X
Track quality 100.0 %
Test CRC A3BF178B
Copy CRC A3BF178B
Track not present in AccurateRip database
Copy OK

Track 7

Filename K:\Audio Projects\EAC Rips\07 - It's Not Easy.wav

Pre-gap length 0:00:01.05

Peak level 97.9 %
Extraction speed 1.6 X
Track quality 100.0 %
Test CRC A044A732
Copy CRC A044A732
Track not present in AccurateRip database
Copy OK

Track 8

Filename K:\Audio Projects\EAC Rips\08 - Peppermint Candy.wav

Pre-gap length 0:00:01.02

Peak level 100.0 %
Extraction speed 1.4 X
Track quality 99.8 %
Test CRC EC5588DA
Copy CRC EC5588DA
Track not present in AccurateRip database
Copy OK

Track 9

Filename K:\Audio Projects\EAC Rips\09 - Family Man.wav

Pre-gap length 0:00:01.07

Peak level 98.0 %
Extraction speed 1.8 X
Track quality 100.0 %
Test CRC 25A0C9B0
Copy CRC 25A0C9B0
Track not present in AccurateRip database
Copy OK

Track 10

Filename K:\Audio Projects\EAC Rips\10 - Blues Of Yesterday.wav

Pre-gap length 0:00:01.10

Peak level 97.9 %
Extraction speed 1.7 X
Track quality 99.9 %
Test CRC BC3E0913
Copy CRC BC3E0913
Track not present in AccurateRip database
Copy OK

Track 11

Filename K:\Audio Projects\EAC Rips\11 - I Remember Dad.wav

Peak level 98.0 %
Extraction speed 2.2 X
Track quality 100.0 %
Test CRC 5704DBAD
Copy CRC 5704DBAD
Track not present in AccurateRip database
Copy OK

Track 12

Filename K:\Audio Projects\EAC Rips\12 - House Down The Road.wav

Pre-gap length 0:00:01.03

Peak level 97.9 %
Extraction speed 2.1 X
Track quality 100.0 %
Test CRC 3B0B3DF1
Copy CRC 3B0B3DF1
Track not present in AccurateRip database
Copy OK

Track 13

Filename K:\Audio Projects\EAC Rips\13 - A Little South Of Memphis.wav

Peak level 97.9 %
Extraction speed 1.8 X
Track quality 100.0 %
Test CRC 04A0F203
Copy CRC 04A0F203
Track not present in AccurateRip database
Copy OK

Track 14

Filename K:\Audio Projects\EAC Rips\14 - I'd Rather Have You.wav

Pre-gap length 0:00:01.20

Peak level 97.9 %
Extraction speed 1.8 X
Track quality 100.0 %
Test CRC CD025348
Copy CRC CD025348
Track not present in AccurateRip database
Copy OK

Track 15

Filename K:\Audio Projects\EAC Rips\15 - Tears Of Time.wav

Pre-gap length 0:00:01.50

Peak level 97.9 %
Extraction speed 1.5 X
Track quality 99.8 %
Test CRC 228B72D4
Copy CRC 228B72D4
Track not present in AccurateRip database
Copy OK

Track 16

Filename K:\Audio Projects\EAC Rips\16 - Funny Way Of Lovin'.wav

Pre-gap length 0:00:01.10

Peak level 97.9 %
Extraction speed 1.7 X
Track quality 100.0 %
Test CRC 3AA542A0
Copy CRC 3AA542A0
Track not present in AccurateRip database
Copy OK

Track 17

Filename K:\Audio Projects\EAC Rips\17 - Let's Forget It.wav

Pre-gap length 0:00:01.28

Peak level 97.9 %
Extraction speed 1.9 X
Track quality 100.0 %
Test CRC 06A8A531
Copy CRC 06A8A531
Track not present in AccurateRip database
Copy OK

Track 18

Filename K:\Audio Projects\EAC Rips\18 - Fall Of The Alamo.wav

Pre-gap length 0:00:01.55

Peak level 97.9 %
Extraction speed 1.8 X
Track quality 99.9 %
Test CRC B721E1DC
Copy CRC B721E1DC
Track not present in AccurateRip database
Copy OK

Track 19

Filename K:\Audio Projects\EAC Rips\19 - I'll Get Over You (Still Keep Hoping).wav

Pre-gap length 0:00:01.22

Peak level 97.9 %
Extraction speed 2.3 X
Track quality 100.0 %
Test CRC 4BA46A01
Copy CRC 4BA46A01
Track not present in AccurateRip database
Copy OK

Track 20

Filename K:\Audio Projects\EAC Rips\20 - A Tough Row To Hoe.wav

Pre-gap length 0:00:01.23

Peak level 97.9 %
Extraction speed 2.4 X
Track quality 100.0 %
Test CRC 2CBD25F4
Copy CRC 2CBD25F4
Track not present in AccurateRip database
Copy OK

Track 21

Filename K:\Audio Projects\EAC Rips\21 - The Wagon Yard.wav

Peak level 97.9 %
Extraction speed 2.4 X
Track quality 100.0 %
Test CRC 1D29B196
Copy CRC 1D29B196
Track not present in AccurateRip database
Copy OK

Track 22

Filename K:\Audio Projects\EAC Rips\22 - Out Of This World.wav

Pre-gap length 0:00:01.28

Peak level 97.9 %
Extraction speed 2.3 X
Track quality 100.0 %
Test CRC 1F4943C4
Copy CRC 1F4943C4
Track not present in AccurateRip database
Copy OK

Track 23

Filename K:\Audio Projects\EAC Rips\23 - She Put The Misery On Me.wav

Pre-gap length 0:00:01.55

Peak level 97.9 %
Extraction speed 2.3 X
Track quality 100.0 %
Test CRC 51A7BC4C
Copy CRC 51A7BC4C
Track not present in AccurateRip database
Copy OK

Track 24

Filename K:\Audio Projects\EAC Rips\24 - Lonesome Time.wav

Pre-gap length 0:00:01.18

Peak level 97.9 %
Extraction speed 2.7 X
Track quality 100.0 %
Test CRC 59B3812F
Copy CRC 59B3812F
Track not present in AccurateRip database
Copy OK

Track 25

Filename K:\Audio Projects\EAC Rips\25 - Keeping Up With The Jones.wav

Pre-gap length 0:00:01.07

Peak level 97.9 %
Extraction speed 2.8 X
Track quality 100.0 %
Test CRC BFE1549E
Copy CRC BFE1549E
Track not present in AccurateRip database
Copy OK

Track 26

Filename K:\Audio Projects\EAC Rips\26 - A Little Bit's Better (Than Nothing At All).wav

Pre-gap length 0:00:01.33

Peak level 97.9 %
Extraction speed 2.3 X
Track quality 100.0 %
Test CRC 6EC84CAD
Copy CRC 6EC84CAD
Track not present in AccurateRip database
Copy OK

Track 27

Filename K:\Audio Projects\EAC Rips\27 - Two Lips Away.wav

Peak level 97.9 %
Extraction speed 2.8 X
Track quality 100.0 %
Test CRC 05458DEC
Copy CRC 05458DEC
Track not present in AccurateRip database
Copy OK

Track 28

Filename K:\Audio Projects\EAC Rips\28 - Blackland Farmer [Live].wav

Pre-gap length 0:00:01.08

Peak level 100.0 %
Extraction speed 3.0 X
Track quality 100.0 %
Test CRC E394A19D
Copy CRC E394A19D
Track not present in AccurateRip database
Copy OK

Track 29

Filename K:\Audio Projects\EAC Rips\29 - Meeting Elvis At The Hayride [Conversation with Hank Davis].wav

Pre-gap length 0:00:03.48

Peak level 97.9 %
Extraction speed 2.6 X
Track quality 100.0 %
Test CRC 92F85BA2
Copy CRC 92F85BA2
Track not present in AccurateRip database
Copy OK

Track 30

Filename K:\Audio Projects\EAC Rips\30 - Memories Of Tommy Hill [Conversation with Hank Davis].wav

Pre-gap length 0:00:02.32

Peak level 96.7 %
Extraction speed 2.6 X
Track quality 100.0 %
Test CRC F6FAC816
Copy CRC F6FAC816
Track not present in AccurateRip database
Copy OK

Track 31

Filename K:\Audio Projects\EAC Rips\31 - Creating Hoofbeats [Conversation with Hank Davis].wav

Pre-gap length 0:00:02.47

Peak level 80.2 %
Extraction speed 1.8 X
Track quality 100.0 %
Test CRC 8D7E024C
Copy CRC 8D7E024C
Track not present in AccurateRip database
Copy OK

Track 32

Filename K:\Audio Projects\EAC Rips\32 - The Blackland Farmer Tape [Conversation with Hank Davis].wav

Pre-gap length 0:00:02.35

Peak level 97.9 %
Extraction speed 2.6 X
Track quality 100.0 %
Test CRC 7BF3D174
Copy CRC 7BF3D174
Track not present in AccurateRip database
Copy OK

Track 33

Filename K:\Audio Projects\EAC Rips\33 - Headlining A Rock Show [Conversation with Hank Davis].wav

Pre-gap length 0:00:02.40

Peak level 97.9 %
Extraction speed 2.2 X
Track quality 100.0 %
Test CRC C512E9C7
Copy CRC C512E9C7
Track not present in AccurateRip database
Copy OK


None of the tracks are present in the AccurateRip database

No errors occurred

End of status report

==== Log checksum 24630CE29E40BA81C9714E2CA6EF9C2B498FD6AFA7BCEE08237A3D56E56054C7 ====


Frankie Miller - Blackland Farmer - The Complete Starday Recordings and More (2008) {3CD, Bear Family BCD16566CH rec 1957-1969}



===