Tags
Language
Tags

Various Artists - Gathered from Coincidence: The British Folk-Pop Sound of 1965-1966 (2018) {3CD Set, Grapefruit CRSEGBOX043}

Posted By: ruskaval
Various Artists - Gathered from Coincidence: The British Folk-Pop Sound of 1965-1966 (2018) {3CD Set, Grapefruit CRSEGBOX043}

Various Artists - Gathered from Coincidence: The British Folk-Pop Sound of 1965-1966 (2018) {3CD Set, Grapefruit CRSEGBOX043}
EAC rip (secure mode) | FLAC (tracks)+CUE+LOG -> 791 Mb | MP3 @320 -> 485 Mb
Full Artwork @ 300 dpi (jpg) -> 24 Mb | 5% repair rar
© 1965-66, 2018 Grapefruit Records / Cherry Records | CRSEGBOX043
Rock / Pop / Folk Pop / Folk Rock / Psychedelic Rock

Prior to the early Sixties, folk and pop musicians inhabited largely different worlds. There were folk records that had become crossover pop hits, but in essence there was little or no common ground in terms of instrumentation or ideologies. But in the wake of the British beat/R&B boom (or, if you were in America, the British Invasion) and the emergence of Bob Dylan, such barriers were broken down for good. With British acts making music that, for the first time in nascent pop history, matched the quality of their American counterparts, suddenly everything was grist to the mill and musical cross-pollination was almost de rigueur.
Various Artists - Gathered from Coincidence: The British Folk-Pop Sound of 1965-1966 (2018) {3CD Set, Grapefruit CRSEGBOX043}

Dylan and The Beatles impacted heavily on each other, while The Byrds were pitched midway between the two - although their combination of jingle-jangle guitars and world-weary harmonies was heavily indebted to folk-pop pioneers The Searchers. By 1965, the folk-pop nexus was at it's glorious peak. That was particularly true in Britain, which saw many variations on the basic pop-meets-folk theme (in America, folk-rock had a relatively homogenised sound). Across three CDs and 79 tracks, Gathered From Coincidence examines every aspect of the British mid-Sixties folk-pop boom, incorporating Dylan-inspired singer/songwriters with a commercial pop sensibility, the more introverted beat groups, Marianne Faithfull-inspired female chanteuses and R&B hoodlums in newly-pensive mode, all bound together by the 6 or 12-string thrum or Rickenbacker clang. Ranging from massive chart hits to records that barely sold in double figures, Gathered From Coincidence includes the true believers, the musical dilettantes, the young wannabes, the cash-in merchants, the old guard looking to resuscitate a fading career and, of course, the earnest protest singers - and, just for good measure, we've also rounded up a handful of folksploitation discs from those positioning themselves for roughly three minutes as anti-protest protesters. With a significant number of tracks making their CD debut and even a couple of previously unissued cuts, Gathered From Coincidence is a fascinating, even revelatory overview of a still largely-neglected stitch in pop's unending tapestry: that curiously downbeat two-year period between the dying embers of the beat boom's irresistible exuberance and the arrival of psychedelia's swirling multi-coloured hues.
Various Artists - Gathered from Coincidence: The British Folk-Pop Sound of 1965-1966 (2018) {3CD Set, Grapefruit CRSEGBOX043}


Track Listing:

Disc: 1

1. Take Me For What I'm Worth - The Searchers
2. Morning's Calling - Peter & Gordon
3. Come And Stay With Me - Marianne Faithfull
4. Follow Me - The Tony Jackson Group
5. It's Your Turn To Cry - Terry Kennedy & John Carter
6. Rejected - The Fenmen
7. I Love Her Still - The Poets
8. Frosted Panes - The Kytes
9. Golden Lights - Twinkle
10. I Won't Be Round You Anymore - The Chosen Few
11. Absolutely Sweet Marie - The Factotums
12. Hey Woman - Kenny Bernard
13. Hey Mama You've Been On My Mind - The Caravelles
14. Don't Go Away - The Zombies
15. Now The Sun Has Gone - The Beatmen
16. Think About The Times - The Times
17. Penny Arcade - Michael Leslie
18. Beyond The Risin' Sun - Marc Bolan
19. Till You Say You'll Be Mine - Olivia Newton-John
20. Go Away - The Mirage featuring Graham Nash
21. It's All Leading Up To Saturday Night (Prev. Unreleased) - The Knack
22. You've Cooled - Five Steps Beyond
23. There's Just No Pleasing You - The Epics
24. Splendor In The Grass - Gullivers People
25. Mr. Smith - The Foresters
26. It's All Over Now Baby Blue - The Cops в?N Robbers

Various Artists - Gathered from Coincidence: The British Folk-Pop Sound of 1965-1966 (2018) {3CD Set, Grapefruit CRSEGBOX043}


Disc: 2
1. Like A Rolling Stone - The Other Side
2. Well, How Does It Feel? - Barbara Ruskin
3. Lovers Of The World Unite - David & Jonathan
4. Catch The Wind - Donovan
5. Age Of Corruption - Alan Klein
6. Blessed - Guy Darrell
7. That Man's Got No Luck - Gary Benson
8. It's Good News Week - Hedgehoppers Anonymous
9. Bells - Dave Helling
10. Very Last Day - The Hollies
11. Sometime Never Day - Bill Fay
12. Don't You Cry Over Me - The Slade Brothers
13. When The Ship Comes In - Folk Blues Incorporated
14. Wake Up My Mind - The Uglys
15. Please Don't Switch Off The Moon Mr. Spaceman - Nicholas Hammond
16. The Protest Singer - Micha
17. Square Peg - The Four Pennies
18. Gotta Make Their Future Bright - First Gear
19. The Bells Of Rhymney - Murray Head
20. Don't Talk To Me Of Protest - Jonathan King
21. Dejection (Demo Version) - Fiveв?s Company
22. That's Not My Kind Of Love - Mick Softley with The Summer Suns
23. Don't Sing No Sad Songs For Me - The Sorrows
24. Rattle Of A Toy - Tommy Yates
25. Talkin' Denmark Street (Prev. Unissued) - John Cassidie
26. The Times They Are A-Changin' - The Ian Campbell Folk Group

Various Artists - Gathered from Coincidence: The British Folk-Pop Sound of 1965-1966 (2018) {3CD Set, Grapefruit CRSEGBOX043}


Disc: 3
1. You've Got To Hide Your Love Away - The Silkie
2. Wait Till The Summer Comes Along - The Kinks
3. Don't Make Promises (You Can't Keep) - Peter Nelson
4. Cheryl's Going Home - Adam Faith
5. If You Gotta Go, Go Now - Manfred Mann
6. I'm Looking Through You - Davey Graham
7. Night Comes Down - Jon-Mark
8. Early Morning Rain - The Settlers
9. Sadness Hides The Sun - Greta Ann
10. Thank You Boy - Dana Gillespie
11. Love Minus Zero No Limit - The Compromise
12. Day Must Come - Justin Hayward
13. The Clown In The Alley - Meic Stevens
14. I'm On Your Side - The Frugal Sound
15. London Town - The Pretty Things
16. Picking Up The Sunshine (Aka Bert's Blues) - Beverley
17. Corrina Corrina - The Nightshift
18. Listen People - Sarah Jane
19. Four Strong Winds - Chad & Jeremy
20. So Sad (To Watch Good Love Go Bad) - The Greenbeats
21. Don't Think Twice It's Alright - Heinz with the Wild Boys
22. Today Is The Highway - The Ramblers
23. Love Is Strange - The Overlanders
24. Subterranean Homesick Blues - Chas McDevitt & Shirley Douglas
25. Mary Anne - The Shadows
26. The Carnival Is Over - The Seekers

Various Artists - Gathered from Coincidence: The British Folk-Pop Sound of 1965-1966 (2018) {3CD Set, Grapefruit CRSEGBOX043}


Exact Audio Copy V1.2 from 12. August 2016

EAC extraction logfile from 6. January 2019, 14:05

Various Artists / Gathered From Coincidence CD1

Used drive : HL-DT-STDVD+-RW GU90N Adapter: 1 ID: 1

Read mode : Secure
Utilize accurate stream : Yes
Defeat audio cache : Yes
Make use of C2 pointers : No

Read offset correction : 102
Overread into Lead-In and Lead-Out : No
Fill up missing offset samples with silence : Yes
Delete leading and trailing silent blocks : No
Null samples used in CRC calculations : Yes
Used interface : Native Win32 interface for Win NT & 2000
Gap handling : Appended to previous track

Used output format : User Defined Encoder
Selected bitrate : 1024 kBit/s
Quality : High
Add ID3 tag : No
Command line compressor : C:\Program Files (x86)\Exact Audio Copy\Flac\flac.exe
Additional command line options : -8 -V -T "ARTIST=%artist%" -T "TITLE=%title%" -T "ALBUM=%albumtitle%" -T "DATE=%year%" -T "TRACKNUMBER=%tracknr%" -T "GENRE=%genre%" -T "PERFORMER=%albuminterpret%" -T "COMPOSER=%composer%" %haslyrics%–tag-from-file=LYRICS="%lyricsfile%"%haslyrics% -T "ALBUMARTIST=%albumartist%" -T "DISCNUMBER=%cdnumber%" -T "TOTALDISCS=%totalcds%" -T "TOTALTRACKS=%numtracks%" -T "COMMENT=%comment%" %source% -o %dest%


TOC of the extracted CD

Track | Start | Length | Start sector | End sector
––––––––––––––––––––––––––––-
1 | 0:00.00 | 2:42.60 | 0 | 12209
2 | 2:42.60 | 2:54.24 | 12210 | 25283
3 | 5:37.09 | 2:26.18 | 25284 | 36251
4 | 8:03.27 | 2:53.49 | 36252 | 49275
5 | 10:57.01 | 2:48.13 | 49276 | 61888
6 | 13:45.14 | 2:15.66 | 61889 | 72079
7 | 16:01.05 | 1:46.35 | 72080 | 80064
8 | 17:47.40 | 2:14.21 | 80065 | 90135
9 | 20:01.61 | 2:33.67 | 90136 | 101677
10 | 22:35.53 | 2:44.61 | 101678 | 114038
11 | 25:20.39 | 3:03.28 | 114039 | 127791
12 | 28:23.67 | 3:01.02 | 127792 | 141368
13 | 31:24.69 | 2:29.03 | 141369 | 152546
14 | 33:53.72 | 2:34.50 | 152547 | 164146
15 | 36:28.47 | 2:40.20 | 164147 | 176166
16 | 39:08.67 | 2:17.08 | 176167 | 186449
17 | 41:26.00 | 2:14.64 | 186450 | 196563
18 | 43:40.64 | 1:44.36 | 196564 | 204399
19 | 45:25.25 | 2:37.45 | 204400 | 216219
20 | 48:02.70 | 1:51.32 | 216220 | 224576
21 | 49:54.27 | 2:33.71 | 224577 | 236122
22 | 52:28.23 | 2:35.05 | 236123 | 247752
23 | 55:03.28 | 2:18.04 | 247753 | 258106
24 | 57:21.32 | 2:16.61 | 258107 | 268367
25 | 59:38.18 | 3:01.26 | 268368 | 281968
26 | 62:39.44 | 3:38.58 | 281969 | 298376


Track 1

Filename C:\Users\ian\Desktop\VA - Gathered From Coincidence The British Folk Pop Sound Of 1965-66 (2018) [FLAC] {3CD}\Gathered From Coincidence CD1\01 - Searchers The - Take Me For What I'm Worth.wav

Pre-gap length 0:00:02.00

Peak level 96.6 %
Extraction speed 1.0 X
Track quality 100.0 %
Test CRC CF49133D
Copy CRC CF49133D
Copy OK

Track 2

Filename C:\Users\ian\Desktop\VA - Gathered From Coincidence The British Folk Pop Sound Of 1965-66 (2018) [FLAC] {3CD}\Gathered From Coincidence CD1\02 - Peter & Gordon - Morning's Calling.wav

Pre-gap length 0:00:02.00

Peak level 96.6 %
Extraction speed 1.1 X
Track quality 100.0 %
Test CRC 20F95DB5
Copy CRC 20F95DB5
Copy OK

Track 3

Filename C:\Users\ian\Desktop\VA - Gathered From Coincidence The British Folk Pop Sound Of 1965-66 (2018) [FLAC] {3CD}\Gathered From Coincidence CD1\03 - Marianne Faithful - Come And Stay With Me.wav

Pre-gap length 0:00:02.00

Peak level 96.6 %
Extraction speed 1.2 X
Track quality 100.0 %
Test CRC FEC6ECF9
Copy CRC FEC6ECF9
Copy OK

Track 4

Filename C:\Users\ian\Desktop\VA - Gathered From Coincidence The British Folk Pop Sound Of 1965-66 (2018) [FLAC] {3CD}\Gathered From Coincidence CD1\04 - Tony Jackson Group The - Follow Me.wav

Pre-gap length 0:00:02.00

Peak level 96.6 %
Extraction speed 1.3 X
Track quality 100.0 %
Test CRC FF9732EB
Copy CRC FF9732EB
Copy OK

Track 5

Filename C:\Users\ian\Desktop\VA - Gathered From Coincidence The British Folk Pop Sound Of 1965-66 (2018) [FLAC] {3CD}\Gathered From Coincidence CD1\05 - Terry Kennedy & John Carter - It's Your Turn To Cry.wav

Pre-gap length 0:00:02.00

Peak level 96.6 %
Extraction speed 1.3 X
Track quality 100.0 %
Test CRC 2EFE35D1
Copy CRC 2EFE35D1
Copy OK

Track 6

Filename C:\Users\ian\Desktop\VA - Gathered From Coincidence The British Folk Pop Sound Of 1965-66 (2018) [FLAC] {3CD}\Gathered From Coincidence CD1\06 - The Fenmen - Rejected.wav

Pre-gap length 0:00:02.00

Peak level 96.6 %
Extraction speed 1.3 X
Track quality 100.0 %
Test CRC 52823B77
Copy CRC 52823B77
Copy OK

Track 7

Filename C:\Users\ian\Desktop\VA - Gathered From Coincidence The British Folk Pop Sound Of 1965-66 (2018) [FLAC] {3CD}\Gathered From Coincidence CD1\07 - The Poets - I Love Her Still.wav

Pre-gap length 0:00:02.00

Peak level 96.6 %
Extraction speed 1.3 X
Track quality 100.0 %
Test CRC 014C6EE9
Copy CRC 014C6EE9
Copy OK

Track 8

Filename C:\Users\ian\Desktop\VA - Gathered From Coincidence The British Folk Pop Sound Of 1965-66 (2018) [FLAC] {3CD}\Gathered From Coincidence CD1\08 - The Kytes - Frosted Panes.wav

Pre-gap length 0:00:02.00

Peak level 96.6 %
Extraction speed 1.4 X
Track quality 100.0 %
Test CRC B54B32D2
Copy CRC B54B32D2
Copy OK

Track 9

Filename C:\Users\ian\Desktop\VA - Gathered From Coincidence The British Folk Pop Sound Of 1965-66 (2018) [FLAC] {3CD}\Gathered From Coincidence CD1\09 - Twinkle - Golden Lights.wav

Pre-gap length 0:00:02.00

Peak level 96.6 %
Extraction speed 1.5 X
Track quality 100.0 %
Test CRC E6670D08
Copy CRC E6670D08
Copy OK

Track 10

Filename C:\Users\ian\Desktop\VA - Gathered From Coincidence The British Folk Pop Sound Of 1965-66 (2018) [FLAC] {3CD}\Gathered From Coincidence CD1\10 - The Chosen Few - I Won't Be Round You Anymore.wav

Pre-gap length 0:00:02.00

Peak level 96.6 %
Extraction speed 1.6 X
Track quality 100.0 %
Test CRC 5F1885E7
Copy CRC 5F1885E7
Copy OK

Track 11

Filename C:\Users\ian\Desktop\VA - Gathered From Coincidence The British Folk Pop Sound Of 1965-66 (2018) [FLAC] {3CD}\Gathered From Coincidence CD1\11 - The Factotums - Absolutely Sweet Marie.wav

Pre-gap length 0:00:02.00

Peak level 96.6 %
Extraction speed 1.7 X
Track quality 100.0 %
Test CRC 595DC64B
Copy CRC 595DC64B
Copy OK

Track 12

Filename C:\Users\ian\Desktop\VA - Gathered From Coincidence The British Folk Pop Sound Of 1965-66 (2018) [FLAC] {3CD}\Gathered From Coincidence CD1\12 - Kenny Bernard - Hey Woman.wav

Pre-gap length 0:00:02.00

Peak level 96.6 %
Extraction speed 1.7 X
Track quality 100.0 %
Test CRC 4C6E1F26
Copy CRC 4C6E1F26
Copy OK

Track 13

Filename C:\Users\ian\Desktop\VA - Gathered From Coincidence The British Folk Pop Sound Of 1965-66 (2018) [FLAC] {3CD}\Gathered From Coincidence CD1\13 - The Caravelles - Hey Mama You've Been On My Mind.wav

Pre-gap length 0:00:02.00

Peak level 86.1 %
Extraction speed 1.4 X
Track quality 99.9 %
Test CRC 7C8E5855
Copy CRC 7C8E5855
Copy OK

Track 14

Filename C:\Users\ian\Desktop\VA - Gathered From Coincidence The British Folk Pop Sound Of 1965-66 (2018) [FLAC] {3CD}\Gathered From Coincidence CD1\14 - The Zombies - Don't Go Away.wav

Pre-gap length 0:00:02.00

Peak level 96.6 %
Extraction speed 1.5 X
Track quality 99.9 %
Test CRC B63D6900
Copy CRC B63D6900
Copy OK

Track 15

Filename C:\Users\ian\Desktop\VA - Gathered From Coincidence The British Folk Pop Sound Of 1965-66 (2018) [FLAC] {3CD}\Gathered From Coincidence CD1\15 - The Beatmen - Now The Sun Has Gone.wav

Pre-gap length 0:00:02.00

Peak level 96.6 %
Extraction speed 1.8 X
Track quality 100.0 %
Test CRC 4C8A270E
Copy CRC 4C8A270E
Copy OK

Track 16

Filename C:\Users\ian\Desktop\VA - Gathered From Coincidence The British Folk Pop Sound Of 1965-66 (2018) [FLAC] {3CD}\Gathered From Coincidence CD1\16 - The Times - Think About The Times.wav

Pre-gap length 0:00:02.00

Peak level 96.6 %
Extraction speed 1.5 X
Track quality 99.9 %
Test CRC 7601AEDF
Copy CRC 7601AEDF
Copy OK

Track 17

Filename C:\Users\ian\Desktop\VA - Gathered From Coincidence The British Folk Pop Sound Of 1965-66 (2018) [FLAC] {3CD}\Gathered From Coincidence CD1\17 - Michael Leslie - Penny Arcade.wav

Pre-gap length 0:00:02.00

Peak level 96.6 %
Extraction speed 1.8 X
Track quality 100.0 %
Test CRC 3B4F2017
Copy CRC 3B4F2017
Copy OK

Track 18

Filename C:\Users\ian\Desktop\VA - Gathered From Coincidence The British Folk Pop Sound Of 1965-66 (2018) [FLAC] {3CD}\Gathered From Coincidence CD1\18 - Marc Bolan - Beyond The Risin' Sun.wav

Pre-gap length 0:00:02.00

Peak level 96.6 %
Extraction speed 1.8 X
Track quality 100.0 %
Test CRC C0FBCD4B
Copy CRC C0FBCD4B
Copy OK

Track 19

Filename C:\Users\ian\Desktop\VA - Gathered From Coincidence The British Folk Pop Sound Of 1965-66 (2018) [FLAC] {3CD}\Gathered From Coincidence CD1\19 - Olivia Newton-John - Till You Say You'll Be Mine.wav

Pre-gap length 0:00:02.00

Peak level 96.6 %
Extraction speed 2.0 X
Track quality 100.0 %
Test CRC 51B9E541
Copy CRC 51B9E541
Copy OK

Track 20

Filename C:\Users\ian\Desktop\VA - Gathered From Coincidence The British Folk Pop Sound Of 1965-66 (2018) [FLAC] {3CD}\Gathered From Coincidence CD1\20 - Mirage The feat Graham Nash - Go Away.wav

Pre-gap length 0:00:02.00

Peak level 86.1 %
Extraction speed 1.9 X
Track quality 100.0 %
Test CRC D565A7CA
Copy CRC D565A7CA
Copy OK

Track 21

Filename C:\Users\ian\Desktop\VA - Gathered From Coincidence The British Folk Pop Sound Of 1965-66 (2018) [FLAC] {3CD}\Gathered From Coincidence CD1\21 - The Knack - It's All Leading Up To Saturday Night.wav

Pre-gap length 0:00:02.00

Peak level 96.6 %
Extraction speed 2.0 X
Track quality 100.0 %
Test CRC 874F0B84
Copy CRC 874F0B84
Copy OK

Track 22

Filename C:\Users\ian\Desktop\VA - Gathered From Coincidence The British Folk Pop Sound Of 1965-66 (2018) [FLAC] {3CD}\Gathered From Coincidence CD1\22 - Five Steps Beyond - You've Cooled.wav

Pre-gap length 0:00:02.00

Peak level 96.6 %
Extraction speed 2.1 X
Track quality 100.0 %
Test CRC 276FABF8
Copy CRC 276FABF8
Copy OK

Track 23

Filename C:\Users\ian\Desktop\VA - Gathered From Coincidence The British Folk Pop Sound Of 1965-66 (2018) [FLAC] {3CD}\Gathered From Coincidence CD1\23 - The Epics - There's Just No Pleasing You.wav

Pre-gap length 0:00:02.00

Peak level 96.6 %
Extraction speed 2.1 X
Track quality 100.0 %
Test CRC E945D8CF
Copy CRC E945D8CF
Copy OK

Track 24

Filename C:\Users\ian\Desktop\VA - Gathered From Coincidence The British Folk Pop Sound Of 1965-66 (2018) [FLAC] {3CD}\Gathered From Coincidence CD1\24 - Gullivers People - Spleandour In The Grass.wav

Pre-gap length 0:00:02.00

Peak level 90.0 %
Extraction speed 2.1 X
Track quality 100.0 %
Test CRC 84AE25F4
Copy CRC 84AE25F4
Copy OK

Track 25

Filename C:\Users\ian\Desktop\VA - Gathered From Coincidence The British Folk Pop Sound Of 1965-66 (2018) [FLAC] {3CD}\Gathered From Coincidence CD1\25 - The Foresters - Mr Smith.wav

Pre-gap length 0:00:02.00

Peak level 96.6 %
Extraction speed 2.2 X
Track quality 100.0 %
Test CRC AC7B5073
Copy CRC AC7B5073
Copy OK

Track 26

Filename C:\Users\ian\Desktop\VA - Gathered From Coincidence The British Folk Pop Sound Of 1965-66 (2018) [FLAC] {3CD}\Gathered From Coincidence CD1\26 - The Cops 'N Robbers - It's All Over Now Baby Blue.wav

Pre-gap length 0:00:02.00

Peak level 96.6 %
Extraction speed 2.1 X
Track quality 99.9 %
Test CRC 95F28F9D
Copy CRC 95F28F9D
Copy OK

No errors occurred

End of status report

–– CUETools DB Plugin V2.1.6

[CTDB TOCID: MO.HeENOV1.4GbQ1qjaGwQfKG74-] found
Submit result: MO.HeENOV1.4GbQ1qjaGwQfKG74- has been confirmed
Track | CTDB Status
1 | (4/4) Accurately ripped
2 | (4/4) Accurately ripped
3 | (4/4) Accurately ripped
4 | (4/4) Accurately ripped
5 | (4/4) Accurately ripped
6 | (4/4) Accurately ripped
7 | (4/4) Accurately ripped
8 | (4/4) Accurately ripped
9 | (4/4) Accurately ripped
10 | (4/4) Accurately ripped
11 | (4/4) Accurately ripped
12 | (4/4) Accurately ripped
13 | (4/4) Accurately ripped
14 | (4/4) Accurately ripped
15 | (4/4) Accurately ripped
16 | (4/4) Accurately ripped
17 | (4/4) Accurately ripped
18 | (4/4) Accurately ripped
19 | (4/4) Accurately ripped
20 | (4/4) Accurately ripped
21 | (4/4) Accurately ripped
22 | (4/4) Accurately ripped
23 | (4/4) Accurately ripped
24 | (4/4) Accurately ripped
25 | (4/4) Accurately ripped
26 | (4/4) Accurately ripped


==== Log checksum AB14FE7291BDAF66972D67A04202BC5FF4262E1A815BD36593BF84AB8B47335B ====




Exact Audio Copy V1.2 from 12. August 2016

EAC extraction logfile from 7. January 2019, 13:09

Various Artists / Gathered From Coincidence CD2

Used drive : HL-DT-STDVD+-RW GU90N Adapter: 1 ID: 1

Read mode : Secure
Utilize accurate stream : Yes
Defeat audio cache : Yes
Make use of C2 pointers : No

Read offset correction : 102
Overread into Lead-In and Lead-Out : No
Fill up missing offset samples with silence : Yes
Delete leading and trailing silent blocks : No
Null samples used in CRC calculations : Yes
Used interface : Native Win32 interface for Win NT & 2000
Gap handling : Appended to previous track

Used output format : User Defined Encoder
Selected bitrate : 1024 kBit/s
Quality : High
Add ID3 tag : No
Command line compressor : C:\Program Files (x86)\Exact Audio Copy\Flac\flac.exe
Additional command line options : -8 -V -T "ARTIST=%artist%" -T "TITLE=%title%" -T "ALBUM=%albumtitle%" -T "DATE=%year%" -T "TRACKNUMBER=%tracknr%" -T "GENRE=%genre%" -T "PERFORMER=%albuminterpret%" -T "COMPOSER=%composer%" %haslyrics%–tag-from-file=LYRICS="%lyricsfile%"%haslyrics% -T "ALBUMARTIST=%albumartist%" -T "DISCNUMBER=%cdnumber%" -T "TOTALDISCS=%totalcds%" -T "TOTALTRACKS=%numtracks%" -T "COMMENT=%comment%" %source% -o %dest%


TOC of the extracted CD

Track | Start | Length | Start sector | End sector
––––––––––––––––––––––––––––-
1 | 0:00.00 | 3:54.46 | 0 | 17595
2 | 3:54.46 | 2:41.03 | 17596 | 29673
3 | 6:35.49 | 2:35.53 | 29674 | 41351
4 | 9:11.27 | 2:17.66 | 41352 | 51692
5 | 11:29.18 | 3:34.28 | 51693 | 67770
6 | 15:03.46 | 3:22.04 | 67771 | 82924
7 | 18:25.50 | 2:45.50 | 82925 | 95349
8 | 21:11.25 | 2:07.31 | 95350 | 104905
9 | 23:18.56 | 3:09.59 | 104906 | 119139
10 | 26:28.40 | 2:59.07 | 119140 | 132571
11 | 29:27.47 | 2:03.73 | 132572 | 141869
12 | 31:31.45 | 2:15.09 | 141870 | 152003
13 | 33:46.54 | 2:49.23 | 152004 | 164701
14 | 36:36.02 | 2:49.45 | 164702 | 177421
15 | 39:25.47 | 2:21.16 | 177422 | 188012
16 | 41:46.63 | 3:04.56 | 188013 | 201868
17 | 44:51.44 | 1:55.48 | 201869 | 210541
18 | 46:47.17 | 2:01.58 | 210542 | 219674
19 | 48:49.00 | 2:55.65 | 219675 | 232864
20 | 51:44.65 | 2:17.00 | 232865 | 243139
21 | 54:01.65 | 2:40.06 | 243140 | 255145
22 | 56:41.71 | 3:08.17 | 255146 | 269262
23 | 59:50.13 | 2:22.22 | 269263 | 279934
24 | 62:12.35 | 2:07.42 | 279935 | 289501
25 | 64:20.02 | 4:12.23 | 289502 | 308424
26 | 68:32.25 | 3:07.54 | 308425 | 322503


Track 1

Filename C:\Users\ian\Desktop\VA - Gathered From Coincidence The British Folk Pop Sound Of 1965-66 (2018) [FLAC] {3CD}\Gathered From Coincidence CD2\01 - Other Side The - Like A Rolling Stone.wav

Pre-gap length 0:00:02.00

Peak level 96.6 %
Extraction speed 1.2 X
Track quality 100.0 %
Test CRC E7F0800A
Copy CRC E7F0800A
Copy OK

Track 2

Filename C:\Users\ian\Desktop\VA - Gathered From Coincidence The British Folk Pop Sound Of 1965-66 (2018) [FLAC] {3CD}\Gathered From Coincidence CD2\02 - Barbara Ruskin - Well, How Does It Feel.wav

Pre-gap length 0:00:02.00

Peak level 96.6 %
Extraction speed 1.2 X
Track quality 100.0 %
Test CRC E7691DBC
Copy CRC E7691DBC
Copy OK

Track 3

Filename C:\Users\ian\Desktop\VA - Gathered From Coincidence The British Folk Pop Sound Of 1965-66 (2018) [FLAC] {3CD}\Gathered From Coincidence CD2\03 - David & Jonathan - Lovers Of The World Unite.wav

Pre-gap length 0:00:02.00

Peak level 96.6 %
Extraction speed 1.0 X
Track quality 99.9 %
Test CRC C713F798
Copy CRC C713F798
Copy OK

Track 4

Filename C:\Users\ian\Desktop\VA - Gathered From Coincidence The British Folk Pop Sound Of 1965-66 (2018) [FLAC] {3CD}\Gathered From Coincidence CD2\04 - Donovan - Catch The Wind.wav

Pre-gap length 0:00:02.00

Peak level 96.6 %
Extraction speed 1.3 X
Track quality 100.0 %
Test CRC DEA77667
Copy CRC DEA77667
Copy OK

Track 5

Filename C:\Users\ian\Desktop\VA - Gathered From Coincidence The British Folk Pop Sound Of 1965-66 (2018) [FLAC] {3CD}\Gathered From Coincidence CD2\05 - Alan Klein - Age Of Corruption.wav

Pre-gap length 0:00:02.00

Peak level 96.6 %
Extraction speed 1.4 X
Track quality 100.0 %
Test CRC BDA2CD83
Copy CRC BDA2CD83
Copy OK

Track 6

Filename C:\Users\ian\Desktop\VA - Gathered From Coincidence The British Folk Pop Sound Of 1965-66 (2018) [FLAC] {3CD}\Gathered From Coincidence CD2\06 - Guy Darrell - Blessed.wav

Pre-gap length 0:00:02.00

Peak level 96.6 %
Extraction speed 1.5 X
Track quality 100.0 %
Test CRC A9007714
Copy CRC A9007714
Copy OK

Track 7

Filename C:\Users\ian\Desktop\VA - Gathered From Coincidence The British Folk Pop Sound Of 1965-66 (2018) [FLAC] {3CD}\Gathered From Coincidence CD2\07 - Gary Benson - That Man's Got No Luck.wav

Pre-gap length 0:00:02.00

Peak level 96.6 %
Extraction speed 1.3 X
Track quality 99.9 %
Test CRC 3C3D9FAF
Copy CRC 3C3D9FAF
Copy OK

Track 8

Filename C:\Users\ian\Desktop\VA - Gathered From Coincidence The British Folk Pop Sound Of 1965-66 (2018) [FLAC] {3CD}\Gathered From Coincidence CD2\08 - Hedgehoppers Anonymous - It's Good News Week.wav

Pre-gap length 0:00:02.00

Peak level 96.6 %
Extraction speed 1.5 X
Track quality 100.0 %
Test CRC 0F2395EE
Copy CRC 0F2395EE
Copy OK

Track 9

Filename C:\Users\ian\Desktop\VA - Gathered From Coincidence The British Folk Pop Sound Of 1965-66 (2018) [FLAC] {3CD}\Gathered From Coincidence CD2\09 - Dave Helling - Bells.wav

Pre-gap length 0:00:02.00

Peak level 96.6 %
Extraction speed 1.7 X
Track quality 100.0 %
Test CRC DE28AD9A
Copy CRC DE28AD9A
Copy OK

Track 10

Filename C:\Users\ian\Desktop\VA - Gathered From Coincidence The British Folk Pop Sound Of 1965-66 (2018) [FLAC] {3CD}\Gathered From Coincidence CD2\10 - The Hollies - Very Last Day.wav

Pre-gap length 0:00:02.00

Peak level 96.6 %
Extraction speed 1.7 X
Track quality 100.0 %
Test CRC 7458E97C
Copy CRC 7458E97C
Copy OK

Track 11

Filename C:\Users\ian\Desktop\VA - Gathered From Coincidence The British Folk Pop Sound Of 1965-66 (2018) [FLAC] {3CD}\Gathered From Coincidence CD2\11 - Bill Fay - Sometime Never Day.wav

Pre-gap length 0:00:02.00

Peak level 96.6 %
Extraction speed 1.6 X
Track quality 100.0 %
Test CRC 8A213C46
Copy CRC 8A213C46
Copy OK

Track 12

Filename C:\Users\ian\Desktop\VA - Gathered From Coincidence The British Folk Pop Sound Of 1965-66 (2018) [FLAC] {3CD}\Gathered From Coincidence CD2\12 - The Slade Brothers - Don't You Cry Over Me.wav

Pre-gap length 0:00:02.00

Peak level 96.6 %
Extraction speed 1.4 X
Track quality 99.9 %
Test CRC 120C6B19
Copy CRC 120C6B19
Copy OK

Track 13

Filename C:\Users\ian\Desktop\VA - Gathered From Coincidence The British Folk Pop Sound Of 1965-66 (2018) [FLAC] {3CD}\Gathered From Coincidence CD2\13 - Folk Blues Incorperated - When The Ship Comes In.wav

Pre-gap length 0:00:02.00

Peak level 96.6 %
Extraction speed 1.6 X
Track quality 99.9 %
Test CRC F84B69D3
Copy CRC F84B69D3
Copy OK

Track 14

Filename C:\Users\ian\Desktop\VA - Gathered From Coincidence The British Folk Pop Sound Of 1965-66 (2018) [FLAC] {3CD}\Gathered From Coincidence CD2\14 - The Ugly's - Wake Up My Mind.wav

Pre-gap length 0:00:02.00

Peak level 96.6 %
Extraction speed 1.9 X
Track quality 100.0 %
Test CRC 23EFF803
Copy CRC 23EFF803
Copy OK

Track 15

Filename C:\Users\ian\Desktop\VA - Gathered From Coincidence The British Folk Pop Sound Of 1965-66 (2018) [FLAC] {3CD}\Gathered From Coincidence CD2\15 - Nicholas Hammond - Please Don't Switch Off The Moon Mr. Spaceman.wav

Pre-gap length 0:00:02.00

Peak level 96.6 %
Extraction speed 1.8 X
Track quality 100.0 %
Test CRC 2EFC3DC0
Copy CRC 2EFC3DC0
Copy OK

Track 16

Filename C:\Users\ian\Desktop\VA - Gathered From Coincidence The British Folk Pop Sound Of 1965-66 (2018) [FLAC] {3CD}\Gathered From Coincidence CD2\16 - Micha - The Protest Singer.wav

Pre-gap length 0:00:02.00

Peak level 96.6 %
Extraction speed 2.0 X
Track quality 100.0 %
Test CRC 03C4A5AB
Copy CRC 03C4A5AB
Copy OK

Track 17

Filename C:\Users\ian\Desktop\VA - Gathered From Coincidence The British Folk Pop Sound Of 1965-66 (2018) [FLAC] {3CD}\Gathered From Coincidence CD2\17 - The Four Pennies - Square Peg.wav

Pre-gap length 0:00:02.00

Peak level 96.6 %
Extraction speed 1.9 X
Track quality 100.0 %
Test CRC 17E3E0CE
Copy CRC 17E3E0CE
Copy OK

Track 18

Filename C:\Users\ian\Desktop\VA - Gathered From Coincidence The British Folk Pop Sound Of 1965-66 (2018) [FLAC] {3CD}\Gathered From Coincidence CD2\18 - First Gear - Gotta Make Their Future Bright.wav

Pre-gap length 0:00:02.00

Peak level 96.6 %
Extraction speed 1.9 X
Track quality 100.0 %
Test CRC 89FB6BDE
Copy CRC 89FB6BDE
Copy OK

Track 19

Filename C:\Users\ian\Desktop\VA - Gathered From Coincidence The British Folk Pop Sound Of 1965-66 (2018) [FLAC] {3CD}\Gathered From Coincidence CD2\19 - Murray Head - The Bells Of Rhymney.wav

Pre-gap length 0:00:02.00

Peak level 96.6 %
Extraction speed 2.1 X
Track quality 100.0 %
Test CRC 79BC23A4
Copy CRC 79BC23A4
Copy OK

Track 20

Filename C:\Users\ian\Desktop\VA - Gathered From Coincidence The British Folk Pop Sound Of 1965-66 (2018) [FLAC] {3CD}\Gathered From Coincidence CD2\20 - Jonathan King - Don't Talk To Me Of Protest.wav

Pre-gap length 0:00:02.00

Peak level 96.6 %
Extraction speed 2.0 X
Track quality 100.0 %
Test CRC 18D4C4AD
Copy CRC 18D4C4AD
Copy OK

Track 21

Filename C:\Users\ian\Desktop\VA - Gathered From Coincidence The British Folk Pop Sound Of 1965-66 (2018) [FLAC] {3CD}\Gathered From Coincidence CD2\21 - Five's Company - Dejection (Demo).wav

Pre-gap length 0:00:02.00

Peak level 96.6 %
Extraction speed 2.1 X
Track quality 100.0 %
Test CRC 3783CFD1
Copy CRC 3783CFD1
Copy OK

Track 22

Filename C:\Users\ian\Desktop\VA - Gathered From Coincidence The British Folk Pop Sound Of 1965-66 (2018) [FLAC] {3CD}\Gathered From Coincidence CD2\22 - Mick Softley with The Summer Sons - That's Not My Kind Of Love.wav

Pre-gap length 0:00:02.00

Peak level 96.6 %
Extraction speed 1.9 X
Track quality 99.9 %
Test CRC 85AF679D
Copy CRC 85AF679D
Copy OK

Track 23

Filename C:\Users\ian\Desktop\VA - Gathered From Coincidence The British Folk Pop Sound Of 1965-66 (2018) [FLAC] {3CD}\Gathered From Coincidence CD2\23 - The Sorrows - Don't Sing No Sad Songs For Me.wav

Pre-gap length 0:00:02.00

Peak level 96.6 %
Extraction speed 2.2 X
Track quality 100.0 %
Test CRC 79CC7193
Copy CRC 79CC7193
Copy OK

Track 24

Filename C:\Users\ian\Desktop\VA - Gathered From Coincidence The British Folk Pop Sound Of 1965-66 (2018) [FLAC] {3CD}\Gathered From Coincidence CD2\24 - Tommy Yates - Rattle Of A Toy.wav

Pre-gap length 0:00:02.00

Peak level 96.6 %
Extraction speed 2.1 X
Track quality 100.0 %
Test CRC F4BFFEC4
Copy CRC F4BFFEC4
Copy OK

Track 25

Filename C:\Users\ian\Desktop\VA - Gathered From Coincidence The British Folk Pop Sound Of 1965-66 (2018) [FLAC] {3CD}\Gathered From Coincidence CD2\25 - John Cassidie - Talkin' Denmark Street.wav

Pre-gap length 0:00:02.00

Peak level 96.6 %
Extraction speed 2.2 X
Track quality 99.9 %
Test CRC 1603467C
Copy CRC 1603467C
Copy OK

Track 26

Filename C:\Users\ian\Desktop\VA - Gathered From Coincidence The British Folk Pop Sound Of 1965-66 (2018) [FLAC] {3CD}\Gathered From Coincidence CD2\26 - The Ian Campbell Folk Group - The Times They Are A-Changin.wav

Pre-gap length 0:00:02.00

Peak level 96.6 %
Extraction speed 2.4 X
Track quality 100.0 %
Test CRC 9EEDB5FF
Copy CRC 9EEDB5FF
Copy OK

No errors occurred

End of status report

–– CUETools DB Plugin V2.1.6

[CTDB TOCID: PNngMGy_wE7v2chfN.QlZMrHZns-] found
Submit result: PNngMGy_wE7v2chfN.QlZMrHZns- has been confirmed
Track | CTDB Status
1 | (4/4) Accurately ripped
2 | (4/4) Accurately ripped
3 | (4/4) Accurately ripped
4 | (4/4) Accurately ripped
5 | (4/4) Accurately ripped
6 | (4/4) Accurately ripped
7 | (4/4) Accurately ripped
8 | (4/4) Accurately ripped
9 | (4/4) Accurately ripped
10 | (4/4) Accurately ripped
11 | (4/4) Accurately ripped
12 | (4/4) Accurately ripped
13 | (4/4) Accurately ripped
14 | (4/4) Accurately ripped
15 | (4/4) Accurately ripped
16 | (4/4) Accurately ripped
17 | (4/4) Accurately ripped
18 | (4/4) Accurately ripped
19 | (4/4) Accurately ripped
20 | (4/4) Accurately ripped
21 | (4/4) Accurately ripped
22 | (4/4) Accurately ripped
23 | (4/4) Accurately ripped
24 | (4/4) Accurately ripped
25 | (4/4) Accurately ripped
26 | (4/4) Accurately ripped


==== Log checksum F8BC33C966912F7832BE1C8633A9887810006E3A554D917736B687DE4E0189AB ====




Exact Audio Copy V1.2 from 12. August 2016

EAC extraction logfile from 7. January 2019, 14:44

Various Artists / Gathered From Coincidence CD3

Used drive : HL-DT-STDVD+-RW GU90N Adapter: 1 ID: 1

Read mode : Secure
Utilize accurate stream : Yes
Defeat audio cache : Yes
Make use of C2 pointers : No

Read offset correction : 102
Overread into Lead-In and Lead-Out : No
Fill up missing offset samples with silence : Yes
Delete leading and trailing silent blocks : No
Null samples used in CRC calculations : Yes
Used interface : Native Win32 interface for Win NT & 2000
Gap handling : Appended to previous track

Used output format : User Defined Encoder
Selected bitrate : 1024 kBit/s
Quality : High
Add ID3 tag : No
Command line compressor : C:\Program Files (x86)\Exact Audio Copy\Flac\flac.exe
Additional command line options : -8 -V -T "ARTIST=%artist%" -T "TITLE=%title%" -T "ALBUM=%albumtitle%" -T "DATE=%year%" -T "TRACKNUMBER=%tracknr%" -T "GENRE=%genre%" -T "PERFORMER=%albuminterpret%" -T "COMPOSER=%composer%" %haslyrics%–tag-from-file=LYRICS="%lyricsfile%"%haslyrics% -T "ALBUMARTIST=%albumartist%" -T "DISCNUMBER=%cdnumber%" -T "TOTALDISCS=%totalcds%" -T "TOTALTRACKS=%numtracks%" -T "COMMENT=%comment%" %source% -o %dest%


TOC of the extracted CD

Track | Start | Length | Start sector | End sector
––––––––––––––––––––––––––––-
1 | 0:00.00 | 2:13.37 | 0 | 10011
2 | 2:13.37 | 2:08.45 | 10012 | 19656
3 | 4:22.07 | 2:27.50 | 19657 | 30731
4 | 6:49.57 | 2:18.48 | 30732 | 41129
5 | 9:08.30 | 2:32.29 | 41130 | 52558
6 | 11:40.59 | 2:04.47 | 52559 | 61905
7 | 13:45.31 | 2:32.07 | 61906 | 73312
8 | 16:17.38 | 2:56.13 | 73313 | 86525
9 | 19:13.51 | 2:51.43 | 86526 | 99393
10 | 22:05.19 | 2:06.23 | 99394 | 108866
11 | 24:11.42 | 3:27.45 | 108867 | 124436
12 | 27:39.12 | 1:56.54 | 124437 | 133190
13 | 29:35.66 | 3:52.19 | 133191 | 150609
14 | 33:28.10 | 1:49.72 | 150610 | 158856
15 | 35:18.07 | 2:27.68 | 158857 | 169949
16 | 37:46.00 | 4:06.10 | 169950 | 188409
17 | 41:52.10 | 2:31.54 | 188410 | 199788
18 | 44:23.64 | 2:46.25 | 199789 | 212263
19 | 47:10.14 | 2:40.21 | 212264 | 224284
20 | 49:50.35 | 2:48.41 | 224285 | 236925
21 | 52:39.01 | 2:41.29 | 236926 | 249029
22 | 55:20.30 | 2:41.09 | 249030 | 261113
23 | 58:01.39 | 2:46.17 | 261114 | 273580
24 | 60:47.56 | 2:21.71 | 273581 | 284226
25 | 63:09.52 | 2:26.03 | 284227 | 295179
26 | 65:35.55 | 3:12.72 | 295180 | 309651
27 | 68:48.52 | 2:01.33 | 309652 | 318759


Track 1

Filename C:\Users\ian\Desktop\VA - Gathered From Coincidence The British Folk Pop Sound Of 1965-66 (2018) [FLAC] {3CD}\Gathered From Coincidence CD3\01 - The Silkie - You've Got To Hide Your Love Away.wav

Pre-gap length 0:00:02.00

Peak level 96.6 %
Extraction speed 1.0 X
Track quality 100.0 %
Test CRC 94EF6D95
Copy CRC 94EF6D95
Copy OK

Track 2

Filename C:\Users\ian\Desktop\VA - Gathered From Coincidence The British Folk Pop Sound Of 1965-66 (2018) [FLAC] {3CD}\Gathered From Coincidence CD3\02 - The Kinks - Wait Till The Summer Comes Along.wav

Pre-gap length 0:00:02.00

Peak level 96.6 %
Extraction speed 1.0 X
Track quality 100.0 %
Test CRC D996B454
Copy CRC D996B454
Copy OK

Track 3

Filename C:\Users\ian\Desktop\VA - Gathered From Coincidence The British Folk Pop Sound Of 1965-66 (2018) [FLAC] {3CD}\Gathered From Coincidence CD3\03 - Peter Nelson - Don't Make Promisise (You Can't Keep).wav

Pre-gap length 0:00:02.00

Peak level 96.6 %
Extraction speed 1.1 X
Track quality 100.0 %
Test CRC DEAE7751
Copy CRC DEAE7751
Copy OK

Track 4

Filename C:\Users\ian\Desktop\VA - Gathered From Coincidence The British Folk Pop Sound Of 1965-66 (2018) [FLAC] {3CD}\Gathered From Coincidence CD3\04 - Adam Faith - Cheryl's Going Home.wav

Pre-gap length 0:00:02.00

Peak level 96.6 %
Extraction speed 1.2 X
Track quality 100.0 %
Test CRC 98841764
Copy CRC 98841764
Copy OK

Track 5

Filename C:\Users\ian\Desktop\VA - Gathered From Coincidence The British Folk Pop Sound Of 1965-66 (2018) [FLAC] {3CD}\Gathered From Coincidence CD3\05 - Manfred Mann - If You Gotta Go, Go Now.wav

Pre-gap length 0:00:02.00

Peak level 96.6 %
Extraction speed 1.1 X
Track quality 99.9 %
Test CRC 06C0A9B9
Copy CRC 06C0A9B9
Copy OK

Track 6

Filename C:\Users\ian\Desktop\VA - Gathered From Coincidence The British Folk Pop Sound Of 1965-66 (2018) [FLAC] {3CD}\Gathered From Coincidence CD3\06 - Davey Graham - I'm Looking Through You.wav

Pre-gap length 0:00:02.00

Peak level 96.6 %
Extraction speed 1.3 X
Track quality 100.0 %
Test CRC 59FA73F2
Copy CRC 59FA73F2
Copy OK

Track 7

Filename C:\Users\ian\Desktop\VA - Gathered From Coincidence The British Folk Pop Sound Of 1965-66 (2018) [FLAC] {3CD}\Gathered From Coincidence CD3\07 - Jon-Mark - Night Comes Down.wav

Pre-gap length 0:00:02.00

Peak level 96.6 %
Extraction speed 1.4 X
Track quality 100.0 %
Test CRC 46D2E1D5
Copy CRC 46D2E1D5
Copy OK

Track 8

Filename C:\Users\ian\Desktop\VA - Gathered From Coincidence The British Folk Pop Sound Of 1965-66 (2018) [FLAC] {3CD}\Gathered From Coincidence CD3\08 - The Settlers - Early Morning Rain.wav

Pre-gap length 0:00:02.00

Peak level 96.6 %
Extraction speed 1.5 X
Track quality 100.0 %
Test CRC E98AFBDC
Copy CRC E98AFBDC
Copy OK

Track 9

Filename C:\Users\ian\Desktop\VA - Gathered From Coincidence The British Folk Pop Sound Of 1965-66 (2018) [FLAC] {3CD}\Gathered From Coincidence CD3\09 - Greta Ann - Sadness Hides The Sun.wav

Pre-gap length 0:00:02.00

Peak level 96.6 %
Extraction speed 1.5 X
Track quality 100.0 %
Test CRC 8A8B338B
Copy CRC 8A8B338B
Copy OK

Track 10

Filename C:\Users\ian\Desktop\VA - Gathered From Coincidence The British Folk Pop Sound Of 1965-66 (2018) [FLAC] {3CD}\Gathered From Coincidence CD3\10 - Dana Gillespie - Thank You Boy.wav

Pre-gap length 0:00:02.00

Peak level 96.6 %
Extraction speed 1.5 X
Track quality 100.0 %
Test CRC 4D07F65F
Copy CRC 4D07F65F
Copy OK

Track 11

Filename C:\Users\ian\Desktop\VA - Gathered From Coincidence The British Folk Pop Sound Of 1965-66 (2018) [FLAC] {3CD}\Gathered From Coincidence CD3\11 - The Compromise - Love Minus Zero No Limit.wav

Pre-gap length 0:00:02.00

Peak level 96.6 %
Extraction speed 1.7 X
Track quality 100.0 %
Test CRC 381D5013
Copy CRC 381D5013
Copy OK

Track 12

Filename C:\Users\ian\Desktop\VA - Gathered From Coincidence The British Folk Pop Sound Of 1965-66 (2018) [FLAC] {3CD}\Gathered From Coincidence CD3\12 - Justin Hayward - Day Must Come.wav

Pre-gap length 0:00:02.00

Peak level 96.6 %
Extraction speed 1.6 X
Track quality 100.0 %
Test CRC AC7A4200
Copy CRC AC7A4200
Copy OK

Track 13

Filename C:\Users\ian\Desktop\VA - Gathered From Coincidence The British Folk Pop Sound Of 1965-66 (2018) [FLAC] {3CD}\Gathered From Coincidence CD3\13 - Meic Stevens - The Clown In The Alley.wav

Pre-gap length 0:00:02.00

Peak level 96.6 %
Extraction speed 1.9 X
Track quality 100.0 %
Test CRC 738C77E7
Copy CRC 738C77E7
Copy OK

Track 14

Filename C:\Users\ian\Desktop\VA - Gathered From Coincidence The British Folk Pop Sound Of 1965-66 (2018) [FLAC] {3CD}\Gathered From Coincidence CD3\14 - The Frugal Sound - I'm On Your Side.wav

Pre-gap length 0:00:02.00

Peak level 96.6 %
Extraction speed 1.6 X
Track quality 100.0 %
Test CRC EF1F49E8
Copy CRC EF1F49E8
Copy OK

Track 15

Filename C:\Users\ian\Desktop\VA - Gathered From Coincidence The British Folk Pop Sound Of 1965-66 (2018) [FLAC] {3CD}\Gathered From Coincidence CD3\15 - The Pretty Things - London Town.wav

Pre-gap length 0:00:02.00

Peak level 96.6 %
Extraction speed 1.8 X
Track quality 100.0 %
Test CRC 8CE07EB0
Copy CRC 8CE07EB0
Copy OK

Track 16

Filename C:\Users\ian\Desktop\VA - Gathered From Coincidence The British Folk Pop Sound Of 1965-66 (2018) [FLAC] {3CD}\Gathered From Coincidence CD3\16 - Beverley - Picking Up The Sunshine (aka Bert's Blues).wav

Pre-gap length 0:00:02.00

Peak level 96.6 %
Extraction speed 2.0 X
Track quality 100.0 %
Test CRC FF0F584B
Copy CRC FF0F584B
Copy OK

Track 17

Filename C:\Users\ian\Desktop\VA - Gathered From Coincidence The British Folk Pop Sound Of 1965-66 (2018) [FLAC] {3CD}\Gathered From Coincidence CD3\17 - The Nightshift - Corrina Corrina.wav

Pre-gap length 0:00:02.00

Peak level 96.6 %
Extraction speed 1.6 X
Track quality 99.9 %
Test CRC 115638D7
Copy CRC 115638D7
Copy OK

Track 18

Filename C:\Users\ian\Desktop\VA - Gathered From Coincidence The British Folk Pop Sound Of 1965-66 (2018) [FLAC] {3CD}\Gathered From Coincidence CD3\18 - Sarah Jane - Listen People.wav

Pre-gap length 0:00:02.00

Peak level 94.5 %
Extraction speed 1.7 X
Track quality 99.9 %
Test CRC DE5EC7CF
Copy CRC DE5EC7CF
Copy OK

Track 19

Filename C:\Users\ian\Desktop\VA - Gathered From Coincidence The British Folk Pop Sound Of 1965-66 (2018) [FLAC] {3CD}\Gathered From Coincidence CD3\19 - Chad & Jeremy - Four Strong Winds.wav

Pre-gap length 0:00:02.00

Peak level 96.6 %
Extraction speed 2.0 X
Track quality 100.0 %
Test CRC 4F8C0B8D
Copy CRC 4F8C0B8D
Copy OK

Track 20

Filename C:\Users\ian\Desktop\VA - Gathered From Coincidence The British Folk Pop Sound Of 1965-66 (2018) [FLAC] {3CD}\Gathered From Coincidence CD3\20 - The Greenbeats - So Sad To Watch Good Love Go Bad.wav

Pre-gap length 0:00:02.00

Peak level 96.6 %
Extraction speed 2.1 X
Track quality 100.0 %
Test CRC 16691748
Copy CRC 16691748
Copy OK

Track 21

Filename C:\Users\ian\Desktop\VA - Gathered From Coincidence The British Folk Pop Sound Of 1965-66 (2018) [FLAC] {3CD}\Gathered From Coincidence CD3\21 - Heinz with The Wild Boys - Don't Think Twice It's Alright.wav

Pre-gap length 0:00:02.00

Peak level 96.6 %
Extraction speed 2.1 X
Track quality 100.0 %
Test CRC E179A347
Copy CRC E179A347
Copy OK

Track 22

Filename C:\Users\ian\Desktop\VA - Gathered From Coincidence The British Folk Pop Sound Of 1965-66 (2018) [FLAC] {3CD}\Gathered From Coincidence CD3\22 - Ramblers Two The - Today Is The Highway.wav

Pre-gap length 0:00:02.00

Peak level 96.6 %
Extraction speed 2.1 X
Track quality 100.0 %
Test CRC 783E6DF6
Copy CRC 783E6DF6
Copy OK

Track 23

Filename C:\Users\ian\Desktop\VA - Gathered From Coincidence The British Folk Pop Sound Of 1965-66 (2018) [FLAC] {3CD}\Gathered From Coincidence CD3\23 - The Overlanders - Love Is Strange.wav

Pre-gap length 0:00:02.00

Peak level 96.6 %
Extraction speed 2.2 X
Track quality 100.0 %
Test CRC 5C32C268
Copy CRC 5C32C268
Copy OK

Track 24

Filename C:\Users\ian\Desktop\VA - Gathered From Coincidence The British Folk Pop Sound Of 1965-66 (2018) [FLAC] {3CD}\Gathered From Coincidence CD3\24 - Chas McDevitt & Shirley Douglas - Subterranean Homesick Blues.wav

Pre-gap length 0:00:02.00

Peak level 96.6 %
Extraction speed 2.2 X
Track quality 100.0 %
Test CRC BFDAF708
Copy CRC BFDAF708
Copy OK

Track 25

Filename C:\Users\ian\Desktop\VA - Gathered From Coincidence The British Folk Pop Sound Of 1965-66 (2018) [FLAC] {3CD}\Gathered From Coincidence CD3\25 - The Shadows - Mary-Anne.wav

Pre-gap length 0:00:02.00

Peak level 96.6 %
Extraction speed 2.2 X
Track quality 100.0 %
Test CRC 92ACE32C
Copy CRC 92ACE32C
Copy OK

Track 26

Filename C:\Users\ian\Desktop\VA - Gathered From Coincidence The British Folk Pop Sound Of 1965-66 (2018) [FLAC] {3CD}\Gathered From Coincidence CD3\26 - The Seekers - The Carnival Is Over.wav

Pre-gap length 0:00:02.00

Peak level 96.6 %
Extraction speed 2.4 X
Track quality 100.0 %
Test CRC 12EAD47F
Copy CRC 12EAD47F
Copy OK

Track 27

Filename C:\Users\ian\Desktop\VA - Gathered From Coincidence The British Folk Pop Sound Of 1965-66 (2018) [FLAC] {3CD}\Gathered From Coincidence CD3\27 - The Tony Hatch Sound - Theme from Crossroads.wav

Pre-gap length 0:00:02.00

Peak level 96.6 %
Extraction speed 2.2 X
Track quality 100.0 %
Test CRC 4854B78B
Copy CRC 4854B78B
Copy OK

No errors occurred

End of status report

–– CUETools DB Plugin V2.1.6

[CTDB TOCID: FgqpXGgJQVfKVviOjsNGnN_VV8E-] found
Submit result: FgqpXGgJQVfKVviOjsNGnN_VV8E- has been confirmed
Track | CTDB Status
1 | (4/4) Accurately ripped
2 | (4/4) Accurately ripped
3 | (4/4) Accurately ripped
4 | (4/4) Accurately ripped
5 | (4/4) Accurately ripped
6 | (4/4) Accurately ripped
7 | (4/4) Accurately ripped
8 | (4/4) Accurately ripped
9 | (4/4) Accurately ripped
10 | (4/4) Accurately ripped
11 | (4/4) Accurately ripped
12 | (4/4) Accurately ripped
13 | (4/4) Accurately ripped
14 | (4/4) Accurately ripped
15 | (4/4) Accurately ripped
16 | (4/4) Accurately ripped
17 | (4/4) Accurately ripped
18 | (4/4) Accurately ripped
19 | (4/4) Accurately ripped
20 | (4/4) Accurately ripped
21 | (4/4) Accurately ripped
22 | (4/4) Accurately ripped
23 | (4/4) Accurately ripped
24 | (4/4) Accurately ripped
25 | (4/4) Accurately ripped
26 | (4/4) Accurately ripped
27 | (4/4) Accurately ripped


==== Log checksum 131F3E234BA8498913147C3BF1105E1A4F4B146778C38ECE40515FCC5AE05942 ====


Various Artists - Gathered from Coincidence: The British Folk-Pop Sound of 1965-1966 (2018) {3CD Set, Grapefruit CRSEGBOX043}

Various Artists - Gathered from Coincidence: The British Folk-Pop Sound of 1965-1966 (2018) {3CD Set, Grapefruit CRSEGBOX043}



===