Subcategories

George Strait - Strait Out Of The Box: Part 2 (2016)

Posted By: delpotro
George Strait - Strait Out Of The Box: Part 2 (2016)

George Strait - Strait Out Of The Box: Part 2 (2016)
EAC Rip | FLAC (tracks+log+.cue) | 03:21:55 | 1,55 Gb
Country | Label: MCA Nashville

Strait Out of the Box: Part 2 is the second box set album by American country music artist George Strait. It contains three albums worth of music, dating from 1996 up to 2016. The albums consist of 26 number one singles, 18 album cuts, and 2 new tracks that were co-written by Strait.
Tracklist:
CD1
1. Blue Clear Sky
2. Carried Away
3. Rockin' In The Arms Of Your Memory
4. I Can Still Make Cheyenne
5. Round About Way
6. Carrying Your Love With Me
7. One Night At A Time
8. Today My World Slipped Away
9. The Nerve
10. I Just Want To Dance With You
11. True
12. Maria
13. We Really Shouldn't Be Doing This
14. Meanwhile
15. Write This Down
16. The Best Day
17. Looking Out My Window Through The Pain
18. Go On

CD2
19. She'll Leave You With A Smile
20. Run
21. Living And Living Well
22. My Life's Been Grand
23. Cowboys Like Us
24. Desperately
25. Four Down And Twelve Across
26. I Hate Everything
27. Seashores Of Old Mexico
28. She Let Herself Go
29. Give It Away
30. Wrapped
31. It Just Comes Natural
32. Texas Cookin'
33. How 'Bout Them Cowgirls
34. Come On Joe
35. Troubadour
36. River Of Love
37. I Saw God Today

CD3
38. Living For The Night
39. Out Of Sight Out Of Mind
40. Arkansas Dave
41. Love's Gonna Make It Alright
42. Drinkin' Man
43. Shame On Me
44. Here For A Good Time
45. House Across The Bay
46. Blue Marlin Blues
47. I'll Always Remember You
48. Give It All We Got Tonight
49. I Just Can't Go On Dying Like This
50. That's What Breaking Hearts Do
51. The Night Is Young
52. I Believe
53. Goin' Goin' Gone
54. Everything I See
55. Kicked Outta Country
56. You Gotta Go Through Hell

Exact Audio Copy V1.3 from 2. September 2016

EAC extraction logfile from 14. March 2018, 14:54

George Strait / 2016 - Strait Out Of The Box - Part 2 (Disc 01) 1996 - 2000

Used drive : HL-DT-STBD-RE BP50NB40 Adapter: 1 ID: 2

Read mode : Secure
Utilize accurate stream : Yes
Defeat audio cache : Yes
Make use of C2 pointers : No

Read offset correction : 6
Overread into Lead-In and Lead-Out : No
Fill up missing offset samples with silence : Yes
Delete leading and trailing silent blocks : No
Null samples used in CRC calculations : Yes
Used interface : Native Win32 interface for Win NT & 2000
Gap handling : Appended to previous track

Used output format : User Defined Encoder
Selected bitrate : 1024 kBit/s
Quality : High
Add ID3 tag : No
Command line compressor : C:\Program Files (x86)\Exact Audio Copy\Flac\flac.exe
Additional command line options : -8 -e -p -V -T "ARTIST=%artist%" -T "TITLE=%title%" -T "ALBUM=%albumtitle%" -T "DATE=%year%" -T "TRACKNUMBER=%tracknr%" -T "GENRE=%genre%" -T "PERFORMER=%albuminterpret%" -T "COMPOSER=%composer%" %haslyrics%–tag-from-file=LYRICS="%lyricsfile%"%haslyrics% -T "ALBUMARTIST=%albumartist%" -T "DISCNUMBER=%cdnumber%" -T "TOTALDISCS=%totalcds%" -T "TOTALTRACKS=%numtracks%" -T "COMMENT=%comment%" %source% -o %dest%


TOC of the extracted CD

Track | Start | Length | Start sector | End sector
––––––––––––––––––––––––––––-
1 | 0:00.00 | 2:55.19 | 0 | 13143
2 | 2:55.19 | 3:21.43 | 13144 | 28261
3 | 6:16.62 | 4:16.72 | 28262 | 47533
4 | 10:33.59 | 4:16.11 | 47534 | 66744
5 | 14:49.70 | 3:03.52 | 66745 | 80521
6 | 17:53.47 | 3:51.20 | 80522 | 97866
7 | 21:44.67 | 3:50.56 | 97867 | 115172
8 | 25:35.48 | 3:14.24 | 115173 | 129746
9 | 28:49.72 | 4:07.08 | 129747 | 148279
10 | 32:57.05 | 3:29.00 | 148280 | 163954
11 | 36:26.05 | 3:33.28 | 163955 | 179957
12 | 39:59.33 | 4:39.12 | 179958 | 200894
13 | 44:38.45 | 2:31.40 | 200895 | 212259
14 | 47:10.10 | 3:31.40 | 212260 | 228124
15 | 50:41.50 | 3:39.67 | 228125 | 244616
16 | 54:21.42 | 3:23.53 | 244617 | 259894
17 | 57:45.20 | 3:40.48 | 259895 | 276442
18 | 61:25.68 | 3:50.11 | 276443 | 293703


Track 1

Filename C:\Strait Out of The Box - Part 2 - CD 01\01 Blue Clear Sky.wav

Pre-gap length 0:00:02.00

Peak level 100.0 %
Extraction speed 2.0 X
Track quality 99.9 %
Test CRC CB35A7F5
Copy CRC CB35A7F5
Accurately ripped (confidence 4) [AD502830] (AR v2)
Copy OK

Track 2

Filename C:\Strait Out of The Box - Part 2 - CD 01\02 Carried Away.wav

Peak level 98.9 %
Extraction speed 2.8 X
Track quality 100.0 %
Test CRC 9E956AF5
Copy CRC 9E956AF5
Accurately ripped (confidence 4) [360B8830] (AR v2)
Copy OK

Track 3

Filename C:\Strait Out of The Box - Part 2 - CD 01\03 Rockin' In The Arms Of Your Memory.wav

Pre-gap length 0:00:01.82

Peak level 97.6 %
Extraction speed 2.7 X
Track quality 99.9 %
Test CRC 542C5217
Copy CRC 542C5217
Accurately ripped (confidence 4) [0CE1200A] (AR v2)
Copy OK

Track 4

Filename C:\Strait Out of The Box - Part 2 - CD 01\04 I Can Still Make Cheyenne.wav

Peak level 97.4 %
Extraction speed 3.4 X
Track quality 100.0 %
Test CRC 729E661A
Copy CRC 729E661A
Accurately ripped (confidence 4) [DC3CB119] (AR v2)
Copy OK

Track 5

Filename C:\Strait Out of The Box - Part 2 - CD 01\05 Round About Way.wav

Peak level 98.9 %
Extraction speed 3.5 X
Track quality 100.0 %
Test CRC 6E66D2F1
Copy CRC 6E66D2F1
Accurately ripped (confidence 4) [272D63AB] (AR v2)
Copy OK

Track 6

Filename C:\Strait Out of The Box - Part 2 - CD 01\06 Carrying Your Love With Me.wav

Pre-gap length 0:00:00.86

Peak level 98.9 %
Extraction speed 3.8 X
Track quality 100.0 %
Test CRC 93926C99
Copy CRC 93926C99
Accurately ripped (confidence 4) [20B6CEA0] (AR v2)
Copy OK

Track 7

Filename C:\Strait Out of The Box - Part 2 - CD 01\07 One Night At A Time.wav

Pre-gap length 0:00:00.92

Peak level 98.8 %
Extraction speed 3.2 X
Track quality 99.9 %
Test CRC CA796B05
Copy CRC CA796B05
Accurately ripped (confidence 4) [BCC5E3D0] (AR v2)
Copy OK

Track 8

Filename C:\Strait Out of The Box - Part 2 - CD 01\08 Today My World Slipped Away.wav

Pre-gap length 0:00:01.94

Peak level 98.8 %
Extraction speed 4.0 X
Track quality 100.0 %
Test CRC 44A4945D
Copy CRC 44A4945D
Accurately ripped (confidence 4) [C0B87C53] (AR v2)
Copy OK

Track 9

Filename C:\Strait Out of The Box - Part 2 - CD 01\09 The Nerve.wav

Pre-gap length 0:00:01.46

Peak level 95.9 %
Extraction speed 4.3 X
Track quality 100.0 %
Test CRC C8CC252B
Copy CRC C8CC252B
Accurately ripped (confidence 4) [82C1F865] (AR v2)
Copy OK

Track 10

Filename C:\Strait Out of The Box - Part 2 - CD 01\10 I Just Want To Dance With You.wav

Peak level 96.8 %
Extraction speed 3.9 X
Track quality 100.0 %
Test CRC 5F7D80F3
Copy CRC 5F7D80F3
Accurately ripped (confidence 4) [E8BF51F5] (AR v2)
Copy OK

Track 11

Filename C:\Strait Out of The Box - Part 2 - CD 01\11 True.wav

Pre-gap length 0:00:01.53

Peak level 95.3 %
Extraction speed 4.0 X
Track quality 100.0 %
Test CRC 909828F6
Copy CRC 909828F6
Accurately ripped (confidence 4) [0FCFF190] (AR v2)
Copy OK

Track 12

Filename C:\Strait Out of The Box - Part 2 - CD 01\12 Maria.wav

Peak level 99.0 %
Extraction speed 5.0 X
Track quality 100.0 %
Test CRC 61716FA0
Copy CRC 61716FA0
Accurately ripped (confidence 4) [2258AD05] (AR v2)
Copy OK

Track 13

Filename C:\Strait Out of The Box - Part 2 - CD 01\13 We Really Shouldn't Be Doing This.wav

Peak level 92.3 %
Extraction speed 4.6 X
Track quality 100.0 %
Test CRC 89B2E556
Copy CRC 89B2E556
Accurately ripped (confidence 4) [9D6004B7] (AR v2)
Copy OK

Track 14

Filename C:\Strait Out of The Box - Part 2 - CD 01\14 Meanwhile.wav

Peak level 99.2 %
Extraction speed 4.4 X
Track quality 100.0 %
Test CRC 7789E359
Copy CRC 7789E359
Accurately ripped (confidence 4) [E46A6AA0] (AR v2)
Copy OK

Track 15

Filename C:\Strait Out of The Box - Part 2 - CD 01\15 Write This Down.wav

Peak level 98.8 %
Extraction speed 5.2 X
Track quality 100.0 %
Test CRC C3795937
Copy CRC C3795937
Accurately ripped (confidence 4) [B5887D7D] (AR v2)
Copy OK

Track 16

Filename C:\Strait Out of The Box - Part 2 - CD 01\16 The Best Day.wav

Pre-gap length 0:00:01.14

Peak level 89.5 %
Extraction speed 5.2 X
Track quality 100.0 %
Test CRC 7F0D6235
Copy CRC 7F0D6235
Accurately ripped (confidence 4) [510FAEFA] (AR v2)
Copy OK

Track 17

Filename C:\Strait Out of The Box - Part 2 - CD 01\17 Looking Out My Window Through The Pain.wav

Peak level 95.5 %
Extraction speed 5.4 X
Track quality 100.0 %
Test CRC 754F189A
Copy CRC 754F189A
Accurately ripped (confidence 4) [0D6243D0] (AR v2)
Copy OK

Track 18

Filename C:\Strait Out of The Box - Part 2 - CD 01\18 Go On.wav

Peak level 98.8 %
Extraction speed 5.6 X
Track quality 100.0 %
Test CRC 960FC4DF
Copy CRC 960FC4DF
Accurately ripped (confidence 4) [73773BAE] (AR v2)
Copy OK


All tracks accurately ripped

No errors occurred

End of status report

–– CUETools DB Plugin V2.1.6

[CTDB TOCID: fiypn6AvHitD1Uuup2jDSG4MwMk-] found
Submit result: fiypn6AvHitD1Uuup2jDSG4MwMk- has been confirmed
Track | CTDB Status
1 | (22/22) Accurately ripped
2 | (22/22) Accurately ripped
3 | (22/22) Accurately ripped
4 | (22/22) Accurately ripped
5 | (22/22) Accurately ripped
6 | (22/22) Accurately ripped
7 | (22/22) Accurately ripped
8 | (22/22) Accurately ripped
9 | (22/22) Accurately ripped
10 | (22/22) Accurately ripped
11 | (22/22) Accurately ripped
12 | (22/22) Accurately ripped
13 | (22/22) Accurately ripped
14 | (22/22) Accurately ripped
15 | (22/22) Accurately ripped
16 | (22/22) Accurately ripped
17 | (22/22) Accurately ripped
18 | (22/22) Accurately ripped


==== Log checksum C3DA91B6B04DC8B410CF93B5DEA1FECB6DF761CE42B2255B3FCA008EC769C872 ====

Exact Audio Copy V1.3 from 2. September 2016

EAC extraction logfile from 14. March 2018, 15:58

George Strait / 2016 - Strait Out Of The Box - Part 2 (Disc 02) 2001 - 2008

Used drive : HL-DT-STBD-RE BP50NB40 Adapter: 1 ID: 2

Read mode : Secure
Utilize accurate stream : Yes
Defeat audio cache : Yes
Make use of C2 pointers : No

Read offset correction : 6
Overread into Lead-In and Lead-Out : No
Fill up missing offset samples with silence : Yes
Delete leading and trailing silent blocks : No
Null samples used in CRC calculations : Yes
Used interface : Native Win32 interface for Win NT & 2000
Gap handling : Appended to previous track

Used output format : User Defined Encoder
Selected bitrate : 1024 kBit/s
Quality : High
Add ID3 tag : No
Command line compressor : C:\Program Files (x86)\Exact Audio Copy\Flac\flac.exe
Additional command line options : -8 -e -p -V -T "ARTIST=%artist%" -T "TITLE=%title%" -T "ALBUM=%albumtitle%" -T "DATE=%year%" -T "TRACKNUMBER=%tracknr%" -T "GENRE=%genre%" -T "PERFORMER=%albuminterpret%" -T "COMPOSER=%composer%" %haslyrics%–tag-from-file=LYRICS="%lyricsfile%"%haslyrics% -T "ALBUMARTIST=%albumartist%" -T "DISCNUMBER=%cdnumber%" -T "TOTALDISCS=%totalcds%" -T "TOTALTRACKS=%numtracks%" -T "COMMENT=%comment%" %source% -o %dest%


TOC of the extracted CD

Track | Start | Length | Start sector | End sector
––––––––––––––––––––––––––––-
1 | 0:00.00 | 2:59.17 | 0 | 13441
2 | 2:59.17 | 4:04.66 | 13442 | 31807
3 | 7:04.08 | 3:38.45 | 31808 | 48202
4 | 10:42.53 | 2:39.22 | 48203 | 60149
5 | 13:22.00 | 3:39.12 | 60150 | 76586
6 | 17:01.12 | 4:07.52 | 76587 | 95163
7 | 21:08.64 | 2:51.03 | 95164 | 107991
8 | 23:59.67 | 3:55.08 | 107992 | 125624
9 | 27:55.00 | 4:11.07 | 125625 | 144456
10 | 32:06.07 | 3:18.04 | 144457 | 159310
11 | 35:24.11 | 3:30.41 | 159311 | 175101
12 | 38:54.52 | 4:09.70 | 175102 | 193846
13 | 43:04.47 | 2:58.45 | 193847 | 207241
14 | 46:03.17 | 4:25.11 | 207242 | 227127
15 | 50:28.28 | 3:57.51 | 227128 | 244953
16 | 54:26.04 | 3:49.72 | 244954 | 262200
17 | 58:16.01 | 2:55.29 | 262201 | 275354
18 | 61:11.30 | 3:15.12 | 275355 | 289991
19 | 64:26.42 | 3:24.52 | 289992 | 305343


Track 1

Filename C:\Strait Out of The Box - Part 2 - CD 02\01 She'll Leave You With A Smile.wav

Pre-gap length 0:00:02.00

Peak level 97.9 %
Extraction speed 1.6 X
Track quality 100.0 %
Test CRC EB17BA02
Copy CRC EB17BA02
Accurately ripped (confidence 5) [BEECB623] (AR v2)
Copy OK

Track 2

Filename C:\Strait Out of The Box - Part 2 - CD 02\02 Run.wav

Peak level 98.9 %
Extraction speed 1.9 X
Track quality 100.0 %
Test CRC A0F6D866
Copy CRC A0F6D866
Accurately ripped (confidence 5) [3DFD8F52] (AR v2)
Copy OK

Track 3

Filename C:\Strait Out of The Box - Part 2 - CD 02\03 Living And Living Well.wav

Peak level 98.8 %
Extraction speed 2.0 X
Track quality 100.0 %
Test CRC 8EEE395A
Copy CRC 8EEE395A
Accurately ripped (confidence 5) [F1D22A02] (AR v2)
Copy OK

Track 4

Filename C:\Strait Out of The Box - Part 2 - CD 02\04 My Life's Been Grand.wav

Peak level 98.4 %
Extraction speed 2.0 X
Track quality 100.0 %
Test CRC E68ACECC
Copy CRC E68ACECC
Accurately ripped (confidence 5) [C35B14BB] (AR v2)
Copy OK

Track 5

Filename C:\Strait Out of The Box - Part 2 - CD 02\05 Cowboys Like Us.wav

Peak level 96.9 %
Extraction speed 2.3 X
Track quality 100.0 %
Test CRC 9D3632FB
Copy CRC 9D3632FB
Accurately ripped (confidence 5) [A263F0BF] (AR v2)
Copy OK

Track 6

Filename C:\Strait Out of The Box - Part 2 - CD 02\06 Desperately.wav

Peak level 100.0 %
Extraction speed 2.4 X
Track quality 100.0 %
Test CRC 41315560
Copy CRC 41315560
Accurately ripped (confidence 5) [2271DD58] (AR v2)
Copy OK

Track 7

Filename C:\Strait Out of The Box - Part 2 - CD 02\07 Four Down And Twelve Across.wav

Peak level 99.2 %
Extraction speed 2.4 X
Track quality 100.0 %
Test CRC A90BD1EC
Copy CRC A90BD1EC
Accurately ripped (confidence 5) [4445F764] (AR v2)
Copy OK

Track 8

Filename C:\Strait Out of The Box - Part 2 - CD 02\08 I Hate Everything.wav

Peak level 95.3 %
Extraction speed 2.6 X
Track quality 100.0 %
Test CRC F22B0E3A
Copy CRC F22B0E3A
Accurately ripped (confidence 5) [A7A36375] (AR v2)
Copy OK

Track 9

Filename C:\Strait Out of The Box - Part 2 - CD 02\09 The Seahorses Of Old Mexico.wav

Peak level 100.0 %
Extraction speed 2.8 X
Track quality 100.0 %
Test CRC 15DC7EEB
Copy CRC 15DC7EEB
Accurately ripped (confidence 5) [BAEEEB7C] (AR v2)
Copy OK

Track 10

Filename C:\Strait Out of The Box - Part 2 - CD 02\10 She Let Herself Go.wav

Peak level 100.0 %
Extraction speed 2.6 X
Track quality 100.0 %
Test CRC 3139DF26
Copy CRC 3139DF26
Accurately ripped (confidence 5) [9EB47A05] (AR v2)
Copy OK

Track 11

Filename C:\Strait Out of The Box - Part 2 - CD 02\11 Give It Away.wav

Peak level 88.8 %
Extraction speed 2.8 X
Track quality 100.0 %
Test CRC 809635AA
Copy CRC 809635AA
Accurately ripped (confidence 5) [DE5CD828] (AR v2)
Copy OK

Track 12

Filename C:\Strait Out of The Box - Part 2 - CD 02\12 Wrapped.wav

Peak level 81.7 %
Extraction speed 3.0 X
Track quality 100.0 %
Test CRC D7CF8F44
Copy CRC D7CF8F44
Accurately ripped (confidence 5) [C03E2F45] (AR v2)
Copy OK

Track 13

Filename C:\Strait Out of The Box - Part 2 - CD 02\13 It Just Comes Natural.wav

Peak level 79.3 %
Extraction speed 2.1 X
Track quality 99.9 %
Test CRC CF45F3EA
Copy CRC CF45F3EA
Accurately ripped (confidence 5) [DB4E637A] (AR v2)
Copy OK

Track 14

Filename C:\Strait Out of The Box - Part 2 - CD 02\14 Texas Cookin'.wav

Peak level 82.0 %
Extraction speed 3.3 X
Track quality 100.0 %
Test CRC 14BEB402
Copy CRC 14BEB402
Accurately ripped (confidence 5) [F057DA42] (AR v2)
Copy OK

Track 15

Filename C:\Strait Out of The Box - Part 2 - CD 02\15 How 'Bout Them Cowgirls.wav

Peak level 86.0 %
Extraction speed 2.6 X
Track quality 99.9 %
Test CRC 572BDC98
Copy CRC 572BDC98
Accurately ripped (confidence 5) [8E5E4FBD] (AR v2)
Copy OK

Track 16

Filename C:\Strait Out of The Box - Part 2 - CD 02\16 Come On Joe.wav

Peak level 85.4 %
Extraction speed 3.1 X
Track quality 100.0 %
Test CRC C2770B9F
Copy CRC C2770B9F
Accurately ripped (confidence 5) [7D997E77] (AR v2)
Copy OK

Track 17

Filename C:\Strait Out of The Box - Part 2 - CD 02\17 Troubadour.wav

Peak level 100.0 %
Extraction speed 3.0 X
Track quality 100.0 %
Test CRC AA5F2E8A
Copy CRC AA5F2E8A
Accurately ripped (confidence 5) [69575654] (AR v2)
Copy OK

Track 18

Filename C:\Strait Out of The Box - Part 2 - CD 02\18 River Of Love.wav

Peak level 100.0 %
Extraction speed 3.1 X
Track quality 100.0 %
Test CRC 35BAEAD1
Copy CRC 35BAEAD1
Accurately ripped (confidence 5) [32F21B66] (AR v2)
Copy OK

Track 19

Filename C:\Strait Out of The Box - Part 2 - CD 02\19 I Saw God Today.wav

Peak level 100.0 %
Extraction speed 3.6 X
Track quality 100.0 %
Test CRC 85AAB0DA
Copy CRC 85AAB0DA
Accurately ripped (confidence 5) [305EEFF9] (AR v2)
Copy OK


All tracks accurately ripped

No errors occurred

End of status report

–– CUETools DB Plugin V2.1.6

[CTDB TOCID: 52uXIEvxrtOiqcTM3sMfjXusSt0-] found
Submit result: 52uXIEvxrtOiqcTM3sMfjXusSt0- has been confirmed
Track | CTDB Status
1 | (20/20) Accurately ripped
2 | (20/20) Accurately ripped
3 | (20/20) Accurately ripped
4 | (20/20) Accurately ripped
5 | (20/20) Accurately ripped
6 | (20/20) Accurately ripped
7 | (20/20) Accurately ripped
8 | (20/20) Accurately ripped
9 | (20/20) Accurately ripped
10 | (20/20) Accurately ripped
11 | (20/20) Accurately ripped
12 | (20/20) Accurately ripped
13 | (20/20) Accurately ripped
14 | (20/20) Accurately ripped
15 | (20/20) Accurately ripped
16 | (20/20) Accurately ripped
17 | (20/20) Accurately ripped
18 | (20/20) Accurately ripped
19 | (19/20) Accurately ripped, or (1/20) differs in 10 samples @03:24:37


==== Log checksum 65F25C37653616951CB66950BC4C41EE8B3D77C0E740849F87B12EEA9DE567B4 ====

Exact Audio Copy V1.3 from 2. September 2016

EAC extraction logfile from 14. March 2018, 16:59

George Strait / 2016 - Strait Out Of The Box - Part 2 (Disc 03) 2009 - 2016

Used drive : HL-DT-STBD-RE BP50NB40 Adapter: 1 ID: 2

Read mode : Secure
Utilize accurate stream : Yes
Defeat audio cache : Yes
Make use of C2 pointers : No

Read offset correction : 6
Overread into Lead-In and Lead-Out : No
Fill up missing offset samples with silence : Yes
Delete leading and trailing silent blocks : No
Null samples used in CRC calculations : Yes
Used interface : Native Win32 interface for Win NT & 2000
Gap handling : Appended to previous track

Used output format : User Defined Encoder
Selected bitrate : 1024 kBit/s
Quality : High
Add ID3 tag : No
Command line compressor : C:\Program Files (x86)\Exact Audio Copy\Flac\flac.exe
Additional command line options : -8 -e -p -V -T "ARTIST=%artist%" -T "TITLE=%title%" -T "ALBUM=%albumtitle%" -T "DATE=%year%" -T "TRACKNUMBER=%tracknr%" -T "GENRE=%genre%" -T "PERFORMER=%albuminterpret%" -T "COMPOSER=%composer%" %haslyrics%–tag-from-file=LYRICS="%lyricsfile%"%haslyrics% -T "ALBUMARTIST=%albumartist%" -T "DISCNUMBER=%cdnumber%" -T "TOTALDISCS=%totalcds%" -T "TOTALTRACKS=%numtracks%" -T "COMMENT=%comment%" %source% -o %dest%


TOC of the extracted CD

Track | Start | Length | Start sector | End sector
––––––––––––––––––––––––––––-
1 | 0:00.00 | 3:42.45 | 0 | 16694
2 | 3:42.45 | 3:07.52 | 16695 | 30771
3 | 6:50.22 | 3:18.71 | 30772 | 45692
4 | 10:09.18 | 3:48.72 | 45693 | 62864
5 | 13:58.15 | 4:27.10 | 62865 | 82899
6 | 18:25.25 | 2:39.01 | 82900 | 94825
7 | 21:04.26 | 3:01.37 | 94826 | 108437
8 | 24:05.63 | 3:36.30 | 108438 | 124667
9 | 27:42.18 | 3:24.18 | 124668 | 139985
10 | 31:06.36 | 3:52.02 | 139986 | 157387
11 | 34:58.38 | 4:11.24 | 157388 | 176236
12 | 39:09.62 | 3:57.48 | 176237 | 194059
13 | 43:07.35 | 3:30.62 | 194060 | 209871
14 | 46:38.22 | 3:32.51 | 209872 | 225822
15 | 50:10.73 | 3:46.22 | 225823 | 242794
16 | 53:57.20 | 4:14.51 | 242795 | 261895
17 | 58:11.71 | 3:49.18 | 261896 | 279088
18 | 62:01.14 | 4:01.46 | 279089 | 297209
19 | 66:02.60 | 2:45.13 | 297210 | 309597


Track 1

Filename C:\Strait Out of The Box - Part 2 - CD 03\01 Living For The Night.wav

Pre-gap length 0:00:02.00

Peak level 89.5 %
Extraction speed 2.2 X
Track quality 100.0 %
Test CRC 59CFB926
Copy CRC 59CFB926
Accurately ripped (confidence 4) [D90EF87D] (AR v2)
Copy OK

Track 2

Filename C:\Strait Out of The Box - Part 2 - CD 03\02 Out Of Sight Out Of Mind.wav

Peak level 100.0 %
Extraction speed 2.4 X
Track quality 100.0 %
Test CRC A1C9FD3F
Copy CRC A1C9FD3F
Accurately ripped (confidence 4) [1E3FCF99] (AR v2)
Copy OK

Track 3

Filename C:\Strait Out of The Box - Part 2 - CD 03\03 Arkansas Dave.wav

Pre-gap length 0:00:00.25

Peak level 100.0 %
Extraction speed 2.6 X
Track quality 100.0 %
Test CRC B1DFB119
Copy CRC B1DFB119
Accurately ripped (confidence 4) [B4FC7F8A] (AR v2)
Copy OK

Track 4

Filename C:\Strait Out of The Box - Part 2 - CD 03\04 Love's Gonna Make It Alright.wav

Peak level 100.0 %
Extraction speed 2.8 X
Track quality 100.0 %
Test CRC 8F39F570
Copy CRC 8F39F570
Accurately ripped (confidence 4) [936FEF39] (AR v2)
Copy OK

Track 5

Filename C:\Strait Out of The Box - Part 2 - CD 03\05 Drinkin' Man.wav

Peak level 98.6 %
Extraction speed 3.0 X
Track quality 100.0 %
Test CRC E5AB1F5F
Copy CRC E5AB1F5F
Accurately ripped (confidence 4) [89F3221B] (AR v2)
Copy OK

Track 6

Filename C:\Strait Out of The Box - Part 2 - CD 03\06 Shame On Me.wav

Peak level 100.0 %
Extraction speed 2.2 X
Track quality 99.9 %
Test CRC 0F6FCCEE
Copy CRC 0F6FCCEE
Accurately ripped (confidence 4) [D794904A] (AR v2)
Copy OK

Track 7

Filename C:\Strait Out of The Box - Part 2 - CD 03\07 Here For A Good Time.wav

Peak level 100.0 %
Extraction speed 3.1 X
Track quality 100.0 %
Test CRC BB372D73
Copy CRC BB372D73
Accurately ripped (confidence 4) [ACCAADC8] (AR v2)
Copy OK

Track 8

Filename C:\Strait Out of The Box - Part 2 - CD 03\08 House Across The Bay.wav

Peak level 99.4 %
Extraction speed 3.4 X
Track quality 100.0 %
Test CRC 2635D05B
Copy CRC 2635D05B
Accurately ripped (confidence 4) [1B5F463C] (AR v2)
Copy OK

Track 9

Filename C:\Strait Out of The Box - Part 2 - CD 03\09 Blue Marlin Blues.wav

Peak level 99.7 %
Extraction speed 3.5 X
Track quality 100.0 %
Test CRC 2C71DBFC
Copy CRC 2C71DBFC
Accurately ripped (confidence 4) [261359C2] (AR v2)
Copy OK

Track 10

Filename C:\Strait Out of The Box - Part 2 - CD 03\10 I'll Always Remember You.wav

Peak level 99.4 %
Extraction speed 3.7 X
Track quality 100.0 %
Test CRC 5D101534
Copy CRC 5D101534
Accurately ripped (confidence 4) [ACE79872] (AR v2)
Copy OK

Track 11

Filename C:\Strait Out of The Box - Part 2 - CD 03\11 Give It All We Got Tonight.wav

Peak level 100.0 %
Extraction speed 2.9 X
Track quality 99.9 %
Test CRC A4770BCF
Copy CRC A4770BCF
Accurately ripped (confidence 4) [B94C0D01] (AR v2)
Copy OK

Track 12

Filename C:\Strait Out of The Box - Part 2 - CD 03\12 I Just Can't Go On Dying Like This.wav

Peak level 100.0 %
Extraction speed 4.0 X
Track quality 100.0 %
Test CRC E64ED443
Copy CRC E64ED443
Accurately ripped (confidence 4) [6256893F] (AR v2)
Copy OK

Track 13

Filename C:\Strait Out of The Box - Part 2 - CD 03\13 That's What Breaking Hearts Do.wav

Peak level 100.0 %
Extraction speed 2.8 X
Track quality 99.9 %
Test CRC 58520408
Copy CRC 58520408
Accurately ripped (confidence 4) [26C76A8B] (AR v2)
Copy OK

Track 14

Filename C:\Strait Out of The Box - Part 2 - CD 03\14 The Night Is Young.wav

Peak level 100.0 %
Extraction speed 4.1 X
Track quality 100.0 %
Test CRC 98481B66
Copy CRC 98481B66
Accurately ripped (confidence 4) [22434271] (AR v2)
Copy OK

Track 15

Filename C:\Strait Out of The Box - Part 2 - CD 03\15 I Believe.wav

Peak level 99.3 %
Extraction speed 4.3 X
Track quality 100.0 %
Test CRC B430C266
Copy CRC B430C266
Accurately ripped (confidence 4) [DBA83405] (AR v2)
Copy OK

Track 16

Filename C:\Strait Out of The Box - Part 2 - CD 03\16 Goin' Goin' Gone.wav

Peak level 97.2 %
Extraction speed 4.2 X
Track quality 100.0 %
Test CRC DEAD4CF2
Copy CRC DEAD4CF2
Accurately ripped (confidence 4) [8E0A9A90] (AR v2)
Copy OK

Track 17

Filename C:\Strait Out of The Box - Part 2 - CD 03\17 Everything I See.wav

Peak level 100.0 %
Extraction speed 4.3 X
Track quality 100.0 %
Test CRC 65810506
Copy CRC 65810506
Accurately ripped (confidence 4) [F320D591] (AR v2)
Copy OK

Track 18

Filename C:\Strait Out of The Box - Part 2 - CD 03\18 Kicked Outta Country.wav

Pre-gap length 0:00:01.41

Peak level 100.0 %
Extraction speed 4.7 X
Track quality 100.0 %
Test CRC 076A66C9
Copy CRC 076A66C9
Accurately ripped (confidence 4) [06274660] (AR v2)
Copy OK

Track 19

Filename C:\Strait Out of The Box - Part 2 - CD 03\19 You Gotta Go Through Hell.wav

Pre-gap length 0:00:01.88

Peak level 100.0 %
Extraction speed 4.4 X
Track quality 100.0 %
Test CRC 1E950B58
Copy CRC 1E950B58
Accurately ripped (confidence 2) [D5B804B6] (AR v2)
Copy OK


All tracks accurately ripped

No errors occurred

End of status report

–– CUETools DB Plugin V2.1.6

[CTDB TOCID: noji5QBehfIML6tP2Bhc..uSKfY-] found
Submit result: noji5QBehfIML6tP2Bhc..uSKfY- has been confirmed
Track | CTDB Status
1 | (19/19) Accurately ripped
2 | (19/19) Accurately ripped
3 | (19/19) Accurately ripped
4 | (19/19) Accurately ripped
5 | (19/19) Accurately ripped
6 | (19/19) Accurately ripped
7 | (19/19) Accurately ripped
8 | (19/19) Accurately ripped
9 | (19/19) Accurately ripped
10 | (19/19) Accurately ripped
11 | (19/19) Accurately ripped
12 | (19/19) Accurately ripped
13 | (19/19) Accurately ripped
14 | (19/19) Accurately ripped
15 | (19/19) Accurately ripped
16 | (19/19) Accurately ripped
17 | (19/19) Accurately ripped
18 | (19/19) Accurately ripped
19 | (17/19) Accurately ripped


==== Log checksum FD8625BBA44672091F66D254ACAC811C29412E5E93D91C4ECE613E929724663D ====

Thanks to the Original ripper deadman36g !