Tags
Language
Tags
April 2024
Su Mo Tu We Th Fr Sa
31 1 2 3 4 5 6
7 8 9 10 11 12 13
14 15 16 17 18 19 20
21 22 23 24 25 26 27
28 29 30 1 2 3 4

Gil Evans - Into The Hot (1961) {Impulse! ‎MCAD-39104 rel 1988}

Posted By: ruskaval
Gil Evans - Into The Hot (1961) {Impulse! ‎MCAD-39104 rel 1988}

Gil Evans - Into The Hot (1961) {Impulse! ‎MCAD-39104 rel 1988}
XLD rip (secure mode) | FLAC (tracks)+CUE+LOG -> 253 Mb | MP3 @320 -> 99 Mb
Full Artwork @ 300 dpi (jpg) -> 15 Mb | 5% repair rar
© 1961, 1988 Impulse! / MCA Records | ‎MCAD-39104
Jazz / Post Bop / Modern Big Band / Progressive Jazz / Modern Arrangement

A marvelous album of varied colors and textures. The Evans arranging genius is much in evidence here. A wonderful companion to his best work with Miles Davis, "Into the Hot" also features three compositions by Cecil Taylor, who plays piano on the tracks. But fear not–apparently Mr. Evans had a calming effect on him, because Mr. Taylor has never played with such restraint. Highly recommended.
Although this album (reissued on CD) proudly states that it is by the Gil Evans Orchestra and has Evans' picture on the cover, the arranger actually had nothing to do with the music. Three songs have the nucleus of his big band performing numbers composed, arranged, and conducted by John Carisi (who also plays one of the trumpets). Those selections by the composer of "Israel" are disappointingly forgettable. The other three performances are even further away from Evans for they are actually selections by avant-garde pianist Cecil Taylor's septet! Taylor's music features trumpeter Ted Curson, trombonist Roswell Rudd, altoist Jimmy Lyons, tenor saxophonist Archie Shepp, bassist Henry Grimes, and drummer Sunny Murray and is quite adventurous and exciting, the main reason to acquire this somewhat misleading set.
Gil Evans - Into The Hot (1961) {Impulse! ‎MCAD-39104 rel 1988}


Personnel:

Supervised and Conducted by GIL EVANS

The John Carisi Orchestra, tracks 1, 3, & 5


John Carisi: trumpet, arranger
John Glasel: trumpet
Joe Wilder: trumpet (track 1), Doc Severinsen: trumpet (track 3), Clark Terry: trumpet (track 5)
Urbie Green: trombone
Bob Brookmeyer: valve trombone (tracks 1 & 5)
Jim Buffington: french horn (track 3)
Harvey Phillips: tuba
Phil Woods: alto saxophone (solo)
Gene Quill: alto saxophone, clarinet
Eddie Costa: piano, vibes
Barry Galbraith: guitar
Art Davis: bass (tracks 1 & 5), Milt Hinton: bass (track 3)
Osie Johnson: drums

The Cecil Taylor Unit, tracks 2, 4, & 6

Cecil Taylor: piano
Jimmy Lyons: alto saxophone
Archie Shepp: tenor saxophone
Henry Grimes: bass
Sunny Murray: drums
Ted Curson: trumpet (added on track 6)
Roswell Rudd: trombone (added on track 6)

Recorded 31.10.1961 (track 1), 14.9.1961 (track 3), 6.10.1961 (track 5) and 10.10.1961 (tracks 2, 4, 6)

Tracks
1. Moon Taj
2. Pots
3. Angkor Wat
4. Bulbs
5. Barry's Tune
6. Mixed

X Lossless Decoder version 20091212 (114.6)

XLD extraction logfile from 2009-12-24 19:27:08 +0100

Gil Evans Orchestra / Into the hot

Used drive : OPTIARC DVD RW AD-5630A (revision 1AHM)

Use cdparanoia mode : YES (CDParanoia III 10.2 engine)
Disable audio cache : OK for the drive with cache less than 2750KB
Make use of C2 pointers : NO
Read offset correction : 48
Max retry count : 100

TOC of the extracted CD
Track | Start | Length | Start sector | End sector
––––––––––––––––––––––––––––-
1 | 00:00:37 | 08:25:25 | 37 | 37936
2 | 08:25:62 | 05:49:43 | 37937 | 64154
3 | 14:15:30 | 06:24:70 | 64155 | 93024
4 | 20:40:25 | 06:54:72 | 93025 | 124146
5 | 27:35:22 | 03:43:23 | 124147 | 140894
6 | 31:18:45 | 10:13:72 | 140895 | 186941


All Tracks
Album gain : -2.75 dB
Peak : 0.948059

Track 01
Filename : /Volumes/8-Jazz + altro/ Flac/Gil Evans Orchestra - Into the hot (1961) [FLAC]/01 - Moon Taj.flac

Track gain : -0.04 dB
Peak : 0.948059
CRC32 hash (test run) : 6F4B7648
CRC32 hash : 6F4B7648
CRC32 hash (skip zero) : E77C6A67
AccurateRip signature : 896B1841
->Accurately ripped! (confidence 1)
Statistics
Read error : 0
Skipped (treated as error) : 0
Edge jitter error (maybe fixed) : 0
Atom jitter error (maybe fixed) : 0
Drift error (maybe fixed) : 0
Dropped bytes error (maybe fixed) : 0
Duplicated bytes error (maybe fixed) : 0
Inconsistency in error sectors : 0

Track 02
Filename : /Volumes/8-Jazz + altro/ Flac/Gil Evans Orchestra - Into the hot (1961) [FLAC]/02 - Pots.flac

Track gain : 0.09 dB
Peak : 0.774841
CRC32 hash (test run) : 036452EF
CRC32 hash : 036452EF
CRC32 hash (skip zero) : AD6417A1
AccurateRip signature : 0200EE80
->Accurately ripped! (confidence 1)
Statistics
Read error : 0
Skipped (treated as error) : 0
Edge jitter error (maybe fixed) : 0
Atom jitter error (maybe fixed) : 0
Drift error (maybe fixed) : 0
Dropped bytes error (maybe fixed) : 0
Duplicated bytes error (maybe fixed) : 0
Inconsistency in error sectors : 0

Track 03
Filename : /Volumes/8-Jazz + altro/ Flac/Gil Evans Orchestra - Into the hot (1961) [FLAC]/03 - Angkor Wat.flac

Track gain : -2.00 dB
Peak : 0.776703
CRC32 hash (test run) : 6F785732
CRC32 hash : 6F785732
CRC32 hash (skip zero) : FFBF5D65
AccurateRip signature : 9A5BF5DE
->Accurately ripped! (confidence 1)
Statistics
Read error : 0
Skipped (treated as error) : 0
Edge jitter error (maybe fixed) : 0
Atom jitter error (maybe fixed) : 0
Drift error (maybe fixed) : 0
Dropped bytes error (maybe fixed) : 0
Duplicated bytes error (maybe fixed) : 0
Inconsistency in error sectors : 0

Track 04
Filename : /Volumes/8-Jazz + altro/ Flac/Gil Evans Orchestra - Into the hot (1961) [FLAC]/04 - Bulbs.flac

Track gain : -2.71 dB
Peak : 0.813721
CRC32 hash (test run) : D4B3EC2E
CRC32 hash : D4B3EC2E
CRC32 hash (skip zero) : 10B57CAB
AccurateRip signature : DEF3F70E
->Accurately ripped! (confidence 1)
Statistics
Read error : 0
Skipped (treated as error) : 0
Edge jitter error (maybe fixed) : 0
Atom jitter error (maybe fixed) : 0
Drift error (maybe fixed) : 0
Dropped bytes error (maybe fixed) : 0
Duplicated bytes error (maybe fixed) : 0
Inconsistency in error sectors : 0

Track 05
Filename : /Volumes/8-Jazz + altro/ Flac/Gil Evans Orchestra - Into the hot (1961) [FLAC]/05 - Barry's Tune.flac

Track gain : -3.21 dB
Peak : 0.794739
CRC32 hash (test run) : 0ECE791F
CRC32 hash : 0ECE791F
CRC32 hash (skip zero) : 3792B26F
AccurateRip signature : FF28C0FE
->Accurately ripped! (confidence 1)
Statistics
Read error : 0
Skipped (treated as error) : 0
Edge jitter error (maybe fixed) : 0
Atom jitter error (maybe fixed) : 0
Drift error (maybe fixed) : 0
Dropped bytes error (maybe fixed) : 0
Duplicated bytes error (maybe fixed) : 0
Inconsistency in error sectors : 0

Track 06
Filename : /Volumes/8-Jazz + altro/ Flac/Gil Evans Orchestra - Into the hot (1961) [FLAC]/06 - Mixed.flac

Track gain : -3.79 dB
Peak : 0.913544
CRC32 hash (test run) : 15681D15
CRC32 hash : 15681D15
CRC32 hash (skip zero) : DF99EF84
AccurateRip signature : 347D9B3A
->Accurately ripped! (confidence 1)
Statistics
Read error : 0
Skipped (treated as error) : 0
Edge jitter error (maybe fixed) : 0
Atom jitter error (maybe fixed) : 0
Drift error (maybe fixed) : 0
Dropped bytes error (maybe fixed) : 0
Duplicated bytes error (maybe fixed) : 0
Inconsistency in error sectors : 0

No errors occurred

End of status report


Gil Evans - Into The Hot (1961) {Impulse! ‎MCAD-39104 rel 1988}

Gil Evans - Into The Hot (1961) {Impulse! ‎MCAD-39104 rel 1988}



===