Subcategories

Gone Is Gone - Echolocation (2017)

Posted By: delpotro
Gone Is Gone - Echolocation (2017)

Gone Is Gone - Echolocation (2017)
EAC Rip | FLAC (tracks+log+.cue) | 00:55:01 | 368 Mb
Progressive Rock, Experimental Rock, Stoner Rock | Label: Rise Records

Gone Is Gone is an American rock group formed in 2016. The band consists of Troy Sanders, the singer and bass player from Mastodon, Troy Van Leeuwen, one of the guitarists for Queens of the Stone Age, Tony Hajjar, the drummer for At the Drive-In, and Mike Zarin, a multi-instrumentalist, composer and founder of Sencit Music who appeared with Van Leeuwen on Sweethead's Descent to the Surface. An eponymous EP was released on July 8, 2016, and the band released their debut album Echolocation on January 6, 2017.
Tracklist:
1. Sentient (05:36)
2. Gift (04:10)
3. Resurge (04:30)
4. Dublin (04:58)
5. Ornament (04:42)
6. Pawns (03:53)
7. Colourfade (03:46)
8. Roads (05:30)
9. Slow Awakening (04:43)
10. Fast Awakening (02:33)
11. Resolve (04:02)
12. Echolocation (06:32)

Exact Audio Copy V1.3 from 2. September 2016

EAC extraction logfile from 15. March 2020, 19:05

Gone Is Gone / Echolocation

Used drive : Optiarc DVD+-RW AD-7200S Adapter: 1 ID: 0

Read mode : Secure
Utilize accurate stream : Yes
Defeat audio cache : Yes
Make use of C2 pointers : No

Read offset correction : 48
Overread into Lead-In and Lead-Out : No
Fill up missing offset samples with silence : Yes
Delete leading and trailing silent blocks : No
Null samples used in CRC calculations : Yes
Used interface : Native Win32 interface for Win NT & 2000
Gap handling : Appended to previous track

Used output format : User Defined Encoder
Selected bitrate : 1024 kBit/s
Quality : High
Add ID3 tag : No
Command line compressor : C:\Program Files (x86)\Exact Audio Copy\Flac\flac.exe
Additional command line options : -8 -V -T "ARTIST=%artist%" -T "TITLE=%title%" -T "ALBUM=%albumtitle%" -T "DATE=%year%" -T "TRACKNUMBER=%tracknr%" -T "GENRE=%genre%" -T "PERFORMER=%albuminterpret%" -T "COMPOSER=%composer%" %haslyrics%–tag-from-file=LYRICS="%lyricsfile%"%haslyrics% -T "ALBUMARTIST=%albumartist%" -T "DISCNUMBER=%cdnumber%" -T "TOTALDISCS=%totalcds%" -T "TOTALTRACKS=%numtracks%" -T "COMMENT=%comment%" %source% -o %dest%


TOC of the extracted CD

Track | Start | Length | Start sector | End sector
––––––––––––––––––––––––––––-
1 | 0:00.00 | 5:36.74 | 0 | 25273
2 | 5:36.74 | 4:10.06 | 25274 | 44029
3 | 9:47.05 | 4:30.66 | 44030 | 64345
4 | 14:17.71 | 4:58.19 | 64346 | 86714
5 | 19:16.15 | 4:42.24 | 86715 | 107888
6 | 23:58.39 | 3:53.00 | 107889 | 125363
7 | 27:51.39 | 3:46.47 | 125364 | 142360
8 | 31:38.11 | 5:30.56 | 142361 | 167166
9 | 37:08.67 | 4:43.42 | 167167 | 188433
10 | 41:52.34 | 2:33.35 | 188434 | 199943
11 | 44:25.69 | 4:02.67 | 199944 | 218160
12 | 48:28.61 | 6:32.18 | 218161 | 247578


Track 1

Filename C:\EAC\Gone Is Gone - Echolocation (2016) [RISE 343-2] [FLAC]\01 - Sentient.wav

Pre-gap length 0:00:02.00

Peak level 96.6 %
Extraction speed 2.2 X
Track quality 99.9 %
Test CRC D9CC2369
Copy CRC D9CC2369
Accurately ripped (confidence 8) [2DD81DE6] (AR v2)
Copy OK

Track 2

Filename C:\EAC\Gone Is Gone - Echolocation (2016) [RISE 343-2] [FLAC]\02 - Gift.wav

Peak level 96.6 %
Extraction speed 2.7 X
Track quality 100.0 %
Test CRC 2F477366
Copy CRC 2F477366
Accurately ripped (confidence 8) [87B35198] (AR v2)
Copy OK

Track 3

Filename C:\EAC\Gone Is Gone - Echolocation (2016) [RISE 343-2] [FLAC]\03 - Resurge.wav

Peak level 96.6 %
Extraction speed 2.6 X
Track quality 99.9 %
Test CRC AEC9C2A5
Copy CRC AEC9C2A5
Accurately ripped (confidence 8) [61C7A42C] (AR v2)
Copy OK

Track 4

Filename C:\EAC\Gone Is Gone - Echolocation (2016) [RISE 343-2] [FLAC]\04 - Dublin.wav

Peak level 96.6 %
Extraction speed 3.3 X
Track quality 100.0 %
Test CRC 176A6C88
Copy CRC 176A6C88
Accurately ripped (confidence 8) [E7969A4E] (AR v2)
Copy OK

Track 5

Filename C:\EAC\Gone Is Gone - Echolocation (2016) [RISE 343-2] [FLAC]\05 - Ornament.wav

Peak level 96.6 %
Extraction speed 3.5 X
Track quality 100.0 %
Test CRC B1032BA3
Copy CRC B1032BA3
Accurately ripped (confidence 8) [5C09C339] (AR v2)
Copy OK

Track 6

Filename C:\EAC\Gone Is Gone - Echolocation (2016) [RISE 343-2] [FLAC]\06 - Pawns.wav

Peak level 96.6 %
Extraction speed 3.6 X
Track quality 100.0 %
Test CRC 2EA37AA9
Copy CRC 2EA37AA9
Accurately ripped (confidence 8) [45F4A776] (AR v2)
Copy OK

Track 7

Filename C:\EAC\Gone Is Gone - Echolocation (2016) [RISE 343-2] [FLAC]\07 - Colourfade.wav

Peak level 96.6 %
Extraction speed 3.7 X
Track quality 100.0 %
Test CRC 6DD66AC1
Copy CRC 6DD66AC1
Accurately ripped (confidence 8) [28F28272] (AR v2)
Copy OK

Track 8

Filename C:\EAC\Gone Is Gone - Echolocation (2016) [RISE 343-2] [FLAC]\08 - Roads.wav

Peak level 96.6 %
Extraction speed 4.1 X
Track quality 100.0 %
Test CRC FB9F2914
Copy CRC FB9F2914
Accurately ripped (confidence 8) [AC4E76C6] (AR v2)
Copy OK

Track 9

Filename C:\EAC\Gone Is Gone - Echolocation (2016) [RISE 343-2] [FLAC]\09 - Slow Awakening.wav

Peak level 96.6 %
Extraction speed 4.2 X
Track quality 100.0 %
Test CRC C4CCE5B1
Copy CRC C4CCE5B1
Accurately ripped (confidence 8) [8B6C3ECE] (AR v2)
Copy OK

Track 10

Filename C:\EAC\Gone Is Gone - Echolocation (2016) [RISE 343-2] [FLAC]\10 - Fast Awakening.wav

Peak level 96.6 %
Extraction speed 4.0 X
Track quality 100.0 %
Test CRC 106D7289
Copy CRC 106D7289
Accurately ripped (confidence 8) [A366324F] (AR v2)
Copy OK

Track 11

Filename C:\EAC\Gone Is Gone - Echolocation (2016) [RISE 343-2] [FLAC]\11 - Resolve.wav

Peak level 96.6 %
Extraction speed 4.4 X
Track quality 100.0 %
Test CRC 550D4408
Copy CRC 550D4408
Accurately ripped (confidence 8) [EEAF01EC] (AR v2)
Copy OK

Track 12

Filename C:\EAC\Gone Is Gone - Echolocation (2016) [RISE 343-2] [FLAC]\12 - Echolocation.wav

Peak level 96.6 %
Extraction speed 4.9 X
Track quality 100.0 %
Test CRC 2B82A2AE
Copy CRC 2B82A2AE
Accurately ripped (confidence 8) [ED631599] (AR v2)
Copy OK


All tracks accurately ripped

No errors occurred

End of status report

–– CUETools DB Plugin V2.1.6

[CTDB TOCID: _ykD6UavaM3y7_xpo3ABdyvPvLc-] found
Submit result: _ykD6UavaM3y7_xpo3ABdyvPvLc- has been confirmed
Track | CTDB Status
1 | (40/40) Accurately ripped
2 | (40/40) Accurately ripped
3 | (39/40) Accurately ripped
4 | (39/40) Accurately ripped
5 | (40/40) Accurately ripped
6 | (40/40) Accurately ripped
7 | (40/40) Accurately ripped
8 | (40/40) Accurately ripped
9 | (40/40) Accurately ripped
10 | (40/40) Accurately ripped
11 | (40/40) Accurately ripped
12 | (40/40) Accurately ripped


==== Log checksum 3F6F2876E1049713E1D3D9F4C757976C18920197AB2023DED9EA977F92EFDB52 ====

Thanks to the Original ripper !