Tags
Language
Tags

Guided By Voices - It's Not Them. It Couldn't Be Them. It Is Them! (2021)

Posted By: delpotro
Guided By Voices - It's Not Them. It Couldn't Be Them. It Is Them! (2021)

Guided By Voices - It's Not Them. It Couldn't Be Them. It Is Them! (2021)
XLD Rip | FLAC (tracks+log+.cue) - 293 Mb | MP3 CBR 320 kbps - 107 Mb | 00:41:40
Alternative Rock, Garage Rock | Label: GBV Inc

It’s been just a few months since Guided By Voice’s faux rock opera Earth Man Blues garnered four-star and five-star reviews, with Rolling Stone proclaiming that it “squarely hits all the marks that make Guided By Voices great—again and again and again.”

“Again and again and again”, is perhaps GBV’s credo, with Robert Pollard’s never-ending supply of fascinating and supremely catchy rock. Just when one thinks one’s got them pinned down, album number thirty-four opens with bizarre percussion, mariachi trumpets, strings and acoustic guitar. The adventurous spirit pervades yet another killer album from the greatest and most versatile GBV line-up. The golden boys (Doug Gillard, Bobby Bare Jr, Mark Shue, Kevin March) can do no wrong.

Hooky singles “My (Limited) Engagement”, “High In The Rain” and “Dance of Gurus” intermingle with occasionally dark lyrics and the oddest of GBV oddballs, the ridiculous “Razor Bug”, “Psycho House”, and the “Maintenance Man Of The Haunted House”. The horns and strings return intermittently, with “The Bells Get Out Of The Way” going full Burt Bacharach. It’s Not Them. It Couldn’t Be Them. It Is Them! is a creative tour-de-force full of surprises from the most prolific and captivating band on the planet.
Tracklist:
1. Spanish Coin (03:19)
2. High in the Rain (03:39)
3. Dance of Gurus (02:36)
4. Flying Without a License (02:46)
5. Psycho House (02:46)
6. Maintenance Man of the Haunted House (02:42)
7. I Share a Rhythm (02:02)
8. Razor Bug (01:05)
9. I Wanna Monkey (02:49)
10. Cherub and the Great Child Actor (02:06)
11. Black and White Eyes in a Prism (04:38)
12. People Need Holes (02:42)
13. The Bell Gets Out of the Way (02:26)
14. Chain Gang Island (03:51)
15. My (Limited) Engagement (02:05)

X Lossless Decoder version 20210101 (153.1)

XLD extraction logfile from 2021-10-12 16:48:18 -0400

Guided By Voices / It's Not Them. It Couldn't Be Them. It Is Them!

Used drive : HL-DT-ST DVDRAM GE24NU40 (revision 1.00)
Media type : Pressed CD

Ripper mode : XLD Secure Ripper
Disable audio cache : OK for the drive with a cache less than 1375KiB
Make use of C2 pointers : NO
Read offset correction : 6
Max retry count : 100
Gap status : Analyzed, Appended (except HTOA)

TOC of the extracted CD
Track | Start | Length | Start sector | End sector
––––––––––––––––––––––––––––-
1 | 00:00:00 | 03:20:02 | 0 | 15001
2 | 03:20:02 | 03:39:34 | 15002 | 31460
3 | 06:59:36 | 02:36:64 | 31461 | 43224
4 | 09:36:25 | 02:46:40 | 43225 | 55714
5 | 12:22:65 | 02:46:43 | 55715 | 68207
6 | 15:09:33 | 02:42:38 | 68208 | 80395
7 | 17:51:71 | 02:02:32 | 80396 | 89577
8 | 19:54:28 | 01:05:41 | 89578 | 94493
9 | 20:59:69 | 02:49:16 | 94494 | 107184
10 | 23:49:10 | 02:06:17 | 107185 | 116651
11 | 25:55:27 | 04:38:73 | 116652 | 137574
12 | 30:34:25 | 02:42:44 | 137575 | 149768
13 | 33:16:69 | 02:26:65 | 149769 | 160783
14 | 35:43:59 | 03:51:02 | 160784 | 178110
15 | 39:34:61 | 02:06:06 | 178111 | 187566

AccurateRip Summary
Disc not found in AccurateRip DB.

All Tracks
Album gain : -10.23 dB
Peak : 0.999969
Statistics
Read error : 0
Jitter error (maybe fixed) : 0
Retry sector count : 0
Damaged sector count : 0

Track 01
Filename : /Users/briansek/Music/Guided By Voices - It's Not Them. It Couldn't Be Them. It Is Them! (2021) [FLAC]/01 Spanish Coin.flac
Pre-gap length : 00:02:00

Track gain : -10.28 dB
Peak : 0.999969
CRC32 hash (test run) : CEC32B1C
CRC32 hash : CEC32B1C
CRC32 hash (skip zero) : A94B645E
AccurateRip v1 signature : F7BE736B
AccurateRip v2 signature : FAE9FF21
->Track not present in AccurateRip database.
Statistics
Read error : 0
Jitter error (maybe fixed) : 0
Retry sector count : 0
Damaged sector count : 0

Track 02
Filename : /Users/briansek/Music/Guided By Voices - It's Not Them. It Couldn't Be Them. It Is Them! (2021) [FLAC]/02 High in the Rain.flac

Track gain : -11.44 dB
Peak : 0.998688
CRC32 hash (test run) : C211F347
CRC32 hash : C211F347
CRC32 hash (skip zero) : BD597732
AccurateRip v1 signature : CEE05F3C
AccurateRip v2 signature : 3F7C2AFC
->Track not present in AccurateRip database.
Statistics
Read error : 0
Jitter error (maybe fixed) : 0
Retry sector count : 0
Damaged sector count : 0

Track 03
Filename : /Users/briansek/Music/Guided By Voices - It's Not Them. It Couldn't Be Them. It Is Them! (2021) [FLAC]/03 Dance of Gurus.flac

Track gain : -9.38 dB
Peak : 0.999969
CRC32 hash (test run) : 542D54E2
CRC32 hash : 542D54E2
CRC32 hash (skip zero) : 34FCF81B
AccurateRip v1 signature : 419C0DD9
AccurateRip v2 signature : 811FA3BC
->Track not present in AccurateRip database.
Statistics
Read error : 0
Jitter error (maybe fixed) : 0
Retry sector count : 0
Damaged sector count : 0

Track 04
Filename : /Users/briansek/Music/Guided By Voices - It's Not Them. It Couldn't Be Them. It Is Them! (2021) [FLAC]/04 Flying Without a License.flac

Track gain : -10.45 dB
Peak : 0.999969
CRC32 hash (test run) : 281192BD
CRC32 hash : 281192BD
CRC32 hash (skip zero) : 488E3D37
AccurateRip v1 signature : D08E0C68
AccurateRip v2 signature : A8D3E5A3
->Track not present in AccurateRip database.
Statistics
Read error : 0
Jitter error (maybe fixed) : 0
Retry sector count : 0
Damaged sector count : 0

Track 05
Filename : /Users/briansek/Music/Guided By Voices - It's Not Them. It Couldn't Be Them. It Is Them! (2021) [FLAC]/05 Psycho House.flac

Track gain : -10.18 dB
Peak : 0.988403
CRC32 hash (test run) : 79F5C592
CRC32 hash : 79F5C592
CRC32 hash (skip zero) : 0A3D3668
AccurateRip v1 signature : EEADC864
AccurateRip v2 signature : 3FEEA260
->Track not present in AccurateRip database.
Statistics
Read error : 0
Jitter error (maybe fixed) : 0
Retry sector count : 0
Damaged sector count : 0

Track 06
Filename : /Users/briansek/Music/Guided By Voices - It's Not Them. It Couldn't Be Them. It Is Them! (2021) [FLAC]/06 Maintenance Man of the Haunted House.flac

Track gain : -9.11 dB
Peak : 0.999969
CRC32 hash (test run) : F181B422
CRC32 hash : F181B422
CRC32 hash (skip zero) : CB5AB3AE
AccurateRip v1 signature : 0C1FE61E
AccurateRip v2 signature : 94016D7B
->Track not present in AccurateRip database.
Statistics
Read error : 0
Jitter error (maybe fixed) : 0
Retry sector count : 0
Damaged sector count : 0

Track 07
Filename : /Users/briansek/Music/Guided By Voices - It's Not Them. It Couldn't Be Them. It Is Them! (2021) [FLAC]/07 I Share a Rhythm.flac

Track gain : -10.70 dB
Peak : 0.999786
CRC32 hash (test run) : 2DB16113
CRC32 hash : 2DB16113
CRC32 hash (skip zero) : 215A7099
AccurateRip v1 signature : 6942297B
AccurateRip v2 signature : 7A637F6E
->Track not present in AccurateRip database.
Statistics
Read error : 0
Jitter error (maybe fixed) : 0
Retry sector count : 0
Damaged sector count : 0

Track 08
Filename : /Users/briansek/Music/Guided By Voices - It's Not Them. It Couldn't Be Them. It Is Them! (2021) [FLAC]/08 Razor Bug.flac

Track gain : -5.21 dB
Peak : 0.973785
CRC32 hash (test run) : 3183FBAC
CRC32 hash : 3183FBAC
CRC32 hash (skip zero) : E49D35B2
AccurateRip v1 signature : 2F52AF9D
AccurateRip v2 signature : 89742C5C
->Track not present in AccurateRip database.
Statistics
Read error : 0
Jitter error (maybe fixed) : 0
Retry sector count : 0
Damaged sector count : 0

Track 09
Filename : /Users/briansek/Music/Guided By Voices - It's Not Them. It Couldn't Be Them. It Is Them! (2021) [FLAC]/09 I Wanna Monkey.flac

Track gain : -9.57 dB
Peak : 0.996399
CRC32 hash (test run) : 68EB7C59
CRC32 hash : 68EB7C59
CRC32 hash (skip zero) : 1A7F4E52
AccurateRip v1 signature : 4F404EEE
AccurateRip v2 signature : 921F5F86
->Track not present in AccurateRip database.
Statistics
Read error : 0
Jitter error (maybe fixed) : 0
Retry sector count : 0
Damaged sector count : 0

Track 10
Filename : /Users/briansek/Music/Guided By Voices - It's Not Them. It Couldn't Be Them. It Is Them! (2021) [FLAC]/10 Cherub and the Great Child Actor.flac

Track gain : -9.55 dB
Peak : 0.994110
CRC32 hash (test run) : 1CDE925E
CRC32 hash : 1CDE925E
CRC32 hash (skip zero) : 9CF287E7
AccurateRip v1 signature : 9F32C063
AccurateRip v2 signature : 8F5CD975
->Track not present in AccurateRip database.
Statistics
Read error : 0
Jitter error (maybe fixed) : 0
Retry sector count : 0
Damaged sector count : 0

Track 11
Filename : /Users/briansek/Music/Guided By Voices - It's Not Them. It Couldn't Be Them. It Is Them! (2021) [FLAC]/11 Black and White Eyes in a Prism.flac

Track gain : -11.13 dB
Peak : 0.999969
CRC32 hash (test run) : 3F88FFCA
CRC32 hash : 3F88FFCA
CRC32 hash (skip zero) : 3E1FDBD7
AccurateRip v1 signature : 965012DF
AccurateRip v2 signature : 907FFF24
->Track not present in AccurateRip database.
Statistics
Read error : 0
Jitter error (maybe fixed) : 0
Retry sector count : 0
Damaged sector count : 0

Track 12
Filename : /Users/briansek/Music/Guided By Voices - It's Not Them. It Couldn't Be Them. It Is Them! (2021) [FLAC]/12 People Need Holes.flac

Track gain : -10.25 dB
Peak : 0.999756
CRC32 hash (test run) : 6C19D11C
CRC32 hash : 6C19D11C
CRC32 hash (skip zero) : B674BF21
AccurateRip v1 signature : 2D43E18B
AccurateRip v2 signature : 0AD22094
->Track not present in AccurateRip database.
Statistics
Read error : 0
Jitter error (maybe fixed) : 0
Retry sector count : 0
Damaged sector count : 0

Track 13
Filename : /Users/briansek/Music/Guided By Voices - It's Not Them. It Couldn't Be Them. It Is Them! (2021) [FLAC]/13 The Bell Gets out of the Way.flac

Track gain : -8.00 dB
Peak : 0.999969
CRC32 hash (test run) : D605C634
CRC32 hash : D605C634
CRC32 hash (skip zero) : 2CAFB364
AccurateRip v1 signature : B87FC3E6
AccurateRip v2 signature : 5C3B467A
->Track not present in AccurateRip database.
Statistics
Read error : 0
Jitter error (maybe fixed) : 0
Retry sector count : 0
Damaged sector count : 0

Track 14
Filename : /Users/briansek/Music/Guided By Voices - It's Not Them. It Couldn't Be Them. It Is Them! (2021) [FLAC]/14 Chain Gang Island.flac

Track gain : -10.23 dB
Peak : 0.999969
CRC32 hash (test run) : 459F1CA8
CRC32 hash : 459F1CA8
CRC32 hash (skip zero) : 59F5B9EF
AccurateRip v1 signature : 8907C66E
AccurateRip v2 signature : 8F2A9809
->Track not present in AccurateRip database.
Statistics
Read error : 0
Jitter error (maybe fixed) : 0
Retry sector count : 0
Damaged sector count : 0

Track 15
Filename : /Users/briansek/Music/Guided By Voices - It's Not Them. It Couldn't Be Them. It Is Them! (2021) [FLAC]/15 My (Limited) Engagement.flac

Track gain : -11.16 dB
Peak : 0.999969
CRC32 hash (test run) : 3CD6CB34
CRC32 hash : 3CD6CB34
CRC32 hash (skip zero) : A76BB5E6
AccurateRip v1 signature : 9A237E9A
AccurateRip v2 signature : 912365E3
->Track not present in AccurateRip database.
Statistics
Read error : 0
Jitter error (maybe fixed) : 0
Retry sector count : 0
Damaged sector count : 0

No errors occurred

End of status report

––-BEGIN XLD SIGNATURE––-
DfnwAC6J07zdCtfJl4h0_c3cgEP803P20jMOUhNOzfLfwDJ3BeMtZk103zOFiFYrUc23ekWkjBt1dF3sLiVPveRS1bTnTiyWX2FOyji
––-END XLD SIGNATURE––-

Thanks to the Original ripper !