Tags
Language
Tags

Jake Shimabukuro - The Greatest Day (2018)

Posted By: aasana
Jake Shimabukuro - The Greatest Day (2018)

Jake Shimabukuro - The Greatest Day (2018)
EAC Rip | FLAC (tracks+.cue+.log) | 1:26:14 | 407 MB
World, Easy Listening | Label: JS Records

Jake Shimabukuro is well known in Hawaii and Japan due to his early solo career in the early 2000's and his international fame that happened in 2006 when a video of him went viral, playing a rendition of "While My Guitar Gently Weeps" was posted on YouTube without his knowledge. JS Records and Mailboat Records are pleased to present the brand new album from Jake Shimabukuro titled, The Greatest Day.

Tracklist:
3:41 | 01. Jake Shimabukuro - Time of the Season
3:44 | 02. Jake Shimabukuro - The Greatest Day
4:09 | 03. Jake Shimabukuro - Eleanor Rigby
3:16 | 04. Jake Shimabukuro - Pangram
4:20 | 05. Jake Shimabukuro - Bizarre Love Triangle
4:05 | 06. Jake Shimabukuro - Straight A's
7:13 | 07. Jake Shimabukuro - If 6 was 9
3:09 | 08. Jake Shimabukuro - Shape of You
4:25 | 09. Jake Shimabukuro - Go For Broke
2:27 | 10. Jake Shimabukuro - Little Echoes
4:18 | 11. Jake Shimabukuro - Mahalo John Wayne
4:10 | 12. Jake Shimabukuro - Hallelujah
8:12 | 13. Jake Shimabukuro - Use Me (feat. Dave Preston) (’18 Live)
6:07 | 14. Jake Shimabukuro - Dragon (‘18 Live)
12:26 | 15. Jake Shimabukuro - While My Guitar Gently Weeps (’18 Live)

Exact Audio Copy V1.3 from 2. September 2016

EAC extraction logfile from 29. October 2018, 20:33

Jake Shimabukuro / The Greatest Day

Used drive : HL-DT-STDVDRAM GH24LS50 Adapter: 1 ID: 0

Read mode : Secure
Utilize accurate stream : Yes
Defeat audio cache : Yes
Make use of C2 pointers : No

Read offset correction : 667
Overread into Lead-In and Lead-Out : No
Fill up missing offset samples with silence : Yes
Delete leading and trailing silent blocks : No
Null samples used in CRC calculations : Yes
Used interface : Native Win32 interface for Win NT & 2000
Gap handling : Appended to previous track

Used output format : User Defined Encoder
Selected bitrate : 1024 kBit/s
Quality : High
Add ID3 tag : No
Command line compressor : C:\Program Files (x86)\Exact Audio Copy\Flac\flac.exe
Additional command line options : -8 -e -p -V -T "ARTIST=%artist%" -T "TITLE=%title%" -T "ALBUM=%albumtitle%" -T "DATE=%year%" -T "TRACKNUMBER=%tracknr%" -T "GENRE=%genre%" -T "PERFORMER=%albuminterpret%" -T "COMPOSER=%composer%" %haslyrics%–tag-from-file=LYRICS="%lyricsfile%"%haslyrics% -T "ALBUMARTIST=%albumartist%" -T "DISCNUMBER=%cdnumber%" -T "TOTALDISCS=%totalcds%" -T "TOTALTRACKS=%numtracks%" -T "COMMENT=%comment%" %source% -o %dest%


TOC of the extracted CD

Track | Start | Length | Start sector | End sector
––––––––––––––––––––––––––––-
1 | 0:00.00 | 3:40.42 | 0 | 16541
2 | 3:40.42 | 3:43.68 | 16542 | 33334
3 | 7:24.35 | 4:08.54 | 33335 | 51988
4 | 11:33.14 | 3:15.42 | 51989 | 66655
5 | 14:48.56 | 4:19.55 | 66656 | 86135
6 | 19:08.36 | 4:05.26 | 86136 | 104536
7 | 23:13.62 | 7:13.02 | 104537 | 137013
8 | 30:26.64 | 3:09.34 | 137014 | 151222
9 | 33:36.23 | 4:24.40 | 151223 | 171062
10 | 38:00.63 | 2:27.18 | 171063 | 182105
11 | 40:28.06 | 4:17.49 | 182106 | 201429
12 | 44:45.55 | 4:10.34 | 201430 | 220213
13 | 48:56.14 | 8:11.50 | 220214 | 257088
14 | 57:07.64 | 6:06.46 | 257089 | 284584
15 | 63:14.35 | 12:25.39 | 284585 | 340498


Track 1

Filename J:\Jake Shimabukuro - The Greatest Day\01. Time of the Season.wav

Pre-gap length 0:00:02.00

Peak level 94.4 %
Extraction speed 1.1 X
Track quality 100.0 %
Test CRC CF4031F2
Copy CRC CF4031F2
Track not present in AccurateRip database
Copy OK

Track 2

Filename J:\Jake Shimabukuro - The Greatest Day\02. The Greatest Day.wav

Peak level 94.4 %
Extraction speed 1.2 X
Track quality 100.0 %
Test CRC D1FD5276
Copy CRC D1FD5276
Track not present in AccurateRip database
Copy OK

Track 3

Filename J:\Jake Shimabukuro - The Greatest Day\03. Eleanor Rigby.wav

Peak level 94.4 %
Extraction speed 1.3 X
Track quality 100.0 %
Test CRC 6A48C596
Copy CRC 6A48C596
Track not present in AccurateRip database
Copy OK

Track 4

Filename J:\Jake Shimabukuro - The Greatest Day\04. Pangram.wav

Peak level 94.4 %
Extraction speed 1.2 X
Track quality 99.9 %
Test CRC 23B0445F
Copy CRC 23B0445F
Track not present in AccurateRip database
Copy OK

Track 5

Filename J:\Jake Shimabukuro - The Greatest Day\05. Bizarre Love Triangle.wav

Peak level 94.4 %
Extraction speed 1.5 X
Track quality 100.0 %
Test CRC 4980ADE1
Copy CRC 4980ADE1
Track not present in AccurateRip database
Copy OK

Track 6

Filename J:\Jake Shimabukuro - The Greatest Day\06. Straight A's.wav

Peak level 94.4 %
Extraction speed 1.4 X
Track quality 99.9 %
Test CRC D3DDE35F
Copy CRC D3DDE35F
Track not present in AccurateRip database
Copy OK

Track 7

Filename J:\Jake Shimabukuro - The Greatest Day\07. If 6 was 9.wav

Peak level 94.4 %
Extraction speed 1.8 X
Track quality 100.0 %
Test CRC BDB12F9A
Copy CRC BDB12F9A
Track not present in AccurateRip database
Copy OK

Track 8

Filename J:\Jake Shimabukuro - The Greatest Day\08. Shape of You.wav

Peak level 94.4 %
Extraction speed 1.7 X
Track quality 100.0 %
Test CRC 1B8E9769
Copy CRC 1B8E9769
Track not present in AccurateRip database
Copy OK

Track 9

Filename J:\Jake Shimabukuro - The Greatest Day\09. Go For Broke.wav

Peak level 94.4 %
Extraction speed 1.9 X
Track quality 100.0 %
Test CRC F58D8913
Copy CRC F58D8913
Track not present in AccurateRip database
Copy OK

Track 10

Filename J:\Jake Shimabukuro - The Greatest Day\10. Little Echoes.wav

Peak level 94.4 %
Extraction speed 1.7 X
Track quality 100.0 %
Test CRC 02422BC2
Copy CRC 02422BC2
Track not present in AccurateRip database
Copy OK

Track 11

Filename J:\Jake Shimabukuro - The Greatest Day\11. Mahalo John Wayne.wav

Peak level 94.4 %
Extraction speed 1.8 X
Track quality 99.9 %
Test CRC 2CD2FDBD
Copy CRC 2CD2FDBD
Track not present in AccurateRip database
Copy OK

Track 12

Filename J:\Jake Shimabukuro - The Greatest Day\12. Hallelujah.wav

Peak level 94.4 %
Extraction speed 2.1 X
Track quality 100.0 %
Test CRC B1833698
Copy CRC B1833698
Track not present in AccurateRip database
Copy OK

Track 13

Filename J:\Jake Shimabukuro - The Greatest Day\13. Use Me (feat. Dave Preston) (’18 Live).wav

Peak level 94.4 %
Extraction speed 2.2 X
Track quality 99.9 %
Test CRC 0FBD209D
Copy CRC 0FBD209D
Track not present in AccurateRip database
Copy OK

Track 14

Filename J:\Jake Shimabukuro - The Greatest Day\14. Dragon (‘18 Live).wav

Peak level 94.4 %
Extraction speed 2.4 X
Track quality 100.0 %
Test CRC C5A8AC6C
Copy CRC C5A8AC6C
Track not present in AccurateRip database
Copy OK

Track 15

Filename J:\Jake Shimabukuro - The Greatest Day\15. While My Guitar Gently Weeps (’18 Live).wav

Peak level 94.4 %
Extraction speed 2.7 X
Track quality 100.0 %
Test CRC 82961B2E
Copy CRC 82961B2E
Track not present in AccurateRip database
Copy OK


None of the tracks are present in the AccurateRip database

No errors occurred

End of status report

==== Log checksum 821EF9CB4F1DDEB359A660CECE1E54E4EA01B52FD3ACE25424A4F25103C5EFAB ====