Tags
Language
Tags

James Carr - The Best of James Carr (2017)

Posted By: delpotro
James Carr - The Best of James Carr (2017)

James Carr - The Best of James Carr (2017)
XLD Rip | FLAC (tracks+log+.cue) - 178 Mb | MP3 CBR 320 kbps - 114 Mb | 00:49:39
R'n'B, Southern Soul | Label: Kent Records

2017 marks the 50th anniversary of the release on Goldwax of James Carr’s recording of ‘The Dark End Of The Street’, a record rightly hailed as a benchmark in soul, and in southern soul in particular. James’ recording of Dan Penn and Chips Moman’s genre-defining song is one of dozens but it was the first and is by unanimous consensus the best.

Here at Ace we wanted to do something to commemorate the anniversary. The first and most logical thought was to put out commemorative reissue of the single but we also wanted to do something for album and CD fans. Although we have extensively anthologised James’ catalogue in the past, we’ve never released a “Best Of” CD before. This mid-priced set is aimed primarily at those who know a few of James’ tracks and would like to get to know his discography better. For long-time fans the disc provides an ideal opportunity to get all of James’ Billboard R&B and pop chart hits in one place for the first time. And for fans of a more traditional medium of listening we also present a vinyl configuration with fewer tracks but still featuring all the hits and more.
Tracklist:
1. The Dark End Of The Street
2. These Arms Of Mine
3. Love Attack
4. Life Turned Her That Way
5. Freedom Train
6. A Losing Game
7. Pouring Water On A Drowning Man
8. You've Got My Mind Messed Up
9. You Hurt So Good
10. A Man Needs A Woman
11. Lover's Competition
12. That's What I Want To Know
13. I'm A Fool For You
14. A Lucky Loser
15. Your Love Made A U-Turn
16. To Love Somebody
17. I Don't Want To Be Hurt Anymore
18. Let It Happen
19. Forgetting You
20. Let's Face Facts

X Lossless Decoder version 20211018 (154.0)

XLD extraction logfile from 2021-10-23 14:26:10 -0700

James Carr / The Best of James Carr

Used drive : HL-DT-ST DVDRAM GP65NB60 (revision PF00)
Media type : Pressed CD

Ripper mode : XLD Secure Ripper
Disable audio cache : OK for the drive with a cache less than 1375KiB
Make use of C2 pointers : NO
Read offset correction : 6
Max retry count : 20
Gap status : Analyzed, Appended (except HTOA)

TOC of the extracted CD
Track | Start | Length | Start sector | End sector
––––––––––––––––––––––––––––-
1 | 00:00:00 | 02:32:15 | 0 | 11414
2 | 02:32:15 | 02:40:50 | 11415 | 23464
3 | 05:12:65 | 02:56:35 | 23465 | 36699
4 | 08:09:25 | 02:33:18 | 36700 | 48192
5 | 10:42:43 | 02:20:09 | 48193 | 58701
6 | 13:02:52 | 02:04:70 | 58702 | 68071
7 | 15:07:47 | 02:42:64 | 68072 | 80285
8 | 17:50:36 | 02:24:06 | 80286 | 91091
9 | 20:14:42 | 02:00:67 | 91092 | 100158
10 | 22:15:34 | 02:50:14 | 100159 | 112922
11 | 25:05:48 | 02:16:56 | 112923 | 123178
12 | 27:22:29 | 01:59:13 | 123179 | 132116
13 | 29:21:42 | 02:01:54 | 132117 | 141245
14 | 31:23:21 | 02:07:29 | 141246 | 150799
15 | 33:30:50 | 02:16:09 | 150800 | 161008
16 | 35:46:59 | 03:20:46 | 161009 | 176054
17 | 39:07:30 | 02:27:73 | 176055 | 187152
18 | 41:35:28 | 02:39:63 | 187153 | 199140
19 | 44:15:16 | 02:58:28 | 199141 | 212518
20 | 47:13:44 | 02:25:43 | 212519 | 223436

AccurateRip Summary (DiscID: 0023ab7f-02088cbc-1d0ba314)
Track 01 : OK (v2, confidence 4/4)
Track 02 : OK (v2, confidence 4/4)
Track 03 : OK (v2, confidence 4/4)
Track 04 : OK (v2, confidence 4/4)
Track 05 : OK (v2, confidence 4/4)
Track 06 : OK (v2, confidence 4/4)
Track 07 : OK (v2, confidence 4/4)
Track 08 : OK (v2, confidence 4/4)
Track 09 : OK (v2, confidence 4/4)
Track 10 : OK (v2, confidence 4/4)
Track 11 : OK (v2, confidence 4/4)
Track 12 : OK (v2, confidence 4/4)
Track 13 : OK (v2, confidence 4/4)
Track 14 : OK (v2, confidence 4/4)
Track 15 : OK (v2, confidence 4/4)
Track 16 : OK (v2, confidence 4/4)
Track 17 : OK (v2, confidence 4/4)
Track 18 : OK (v2, confidence 4/4)
Track 19 : OK (v2, confidence 4/4)
Track 20 : OK (v2, confidence 4/4)
->All tracks accurately ripped.

All Tracks
Album gain : -5.82 dB
Peak : 0.966064
Statistics
Read error : 0
Jitter error (maybe fixed) : 0
Retry sector count : 0
Damaged sector count : 0

Track 01
Filename : /Volumes/El Segundo/Rips/James Carr - The Best of James Carr (2017) [FLAC]/01 The Dark End of the Street.flac
Pre-gap length : 00:02:00

Track gain : -6.13 dB
Peak : 0.893799
CRC32 hash (test run) : 89AE03C1
CRC32 hash : 89AE03C1
CRC32 hash (skip zero) : 4EFF712B
AccurateRip v1 signature : 94BD403B
AccurateRip v2 signature : 3FC74B76
->Accurately ripped (v2, confidence 4/4)
Statistics
Read error : 0
Jitter error (maybe fixed) : 0
Retry sector count : 0
Damaged sector count : 0

Track 02
Filename : /Volumes/El Segundo/Rips/James Carr - The Best of James Carr (2017) [FLAC]/02 These Arms of Mine.flac
Pre-gap length : 00:01:06

Track gain : -3.07 dB
Peak : 0.811829
CRC32 hash (test run) : C19E5178
CRC32 hash : C19E5178
CRC32 hash (skip zero) : 33F7D388
AccurateRip v1 signature : CFF7EC08
AccurateRip v2 signature : A7731EE9
->Accurately ripped (v2, confidence 4/4)
Statistics
Read error : 0
Jitter error (maybe fixed) : 0
Retry sector count : 0
Damaged sector count : 0

Track 03
Filename : /Volumes/El Segundo/Rips/James Carr - The Best of James Carr (2017) [FLAC]/03 Love Attack.flac
Pre-gap length : 00:06:04

Track gain : -5.29 dB
Peak : 0.822174
CRC32 hash (test run) : D30353EB
CRC32 hash : D30353EB
CRC32 hash (skip zero) : B3E7D6F8
AccurateRip v1 signature : 67335805
AccurateRip v2 signature : 96044DFC
->Accurately ripped (v2, confidence 4/4)
Statistics
Read error : 0
Jitter error (maybe fixed) : 0
Retry sector count : 0
Damaged sector count : 0

Track 04
Filename : /Volumes/El Segundo/Rips/James Carr - The Best of James Carr (2017) [FLAC]/04 Life Turned Her That Way.flac
Pre-gap length : 00:02:16

Track gain : -5.54 dB
Peak : 0.932098
CRC32 hash (test run) : 46E9C910
CRC32 hash : 46E9C910
CRC32 hash (skip zero) : AF6243F7
AccurateRip v1 signature : 9EC298C0
AccurateRip v2 signature : 4ADDC3B2
->Accurately ripped (v2, confidence 4/4)
Statistics
Read error : 0
Jitter error (maybe fixed) : 0
Retry sector count : 0
Damaged sector count : 0

Track 05
Filename : /Volumes/El Segundo/Rips/James Carr - The Best of James Carr (2017) [FLAC]/05 Freedom Train.flac
Pre-gap length : 00:03:18

Track gain : -6.17 dB
Peak : 0.933258
CRC32 hash (test run) : D311163F
CRC32 hash : D311163F
CRC32 hash (skip zero) : AF59F170
AccurateRip v1 signature : 4222EC66
AccurateRip v2 signature : 18A2C278
->Accurately ripped (v2, confidence 4/4)
Statistics
Read error : 0
Jitter error (maybe fixed) : 0
Retry sector count : 0
Damaged sector count : 0

Track 06
Filename : /Volumes/El Segundo/Rips/James Carr - The Best of James Carr (2017) [FLAC]/06 A Losing Game.flac
Pre-gap length : 00:02:64

Track gain : -6.87 dB
Peak : 0.922638
CRC32 hash (test run) : B048708B
CRC32 hash : B048708B
CRC32 hash (skip zero) : 573415CD
AccurateRip v1 signature : 9EB374E5
AccurateRip v2 signature : 0FDED9CA
->Accurately ripped (v2, confidence 4/4)
Statistics
Read error : 0
Jitter error (maybe fixed) : 0
Retry sector count : 0
Damaged sector count : 0

Track 07
Filename : /Volumes/El Segundo/Rips/James Carr - The Best of James Carr (2017) [FLAC]/07 Pouring Water on a Drowning Man.flac
Pre-gap length : 00:03:47

Track gain : -6.30 dB
Peak : 0.931427
CRC32 hash (test run) : CB0E4DA1
CRC32 hash : CB0E4DA1
CRC32 hash (skip zero) : A37BBFED
AccurateRip v1 signature : FA196822
AccurateRip v2 signature : 03C189EC
->Accurately ripped (v2, confidence 4/4)
Statistics
Read error : 0
Jitter error (maybe fixed) : 0
Retry sector count : 0
Damaged sector count : 0

Track 08
Filename : /Volumes/El Segundo/Rips/James Carr - The Best of James Carr (2017) [FLAC]/08 You've Got My Mind Messed Up.flac
Pre-gap length : 00:03:18

Track gain : -6.21 dB
Peak : 0.913727
CRC32 hash (test run) : 96B506FA
CRC32 hash : 96B506FA
CRC32 hash (skip zero) : F4EF2C8F
AccurateRip v1 signature : C26E8116
AccurateRip v2 signature : 796324E6
->Accurately ripped (v2, confidence 4/4)
Statistics
Read error : 0
Jitter error (maybe fixed) : 0
Retry sector count : 0
Damaged sector count : 0

Track 09
Filename : /Volumes/El Segundo/Rips/James Carr - The Best of James Carr (2017) [FLAC]/09 You Hurt So Good.flac
Pre-gap length : 00:02:69

Track gain : -5.73 dB
Peak : 0.966064
CRC32 hash (test run) : 01702818
CRC32 hash : 01702818
CRC32 hash (skip zero) : 595B667C
AccurateRip v1 signature : E22DA071
AccurateRip v2 signature : E05E560F
->Accurately ripped (v2, confidence 4/4)
Statistics
Read error : 0
Jitter error (maybe fixed) : 0
Retry sector count : 0
Damaged sector count : 0

Track 10
Filename : /Volumes/El Segundo/Rips/James Carr - The Best of James Carr (2017) [FLAC]/10 A Man Needs a Woman.flac
Pre-gap length : 00:04:32

Track gain : -5.96 dB
Peak : 0.854492
CRC32 hash (test run) : E1A20820
CRC32 hash : E1A20820
CRC32 hash (skip zero) : 0484261E
AccurateRip v1 signature : 2CDFE284
AccurateRip v2 signature : 569B2126
->Accurately ripped (v2, confidence 4/4)
Statistics
Read error : 0
Jitter error (maybe fixed) : 0
Retry sector count : 0
Damaged sector count : 0

Track 11
Filename : /Volumes/El Segundo/Rips/James Carr - The Best of James Carr (2017) [FLAC]/11 Lover's Competition.flac
Pre-gap length : 00:03:69

Track gain : -7.10 dB
Peak : 0.871338
CRC32 hash (test run) : 83C4C992
CRC32 hash : 83C4C992
CRC32 hash (skip zero) : 1E50637D
AccurateRip v1 signature : F5DFCAD5
AccurateRip v2 signature : B77026D0
->Accurately ripped (v2, confidence 4/4)
Statistics
Read error : 0
Jitter error (maybe fixed) : 0
Retry sector count : 0
Damaged sector count : 0

Track 12
Filename : /Volumes/El Segundo/Rips/James Carr - The Best of James Carr (2017) [FLAC]/12 That's What I Want to Know.flac
Pre-gap length : 00:03:27

Track gain : -7.23 dB
Peak : 0.922699
CRC32 hash (test run) : 8BD764F2
CRC32 hash : 8BD764F2
CRC32 hash (skip zero) : 9B1F54E3
AccurateRip v1 signature : F2088D44
AccurateRip v2 signature : 659A933F
->Accurately ripped (v2, confidence 4/4)
Statistics
Read error : 0
Jitter error (maybe fixed) : 0
Retry sector count : 0
Damaged sector count : 0

Track 13
Filename : /Volumes/El Segundo/Rips/James Carr - The Best of James Carr (2017) [FLAC]/13 I'm a Fool for You.flac
Pre-gap length : 00:03:59

Track gain : -6.07 dB
Peak : 0.883575
CRC32 hash (test run) : 5C2F23E0
CRC32 hash : 5C2F23E0
CRC32 hash (skip zero) : 55EA2EBB
AccurateRip v1 signature : 2551F5BE
AccurateRip v2 signature : B161F96E
->Accurately ripped (v2, confidence 4/4)
Statistics
Read error : 0
Jitter error (maybe fixed) : 0
Retry sector count : 0
Damaged sector count : 0

Track 14
Filename : /Volumes/El Segundo/Rips/James Carr - The Best of James Carr (2017) [FLAC]/14 A Lucky Loser.flac
Pre-gap length : 00:03:68

Track gain : -6.38 dB
Peak : 0.901611
CRC32 hash (test run) : 10764394
CRC32 hash : 10764394
CRC32 hash (skip zero) : E954DF4A
AccurateRip v1 signature : 08BF91BB
AccurateRip v2 signature : 1992FC42
->Accurately ripped (v2, confidence 4/4)
Statistics
Read error : 0
Jitter error (maybe fixed) : 0
Retry sector count : 0
Damaged sector count : 0

Track 15
Filename : /Volumes/El Segundo/Rips/James Carr - The Best of James Carr (2017) [FLAC]/15 Your Love Made a U-Turn.flac
Pre-gap length : 00:03:44

Track gain : -5.44 dB
Peak : 0.935944
CRC32 hash (test run) : 584EE76C
CRC32 hash : 584EE76C
CRC32 hash (skip zero) : C84719F9
AccurateRip v1 signature : 2FC58BB5
AccurateRip v2 signature : 141EBDEC
->Accurately ripped (v2, confidence 4/4)
Statistics
Read error : 0
Jitter error (maybe fixed) : 0
Retry sector count : 0
Damaged sector count : 0

Track 16
Filename : /Volumes/El Segundo/Rips/James Carr - The Best of James Carr (2017) [FLAC]/16 To Love Somebody.flac
Pre-gap length : 00:04:43

Track gain : -4.90 dB
Peak : 0.822327
CRC32 hash (test run) : 7A688276
CRC32 hash : 7A688276
CRC32 hash (skip zero) : 7DF5FE3A
AccurateRip v1 signature : B50DC9EA
AccurateRip v2 signature : 238E1818
->Accurately ripped (v2, confidence 4/4)
Statistics
Read error : 0
Jitter error (maybe fixed) : 0
Retry sector count : 0
Damaged sector count : 0

Track 17
Filename : /Volumes/El Segundo/Rips/James Carr - The Best of James Carr (2017) [FLAC]/17 I Don't Want to Be Hurt Anymore.flac
Pre-gap length : 00:04:56

Track gain : -4.27 dB
Peak : 0.929535
CRC32 hash (test run) : 3BD16407
CRC32 hash : 3BD16407
CRC32 hash (skip zero) : 3AE0F3F1
AccurateRip v1 signature : 15C3040C
AccurateRip v2 signature : 5CFFF554
->Accurately ripped (v2, confidence 4/4)
Statistics
Read error : 0
Jitter error (maybe fixed) : 0
Retry sector count : 0
Damaged sector count : 0

Track 18
Filename : /Volumes/El Segundo/Rips/James Carr - The Best of James Carr (2017) [FLAC]/18 Let It Happen.flac
Pre-gap length : 00:05:61

Track gain : -6.45 dB
Peak : 0.852905
CRC32 hash (test run) : 3A13CC73
CRC32 hash : 3A13CC73
CRC32 hash (skip zero) : C116724A
AccurateRip v1 signature : 5B7C1E30
AccurateRip v2 signature : B16212A7
->Accurately ripped (v2, confidence 4/4)
Statistics
Read error : 0
Jitter error (maybe fixed) : 0
Retry sector count : 0
Damaged sector count : 0

Track 19
Filename : /Volumes/El Segundo/Rips/James Carr - The Best of James Carr (2017) [FLAC]/19 Forgetting You.flac
Pre-gap length : 00:03:69

Track gain : -5.21 dB
Peak : 0.786804
CRC32 hash (test run) : 517D8BC2
CRC32 hash : 517D8BC2
CRC32 hash (skip zero) : 3592C411
AccurateRip v1 signature : 45B6AAC5
AccurateRip v2 signature : BA4FA716
->Accurately ripped (v2, confidence 4/4)
Statistics
Read error : 0
Jitter error (maybe fixed) : 0
Retry sector count : 0
Damaged sector count : 0

Track 20
Filename : /Volumes/El Segundo/Rips/James Carr - The Best of James Carr (2017) [FLAC]/20 Lets Face Facts.flac
Pre-gap length : 00:04:49

Track gain : -4.40 dB
Peak : 0.947052
CRC32 hash (test run) : 6F3EA446
CRC32 hash : 6F3EA446
CRC32 hash (skip zero) : 535EC2AB
AccurateRip v1 signature : 82BA95BA
AccurateRip v2 signature : D5E5B135
->Accurately ripped (v2, confidence 4/4)
Statistics
Read error : 0
Jitter error (maybe fixed) : 0
Retry sector count : 0
Damaged sector count : 0

No errors occurred

End of status report

––-BEGIN XLD SIGNATURE––-
dWwRyO.ka2rlbEUtV5IBLq1Djh2XRXeY_kSUwarDxWvdm2sHQ.vqODc6Te_4g0PLyaOuDZCtVSI1wXeVQ0sz4hydn2McMClkMnufrFu
––-END XLD SIGNATURE––-

Thanks to the Original ripper !