Subcategories

Jazz at Lincoln Center Orchestra - The Abyssinian Mass (2CD) (2016)

Posted By: Domestos
Jazz at Lincoln Center Orchestra - The Abyssinian Mass (2CD) (2016)

Jazz at Lincoln Center Orchestra & Wynton Marsalis - The Abyssinian Mass (2CD) (2016)
EAC Rip | FLAC (tracks+.cue, log) ~ 381.19 Mb + 306.09 Mb | 02:03:26 | Scans included
Gospel, Modern Big Band | Label: Blue Engine Records - BE0005

In 2008, nine-time GRAMMY Award winner Wynton Marsalis was commissioned to write a piece commemorating the 200th anniversary of Harlem’s Abyssinian Baptist Church. The result was a sacred celebration: a sweeping composition for a big band and 70-piece gospel choir. In 2013, award-winning recording artist Damien Sneed and his choir, Chorale Le Chateau, joined the Jazz at Lincoln Center Orchestra with Wynton Marsalis on a 16-city, 19-show tour across the American south and into deep dialogue with the black tradition. Now, The Abyssinian Mass—Marsalis’s first original recorded composition in six years—documents this piece’s immense power to make audiences clap their hands and sing along to its joyous spirituality, its profound swing, and its bluesy swagger.

This landmark double album also includes a new essay from renowned public intellectual Leon Wieseltier and a bonus DVD documentary that features performances, interviews, and insights into the process behind The Abyssinian Mass. The album’s exploration of the African American experience places it in the tradition of Marsalis's Pulitzer Prize-winning composition and record Blood on the Fields. As The Abyssinian Mass reminds us, "In this great land of ours, everyone has a place." No matter your faith or background, The Abyssinian Mass is a sprawling, soulful triumph and a swinging affirmation of just how good being human can feel.



CD1 {01:07:21}
01. Devotional (8:34)
02. Call to Worship (5:11)
03. The Lord's Prayer (4:13)
04. Processional: "We Are on Our Way" (7:25)
05. Invocation and Chant (6:29)
06. Responsive Reading, Matthew 5:3-12 The Beatitudes (7:57)
07. Gloria Patri (5:05)
08. Prayer: "Pastoral Prayer" (13:05)
09. Choral Response: "Through Him I've Come to See" (2:21)
10. Anthem: "Glory to God in the Highest" (7:01)

CD2 {00:56:05}
01. Scripture: Isaiah 56:7 (2:36)
02. Meditation: "Lord Have Mercy" (4:59)
Sermon: "The Unifying Power of Prayer"
03. Part I: "This House Is God's House" (4:17)
04. Part II: "The Power of Prayer" (4:57)
05. Part III: "Everyone Has a Place" (3:15)
06. Invitation: "Come and Join the Army" (4:33)
07. Offertory: The Father (2:39)
08. Offertory: The Son (3:22)
09. Offertory: (You Gotta Watch) The Holy Ghost (4:45)
10. Doxology (3:21)
11. Recessional: "The Glory Train" (7:34)
12. Benediction (1:27)
13. Amen (8:20)

Sherman Irby - alto saxophone, soprano saxophone, flute, clarinet
Ted Nash - alto saxophone, soprano saxophone, flute, piccolo, clarinet
Victor Goines - tenor saxophone, soprano saxophone, flute, Bb & Eb clarinets, bass clarinet
Walter Blanding - tenor saxophone, soprano saxophone, clarinet
Paul Nedzela - baritone saxophone, clarinet, bass clarinet
Ryan Kisor, Kenny Rampton, Marcus Printup, Wynton Marsalis - trumpets
Vincent Gardner, Chris Crenshaw, Elliot Mason - trombones
Dan Nimmer - piano
Carlos Henriquez - bass
Ali Jackson - drums
Damien Sneed - conductor
Chorale Le Chateau

Recorded live at Frederick P. Rose Hall, Lincoln Centre, NY on October 24-26, 2013.

Jazz at Lincoln Center Orchestra - The Abyssinian Mass (2CD) (2016)

Exact Audio Copy V1.3 from 2. September 2016

EAC extraction logfile from 4. March 2017, 15:38

Wynton Marsalis / The Abyssinian Mass (DISC 1)

Used drive : LITE-ON DVDRW SOHW-832S Adapter: 1 ID: 0

Read mode : Secure
Utilize accurate stream : Yes
Defeat audio cache : Yes
Make use of C2 pointers : No

Read offset correction : 12
Overread into Lead-In and Lead-Out : No
Fill up missing offset samples with silence : Yes
Delete leading and trailing silent blocks : No
Null samples used in CRC calculations : Yes
Used interface : Native Win32 interface for Win NT & 2000
Gap handling : Appended to previous track

Used output format : User Defined Encoder
Selected bitrate : 1024 kBit/s
Quality : High
Add ID3 tag : No
Command line compressor : C:\Program Files\Exact Audio Copy\Flac\flac.exe
Additional command line options : -8 -e -p -V -T "ARTIST=%artist%" -T "TITLE=%title%" -T "ALBUM=%albumtitle%" -T "DATE=%year%" -T "TRACKNUMBER=%tracknr%" -T "GENRE=%genre%" -T "PERFORMER=%albuminterpret%" -T "COMPOSER=%composer%" %haslyrics%–tag-from-file=LYRICS="%lyricsfile%"%haslyrics% -T "ALBUMARTIST=%albumartist%" -T "DISCNUMBER=%cdnumber%" -T "TOTALDISCS=%totalcds%" -T "TOTALTRACKS=%numtracks%" -T "COMMENT=%comment%" %source% -o %dest%


TOC of the extracted CD

Track | Start | Length | Start sector | End sector
––––––––––––––––––––––––––––-
1 | 0:00.00 | 8:33.70 | 0 | 38544
2 | 8:33.70 | 5:10.44 | 38545 | 61838
3 | 13:44.39 | 4:12.46 | 61839 | 80784
4 | 17:57.10 | 7:24.67 | 80785 | 114151
5 | 25:22.02 | 6:29.01 | 114152 | 143327
6 | 31:51.03 | 7:57.32 | 143328 | 179134
7 | 39:48.35 | 5:05.08 | 179135 | 202017
8 | 44:53.43 | 13:04.59 | 202018 | 260876
9 | 57:58.27 | 2:20.45 | 260877 | 271421
10 | 60:18.72 | 7:01.05 | 271422 | 303001


Track 1

Filename R:\Wynton Marsalis - The Abyssinian Mass (2016) {857509005025} [FLAC]\DISC 1\01 - Devotional.wav

Pre-gap length 0:00:02.00

Peak level 96.3 %
Extraction speed 4.1 X
Track quality 99.9 %
Test CRC 6096B5EE
Copy CRC 6096B5EE
Accurately ripped (confidence 3) [B7D6A479] (AR v2)
Copy OK

Track 2

Filename R:\Wynton Marsalis - The Abyssinian Mass (2016) {857509005025} [FLAC]\DISC 1\02 - Call to Worship.wav

Peak level 98.8 %
Extraction speed 4.7 X
Track quality 100.0 %
Test CRC 32DC1776
Copy CRC 32DC1776
Accurately ripped (confidence 3) [F698DAB1] (AR v2)
Copy OK

Track 3

Filename R:\Wynton Marsalis - The Abyssinian Mass (2016) {857509005025} [FLAC]\DISC 1\03 - The Lord's Prayer.wav

Peak level 95.3 %
Extraction speed 5.1 X
Track quality 100.0 %
Test CRC 0FCCB9EE
Copy CRC 0FCCB9EE
Accurately ripped (confidence 3) [F808F64E] (AR v2)
Copy OK

Track 4

Filename R:\Wynton Marsalis - The Abyssinian Mass (2016) {857509005025} [FLAC]\DISC 1\04 - Processional- ''We Are On Our Way''.wav

Peak level 99.8 %
Extraction speed 5.3 X
Track quality 99.9 %
Test CRC 1AF5DF32
Copy CRC 1AF5DF32
Accurately ripped (confidence 3) [1B8929B5] (AR v2)
Copy OK

Track 5

Filename R:\Wynton Marsalis - The Abyssinian Mass (2016) {857509005025} [FLAC]\DISC 1\05 - Invocation and Chant.wav

Peak level 96.0 %
Extraction speed 5.9 X
Track quality 100.0 %
Test CRC 7C291EB7
Copy CRC 7C291EB7
Accurately ripped (confidence 3) [CDCB23D6] (AR v2)
Copy OK

Track 6

Filename R:\Wynton Marsalis - The Abyssinian Mass (2016) {857509005025} [FLAC]\DISC 1\06 - Responsive Reading, Matthew 5-3-12 The Beatitudes.wav

Peak level 97.9 %
Extraction speed 6.0 X
Track quality 99.9 %
Test CRC 8BCF32E1
Copy CRC 8BCF32E1
Accurately ripped (confidence 3) [14BFBD97] (AR v2)
Copy OK

Track 7

Filename R:\Wynton Marsalis - The Abyssinian Mass (2016) {857509005025} [FLAC]\DISC 1\07 - Gloria Patri.wav

Peak level 96.6 %
Extraction speed 6.1 X
Track quality 99.9 %
Test CRC 9940A2E0
Copy CRC 9940A2E0
Accurately ripped (confidence 3) [7DFF18F5] (AR v2)
Copy OK

Track 8

Filename R:\Wynton Marsalis - The Abyssinian Mass (2016) {857509005025} [FLAC]\DISC 1\08 - Prayer- ''Pastoral Prayer''.wav

Peak level 97.3 %
Extraction speed 7.1 X
Track quality 100.0 %
Test CRC 76400E48
Copy CRC 76400E48
Accurately ripped (confidence 3) [E2244C25] (AR v2)
Copy OK

Track 9

Filename R:\Wynton Marsalis - The Abyssinian Mass (2016) {857509005025} [FLAC]\DISC 1\09 - Choral Response- ''Through Him I've Come to See''.wav

Peak level 95.2 %
Extraction speed 6.8 X
Track quality 100.0 %
Test CRC 27C235D4
Copy CRC 27C235D4
Accurately ripped (confidence 3) [7F0AC098] (AR v2)
Copy OK

Track 10

Filename R:\Wynton Marsalis - The Abyssinian Mass (2016) {857509005025} [FLAC]\DISC 1\10 - Anthem- ''Glory to God in the Highest''.wav

Peak level 96.8 %
Extraction speed 6.4 X
Track quality 100.0 %
Test CRC 7E371BCB
Copy CRC 7E371BCB
Accurately ripped (confidence 3) [59E3A236] (AR v2)
Copy OK


All tracks accurately ripped

No errors occurred

End of status report

==== Log checksum 06AED2914B1B9B311F41E9BA61D78BEDD81BD6F416C3008CD41AD94D0D319D7F ====

Exact Audio Copy V1.3 from 2. September 2016

EAC extraction logfile from 4. March 2017, 16:16

Wynton Marsalis / The Abyssinian Mass (DISC 2)

Used drive : LITE-ON DVDRW SOHW-832S Adapter: 1 ID: 0

Read mode : Secure
Utilize accurate stream : Yes
Defeat audio cache : Yes
Make use of C2 pointers : No

Read offset correction : 12
Overread into Lead-In and Lead-Out : No
Fill up missing offset samples with silence : Yes
Delete leading and trailing silent blocks : No
Null samples used in CRC calculations : Yes
Used interface : Native Win32 interface for Win NT & 2000
Gap handling : Appended to previous track

Used output format : User Defined Encoder
Selected bitrate : 1024 kBit/s
Quality : High
Add ID3 tag : No
Command line compressor : C:\Program Files\Exact Audio Copy\Flac\flac.exe
Additional command line options : -8 -e -p -V -T "ARTIST=%artist%" -T "TITLE=%title%" -T "ALBUM=%albumtitle%" -T "DATE=%year%" -T "TRACKNUMBER=%tracknr%" -T "GENRE=%genre%" -T "PERFORMER=%albuminterpret%" -T "COMPOSER=%composer%" %haslyrics%–tag-from-file=LYRICS="%lyricsfile%"%haslyrics% -T "ALBUMARTIST=%albumartist%" -T "DISCNUMBER=%cdnumber%" -T "TOTALDISCS=%totalcds%" -T "TOTALTRACKS=%numtracks%" -T "COMMENT=%comment%" %source% -o %dest%


TOC of the extracted CD

Track | Start | Length | Start sector | End sector
––––––––––––––––––––––––––––-
1 | 0:00.00 | 2:36.09 | 0 | 11708
2 | 2:36.09 | 4:58.40 | 11709 | 34098
3 | 7:34.49 | 4:16.68 | 34099 | 53366
4 | 11:51.42 | 4:56.54 | 53367 | 75620
5 | 16:48.21 | 3:15.22 | 75621 | 90267
6 | 20:03.43 | 4:33.23 | 90268 | 110765
7 | 24:36.66 | 2:38.53 | 110766 | 122668
8 | 27:15.44 | 3:21.43 | 122669 | 137786
9 | 30:37.12 | 4:44.62 | 137787 | 159148
10 | 35:21.74 | 3:20.73 | 159149 | 174221
11 | 38:42.72 | 7:33.64 | 174222 | 208260
12 | 46:16.61 | 1:26.49 | 208261 | 214759
13 | 47:43.35 | 8:19.70 | 214760 | 252254


Track 1

Filename R:\Wynton Marsalis - The Abyssinian Mass (2016) {857509005025} [FLAC]\DISC 2\01 - Scripture- Isaiah 56-7.wav

Pre-gap length 0:00:02.00

Peak level 96.0 %
Extraction speed 3.6 X
Track quality 100.0 %
Test CRC 36207390
Copy CRC 36207390
Accurately ripped (confidence 4) [44492E57] (AR v2)
Copy OK

Track 2

Filename R:\Wynton Marsalis - The Abyssinian Mass (2016) {857509005025} [FLAC]\DISC 2\02 - Meditation- ''Lord Have Mercy''.wav

Peak level 90.2 %
Extraction speed 4.1 X
Track quality 100.0 %
Test CRC 359268DB
Copy CRC 359268DB
Accurately ripped (confidence 4) [CAD5CBE5] (AR v2)
Copy OK

Track 3

Filename R:\Wynton Marsalis - The Abyssinian Mass (2016) {857509005025} [FLAC]\DISC 2\03 - Sermon- ''The Unifying Power of Prayer'' - Part I- ''This House is God's House''.wav

Peak level 96.9 %
Extraction speed 4.4 X
Track quality 100.0 %
Test CRC E8003696
Copy CRC E8003696
Accurately ripped (confidence 4) [26301607] (AR v2)
Copy OK

Track 4

Filename R:\Wynton Marsalis - The Abyssinian Mass (2016) {857509005025} [FLAC]\DISC 2\04 - Sermon- ''The Unifying Power of Prayer'' - Part II- ''The Power of Prayer''.wav

Peak level 95.1 %
Extraction speed 4.8 X
Track quality 100.0 %
Test CRC 8ADC55F9
Copy CRC 8ADC55F9
Accurately ripped (confidence 4) [D59E6AD3] (AR v2)
Copy OK

Track 5

Filename R:\Wynton Marsalis - The Abyssinian Mass (2016) {857509005025} [FLAC]\DISC 2\05 - Sermon- ''The Unifying Power of Prayer'' - Part III- ''Everyone Has a Place''.wav

Peak level 97.9 %
Extraction speed 5.0 X
Track quality 100.0 %
Test CRC 8C30628F
Copy CRC 8C30628F
Accurately ripped (confidence 4) [1736C7B9] (AR v2)
Copy OK

Track 6

Filename R:\Wynton Marsalis - The Abyssinian Mass (2016) {857509005025} [FLAC]\DISC 2\06 - Invitation- ''Come and Join the Army''.wav

Peak level 91.0 %
Extraction speed 5.3 X
Track quality 100.0 %
Test CRC 63E133C7
Copy CRC 63E133C7
Accurately ripped (confidence 4) [C7366C08] (AR v2)
Copy OK

Track 7

Filename R:\Wynton Marsalis - The Abyssinian Mass (2016) {857509005025} [FLAC]\DISC 2\07 - Offertory- The Father.wav

Peak level 89.6 %
Extraction speed 4.8 X
Track quality 99.9 %
Test CRC E05085B1
Copy CRC E05085B1
Accurately ripped (confidence 4) [1EEA485B] (AR v2)
Copy OK

Track 8

Filename R:\Wynton Marsalis - The Abyssinian Mass (2016) {857509005025} [FLAC]\DISC 2\08 - Offertory- The Son.wav

Peak level 92.4 %
Extraction speed 5.6 X
Track quality 100.0 %
Test CRC BAB773F1
Copy CRC BAB773F1
Accurately ripped (confidence 4) [79ACBE4F] (AR v2)
Copy OK

Track 9

Filename R:\Wynton Marsalis - The Abyssinian Mass (2016) {857509005025} [FLAC]\DISC 2\09 - Offertory- (You Gotta Watch) The Holy Ghost.wav

Peak level 91.4 %
Extraction speed 5.3 X
Track quality 99.9 %
Test CRC 235A2D40
Copy CRC 235A2D40
Accurately ripped (confidence 4) [AE0F1C16] (AR v2)
Copy OK

Track 10

Filename R:\Wynton Marsalis - The Abyssinian Mass (2016) {857509005025} [FLAC]\DISC 2\10 - Doxology.wav

Peak level 90.3 %
Extraction speed 6.0 X
Track quality 100.0 %
Test CRC F9B12407
Copy CRC F9B12407
Accurately ripped (confidence 4) [BCA6A769] (AR v2)
Copy OK

Track 11

Filename R:\Wynton Marsalis - The Abyssinian Mass (2016) {857509005025} [FLAC]\DISC 2\11 - Recessional- ''The Glory Train''.wav

Peak level 91.2 %
Extraction speed 6.2 X
Track quality 99.9 %
Test CRC DD7F6A68
Copy CRC DD7F6A68
Accurately ripped (confidence 4) [5983CD4B] (AR v2)
Copy OK

Track 12

Filename R:\Wynton Marsalis - The Abyssinian Mass (2016) {857509005025} [FLAC]\DISC 2\12 - Benediction.wav

Peak level 90.1 %
Extraction speed 4.7 X
Track quality 99.8 %
Test CRC B4D28E49
Copy CRC B4D28E49
Accurately ripped (confidence 4) [22834683] (AR v2)
Copy OK

Track 13

Filename R:\Wynton Marsalis - The Abyssinian Mass (2016) {857509005025} [FLAC]\DISC 2\13 - Amen.wav

Peak level 91.7 %
Extraction speed 6.0 X
Track quality 100.0 %
Test CRC A0B89E6B
Copy CRC A0B89E6B
Accurately ripped (confidence 4) [CC04EF6F] (AR v2)
Copy OK


All tracks accurately ripped

No errors occurred

End of status report

==== Log checksum 118DFB036935EE085ABD028F4C69D5304A3D4B0E06C44AA5420D4FB4672D1310 ====

All thanks go to the SoittakaaParanoid

More Music in My Blog
Follow My RSS Channel