Subcategories

Jazzanova - The Pool (2018)

Posted By: delpotro
Jazzanova - The Pool (2018)

Jazzanova - The Pool (2018)
EAC Rip | FLAC (tracks+log+.cue) | 00:51:44 | 338 Mb
Pop, Soul, Nu Jazz, Electronic | Label: Sonar Kollektiv

Jazzanova are proud to announce their next full length, The Pool, is due for release via their own Sonar Kollektiv on June 29th 2018. It is their most mature and musical album yet and welcomes a host of talented collaborators including Jamie Cullum, Ben Westbeech, Pete Josef, Rachel Sermanni, Olivier St Louis, Paul Randolph and many more.

They might not have put out an album in the last decade, but by no means have Jazzanova been out of the picture. Instead members Alex Barck, Claas Brieler, Axel Reinemer, Jürgen von Knoblauch and Stefan Leisering have been focussing on a diverse range of projects, as well as becoming parents. From running their JRS studio to A&Ring a wealth of new talent for their Jazzanova label via for producing others and, of course, continuing to play their unique live shows around the world, they are as immersed in music as ever.

Although none of the band are trained musicians, the new album is their most mature, musical and accomplished yet. It features a wealth of guests who bring their own distinctive flavours, but still retains a real sense of Jazzanova’s own musical identity—something that combines neo-soul, jazz, indie and pop songwriting with their unique knack for sampling and serious skills on everything from synth to piano, vibes to trombone, flugelhorn to guitar. The Pool evolved from various loose jam sessions and playful hours in the studio. It means there is no restrictive overall theme, but the album very much flows from one track to the next, mixing up synthesised sounds, samples and real instrumentation to paint a colourful overall picture that is utterly captivating.

This most sophisticated Jazzanova album starts with the broody moods and jumbled drums of ‘Now (L.O.V.E. and You & I - Part 2)’ feat. Oddisee, before the sombre chords and forlorn vocals of Rachel Sermanni on ‘Rain Makes The River’ carry you away. The heaviness subsides with Pete Josef’s upbeat soulful stylings on ‘Follow Your Feet’ then the sunny hip hop of ‘No 9’ feat. KPTN, who delivers great verses over crisp live drums. ‘Sincere’ feat Noah Slee is a bristling mix of synth textures, bumping beats and swinging percussion and ‘Slow Rise’ then sinks down into insular moods thanks to the pained and intimate vocals of David Lemaitre.

The heavy hearted piano of ‘Let’s Live Well’ is truly tender before Jamie Cullum’s rousing vocals transport you to a more positive place, and ‘Everything I Wanted’ feat Charlotte OC is a dynamic blizzard of drums, trombones and percussion that has crystal clear vocals cutting through it all to bring real emotion. Olivier St Louis delivers gorgeous modern soul on the propulsive ‘Heatwave’ and frequent collaborator Paul Randolph brings vulnerable vocals to the shimmering chord vamps of ‘It’s Beautiful.’ The breezy seaside bliss of ‘I’m Still Here’ feat Edward Vanzet and wonderfully catchy, carefree pop of ‘Summer Keeps On Passing Me By’ feat Ben Westbeech close the album out and complete a beautiful journey that effortless takes you through a range of moods and grooves. Each vibrant track makes a big impact and stays with you long after it’s finished playing.

The Pool is an album that proves Jazzanova are still very much making and breaking their own set of rules, and it marks the start of a major new chapter in their long and storied career.
Tracklist:
1. Now (L.O.V.E. and You & I), Pt. 2 [feat. Oddisee] (02:17)
2. Rain Makes the River (feat. Rachel Sermanni) (04:49)
3. Follow Your Feet (feat. Pete Josef) (03:32)
4. No. 9 (feat. KPTN) (03:11)
5. Sincere (feat. Noah Slee) (03:44)
6. Slow Rise (feat. David Lemaitre) (04:24)
7. Let's Live Well (feat. Jamie Cullum) (04:56)
8. Everything I Wanted (feat. Charlotte OC) (04:55)
9. Heatwave (feat. Olivier St. Louis) (06:26)
10. It's Beautiful (feat. Paul Randolph) (05:23)
11. I'm Still Here (feat. Edward Vanzet) (05:03)
12. Summer Keeps On Passing Me By (feat. Ben Westbeech) (02:59)

Exact Audio Copy V1.3 from 2. September 2016

EAC extraction logfile from 1. July 2018, 10:30

Jazzanova / The Pool

Used drive : HL-DT-STBD-RE GGW-H20L Adapter: 1 ID: 0

Read mode : Secure
Utilize accurate stream : Yes
Defeat audio cache : Yes
Make use of C2 pointers : No

Read offset correction : 667
Overread into Lead-In and Lead-Out : No
Fill up missing offset samples with silence : Yes
Delete leading and trailing silent blocks : No
Null samples used in CRC calculations : Yes
Used interface : Native Win32 interface for Win NT & 2000
Gap handling : Appended to previous track

Used output format : User Defined Encoder
Selected bitrate : 1024 kBit/s
Quality : High
Add ID3 tag : No
Command line compressor : C:\Program Files (x86)\Exact Audio Copy\Flac\flac.exe
Additional command line options : -8 -V -T "ARTIST=%artist%" -T "TITLE=%title%" -T "ALBUM=%albumtitle%" -T "DATE=%year%" -T "TRACKNUMBER=%tracknr%" -T "TOTALTRACKS=%numtracks%" -T "GENRE=%genre%" -T "ALBUMARTIST=%albumartist%" -T "ALBUM ARTIST=%albumartist%" -T "COMMENT=EAC Secure Mode, Test & Copy, AccurateRip, FLAC -8" %source%


TOC of the extracted CD

Track | Start | Length | Start sector | End sector
––––––––––––––––––––––––––––-
1 | 0:00.00 | 2:17.56 | 0 | 10330
2 | 2:17.56 | 4:49.05 | 10331 | 32010
3 | 7:06.61 | 3:32.07 | 32011 | 47917
4 | 10:38.68 | 3:11.11 | 47918 | 62253
5 | 13:50.04 | 3:44.41 | 62254 | 79094
6 | 17:34.45 | 4:24.57 | 79095 | 98951
7 | 21:59.27 | 4:56.69 | 98952 | 121220
8 | 26:56.21 | 4:55.65 | 121221 | 143410
9 | 31:52.11 | 6:26.31 | 143411 | 172391
10 | 38:18.42 | 5:23.01 | 172392 | 196617
11 | 43:41.43 | 5:03.47 | 196618 | 219389
12 | 48:45.15 | 2:59.01 | 219390 | 232815


Track 1

Filename D:\ptp\Jazzanova - The Pool (2018) [FLAC SK350CD]\01 Now (L.O.V.E. and You & I - Part 2) feat. Oddisee.wav

Pre-gap length 0:00:02.00

Peak level 100.0 %
Extraction speed 2.9 X
Track quality 99.9 %
Test CRC 63958394
Copy CRC 63958394
Track not present in AccurateRip database
Copy OK

Track 2

Filename D:\ptp\Jazzanova - The Pool (2018) [FLAC SK350CD]\02 Rain Makes The River feat. Rachel Sermanni.wav

Peak level 100.0 %
Extraction speed 4.8 X
Track quality 100.0 %
Test CRC 019F7EDF
Copy CRC 019F7EDF
Track not present in AccurateRip database
Copy OK

Track 3

Filename D:\ptp\Jazzanova - The Pool (2018) [FLAC SK350CD]\03 Follow Your Feet feat. Pete Josef.wav

Peak level 100.0 %
Extraction speed 5.0 X
Track quality 100.0 %
Test CRC B108348B
Copy CRC B108348B
Track not present in AccurateRip database
Copy OK

Track 4

Filename D:\ptp\Jazzanova - The Pool (2018) [FLAC SK350CD]\04 No. 9 feat. KPTN.wav

Peak level 100.0 %
Extraction speed 5.2 X
Track quality 100.0 %
Test CRC E7824C01
Copy CRC E7824C01
Track not present in AccurateRip database
Copy OK

Track 5

Filename D:\ptp\Jazzanova - The Pool (2018) [FLAC SK350CD]\05 Sincere feat. Noah Slee.wav

Peak level 100.0 %
Extraction speed 5.8 X
Track quality 100.0 %
Test CRC B910C90F
Copy CRC B910C90F
Track not present in AccurateRip database
Copy OK

Track 6

Filename D:\ptp\Jazzanova - The Pool (2018) [FLAC SK350CD]\06 Slow Rise feat. David Lemaitre.wav

Peak level 100.0 %
Extraction speed 6.3 X
Track quality 100.0 %
Test CRC 5A99D368
Copy CRC 5A99D368
Track not present in AccurateRip database
Copy OK

Track 7

Filename D:\ptp\Jazzanova - The Pool (2018) [FLAC SK350CD]\07 Let's Live Well feat. Jamie Cullum.wav

Peak level 100.0 %
Extraction speed 6.8 X
Track quality 100.0 %
Test CRC 405FC83D
Copy CRC 405FC83D
Track not present in AccurateRip database
Copy OK

Track 8

Filename D:\ptp\Jazzanova - The Pool (2018) [FLAC SK350CD]\08 Everything I Wanted feat. Charlotte OC.wav

Peak level 100.0 %
Extraction speed 7.1 X
Track quality 100.0 %
Test CRC C0CDAB1A
Copy CRC C0CDAB1A
Track not present in AccurateRip database
Copy OK

Track 9

Filename D:\ptp\Jazzanova - The Pool (2018) [FLAC SK350CD]\09 Heatwave feat. Olivier St. Louis.wav

Peak level 100.0 %
Extraction speed 6.7 X
Track quality 99.9 %
Test CRC 1139832D
Copy CRC 1139832D
Track not present in AccurateRip database
Copy OK

Track 10

Filename D:\ptp\Jazzanova - The Pool (2018) [FLAC SK350CD]\10 It's Beautiful feat. Paul Randolph.wav

Peak level 100.0 %
Extraction speed 6.8 X
Track quality 99.9 %
Test CRC C7597459
Copy CRC C7597459
Track not present in AccurateRip database
Copy OK

Track 11

Filename D:\ptp\Jazzanova - The Pool (2018) [FLAC SK350CD]\11 I'm Still Here feat. Edward Vanzet.wav

Peak level 100.0 %
Extraction speed 8.1 X
Track quality 100.0 %
Test CRC 6D0D9279
Copy CRC 6D0D9279
Track not present in AccurateRip database
Copy OK

Track 12

Filename D:\ptp\Jazzanova - The Pool (2018) [FLAC SK350CD]\12 Summer Keeps On Passing Me By feat. Ben Westbeech.wav

Peak level 100.0 %
Extraction speed 7.8 X
Track quality 100.0 %
Test CRC 98933E41
Copy CRC 98933E41
Track not present in AccurateRip database
Copy OK


None of the tracks are present in the AccurateRip database

No errors occurred

End of status report

–– CUETools DB Plugin V2.1.6

[CTDB TOCID: wYIAsLZ840o055yjoMbCM3CFtK8-] found
Submit result: wYIAsLZ840o055yjoMbCM3CFtK8- has been confirmed
Track | CTDB Status
1 | (5/5) Accurately ripped
2 | (5/5) Accurately ripped
3 | (5/5) Accurately ripped
4 | (5/5) Accurately ripped
5 | (5/5) Accurately ripped
6 | (5/5) Accurately ripped
7 | (5/5) Accurately ripped
8 | (5/5) Accurately ripped
9 | (5/5) Accurately ripped
10 | (5/5) Accurately ripped
11 | (5/5) Accurately ripped
12 | (5/5) Accurately ripped


==== Log checksum 9CD9A80D51C3CC5DC712C71142636DB94B2C9E51B81136E141FFF047BE3290A4 ====

Thanks to the Original ripper darealdmt !