Subcategories

Jean-Claude Malgoire, La Grande Ecurie & La Chambre du Roy - Handel: Tamerlano (1997) 3CD

Posted By: SuniR
Jean-Claude Malgoire, La Grande Ecurie & La Chambre du Roy - Handel: Tamerlano (1997) 3CD

Jean-Claude Malgoire, La Grande Ecurie & La Chambre du Roy - Handel: Tamerlano (1997) 3CD
EAC | FLAC (log,tracks+cue) -> 841 Mb (5% Rec.)
Mp3 CBR320 Kbps -> 458 Mb (5% Rec.) | Scans included
Classical, Opera | Label: Sony Music Classical, SM3k 37893 | 02:55:43

If you consider investing in the records of this opera (and I think you should), don't read the plot first; it is virtually incomprehensible, a quality not unknown in other heroic operas by Handel. Also, you may well find the First Act a little disappointing as music. But once you've settled down with the English translation of the very long recitatives on your lap, you will find that the story does make some sense after all, especially when the recitatives are sung so dramatically as they are here. Also, Handel himself gets increasingly involved in the characters and increasingly supports the recitatives with dramatic string accompaniments,
until near the end, with Bajazet dying in prison, he achieves a long scena of astonishing power, said to be without parallel in baroque opera. But even earlier I never longed for a recitative to end, and as for the prison scena I longed to hear it again. And did.

The arias, too, improve as Handel gets into his stride and there are some splendid examples in the last act. There are also more ensembles than usual; Act 2 ends with a trio, and there are no less than three duets in Act 3, all excellent, and they give the music a variety it may seem rather to have lacked early on. Handel must have lost faith in the woodwind players at the King's Theatre; I did not notice the oboes, and the flutes are prominent only in the charming love duet Andronico sings with Asteria. The string band is small (4.3.3.2.1) and plays with precision and style. All praise to the conductor.

There is hardly any variety in the scoring of the arias and an almost non-stop dependence on do capo form, but the singers are all admirable. The two altos are well contrasted, Henri Ledroit having a slightly heavier and more heroic quality. Some arias are cut, no doubt to avoid a fourth record—Andronico loses two in the middle act— but I doubt if many listeners will mind this very much. The bass is even allowed an extra aria late on in the First Act which is said to survive only in a Hamburg library—"Nell' mondo e nell' abisso". Gregory Reinhart has a fine voice and well deserves this addition, though I can't at the moment recall what he has to do with the plot. Of the two nubile girls, I especially liked Mieke van der Sluis as Asteria (the part originally sung by Cuzzoni). Her coloratura is very assured, but then all the singers have to tackle a good deal of this sort of vocal line, and they all emerge with great credit. The records have been well balanced and well recorded; they gave me a great deal of pleasure. – R.F, Gramophone [6/1985] Reviewing original LP

Tracklist:

CD 1:
01. Overture
02. Act 1 - Recitativo: Esci ,esci o signore
03. Act 1 - Aria: Non si perda di vista - Recitativo: Non si perda vista
04. Act 1 - Aria: Vo dar pace - Recitativo: Il Tartaro ama Asteria
05. Act 1 - Aria: Bella Asteria - Recitativo: Il Tartaro ama Asteria
06. Act 1 - Aria: Dammi Pace - Recitativo: Serve Asteria di prezzo
07. Act 1 - Aria: Se non mi vuol amar - Recitativo: Non ascolto piu nulla
08. Act 1 - Aria: Ciel e terra armi di sdegno - Recitativo: S'ho a soffrir
09. Act 1 - Aria: Deh! Lasciatemi il Nemico - Recitativo: Principessa infelice
10. Act 1 - Aria: Nel mondo e nell abisso
11. Act 1 - Aria: Dal Crudel che m'ha tradita
12. Act 1 - Recitativo: Chi vide mai - Aria: Benchi mi sprezzi

CD 2:
01. Act 2 - Recitativo: Amico,Tengo un testimon fedele
02. Act 2 - Aria: Bella gara che faranno
03. Act 2 - Reictativo: Ah,no Dove trascorri - Aria: Cerco invano - Recitativo: Signor, vergine illutre
04. Act 2 - Aria: Par che mi nasca in seno - Recitativo: Veggio da questi amori
05. Act 2 - Aria: Amor da guerra e pace
06. Act 2 - Aria: A' suoi piedi - Recitativo: Sdegni! Ma di monarco
07. Act 2 - Terzetto: Volgio stragi

CD 3:
01. Act 3 - Recitativo: Figlia, siam rei
02. Act 3 - Aria: Cor di padre - Recitativo: Andronico, il mio amore
03. Act 3 - Aria: A' Dispetto - Recitativo: Figlia, con atto vil tutta perdesti
04. Act 3 - Duetto:Vivo in Te, mio caro bene
05. Act 3 - Aria: Crudel piu non son io - Recitativo: Se Irene al trono
06. Act 3 - Aria: Se ad un contante core
07. Act 3 - Recitativo accompagnato: Padre,Amante - Arioso: Folle Sei
08. Act 3 - Recitativo accompagnato: E il soffrirete, d' onestade o numi - Aria: Empio, per farti guerra - Recitativo: Signor, fra tante cure
09. Act 3 - Duetto: Vedro chun di si cangiera - Recitativo: Oh, per me lieto
10. Act 3 - Recitativo accompagnato: Fremi,minaccia - Arioso: Figlia mia - Recitativo accompagnato: Tu, spietato, il vedrai - Arioso e Recitativo accompagnato: Su, via, furie e ministre
11. Act 3 - Recitativo: Barbaro! alfin sei sazio ancor
12. Act 3 - Duetto: Coronata di gigli e di rose - Recitativo: Ora, invitta regina
13. Act 3 - Coro: D'atra notte gia mirasi a scorno

Musicians:
Bass Vocals [Leone] – Gregory Reinhart
Countertenor Vocals [Andronico] – Rene Jacobs
Countertenor Vocals [Tamerlano] – Henri Ledroit
Orchestra – La Grande Ecurie Et La Chambre Du Roy
Soprano Vocals [Asteria] – Mieke van der Sluis
Soprano Vocals [Irene] – Isabelle Poulenard
Tenor Vocals [Bajazet] – John Elwes

Composer – George Frideric Handel (1685-1759)
Conductor – Jean-Claude Malgoire


Exact Audio Copy V0.99 prebeta 5 from 4. May 2009

EAC extraction logfile from 3. September 2010, 14:11

Handel/Malgloire / Tamerlano

Used drive : HL-DT-STDVD-RAM GSA-H55N Adapter: 0 ID: 0

Read mode : Secure
Utilize accurate stream : Yes
Defeat audio cache : Yes
Make use of C2 pointers : No

Read offset correction : 102
Overread into Lead-In and Lead-Out : No
Fill up missing offset samples with silence : Yes
Delete leading and trailing silent blocks : No
Null samples used in CRC calculations : Yes
Used interface : Native Win32 interface for Win NT & 2000
Gap handling : Appended to previous track

Used output format : User Defined Encoder
Selected bitrate : 768 kBit/s
Quality : High
Add ID3 tag : No
Command line compressor : G:\Program Files\Exact Audio Copy\FLAC\FLAC.EXE
Additional command line options : -6 -V -T "ARTIST=%a" -T "TITLE=%t" -T "ALBUM=%g" -T "DATE=%y" -T "TRACKNUMBER=%n" -T "GENRE=%m" -T "COMMENT=%e" %s -o %d


TOC of the extracted CD

Track | Start | Length | Start sector | End sector
––––––––––––––––––––––––––––-
1 | 0:00.00 | 5:08.15 | 0 | 23114
2 | 5:08.15 | 4:08.37 | 23115 | 41751
3 | 9:16.52 | 9:05.28 | 41752 | 82654
4 | 18:22.05 | 5:32.37 | 82655 | 107591
5 | 23:54.42 | 8:19.40 | 107592 | 145056
6 | 32:14.07 | 5:08.23 | 145057 | 168179
7 | 37:22.30 | 9:15.67 | 168180 | 209871
8 | 46:38.22 | 4:22.30 | 209872 | 229551
9 | 51:00.52 | 6:46.10 | 229552 | 260011
10 | 57:46.62 | 5:36.30 | 260012 | 285241
11 | 63:23.17 | 3:57.28 | 285242 | 303044
12 | 67:20.45 | 9:19.30 | 303045 | 344999


Track 1

Filename G:\Downloads\Nowy folder\tamerlano\CD 1\01. Overture.wav

Pre-gap length 0:00:02.00

Peak level 41.6 %
Track quality 99.9 %
Test CRC 8CD09BDE
Copy CRC 8CD09BDE
Cannot be verified as accurate (confidence 1) [F86A80C5], AccurateRip returned [D04FBCA0]
Copy OK

Track 2

Filename G:\Downloads\Nowy folder\tamerlano\CD 1\02. Recitativo- Esci ,Esci O Signore.wav

Peak level 99.4 %
Track quality 100.0 %
Test CRC BCE683AE
Copy CRC BCE683AE
Cannot be verified as accurate (confidence 1) [57F12542], AccurateRip returned [85AE6AF3]
Copy OK

Track 3

Filename G:\Downloads\Nowy folder\tamerlano\CD 1\03. Aria- Non Si Perda Di Vista - Recitativo- Non Si Perda Vista.wav

Peak level 51.4 %
Track quality 100.0 %
Test CRC 9B24CE25
Copy CRC 9B24CE25
Cannot be verified as accurate (confidence 1) [E831CAAE], AccurateRip returned [96DECC14]
Copy OK

Track 4

Filename G:\Downloads\Nowy folder\tamerlano\CD 1\04. Aria- Vo Dar Pace - Recitativo- Il Tartaro Ama Asteria.wav

Peak level 57.6 %
Track quality 100.0 %
Test CRC F6FCABA7
Copy CRC F6FCABA7
Cannot be verified as accurate (confidence 1) [39D64FCF], AccurateRip returned [6DF52F9A]
Copy OK

Track 5

Filename G:\Downloads\Nowy folder\tamerlano\CD 1\05. Aria- Bella Asteria - Recitativo- Il Tartaro Ama Asteria.wav

Peak level 63.1 %
Track quality 100.0 %
Test CRC 93B50C84
Copy CRC 93B50C84
Cannot be verified as accurate (confidence 1) [C0EF79A7], AccurateRip returned [3CFD8A0C]
Copy OK

Track 6

Filename G:\Downloads\Nowy folder\tamerlano\CD 1\06. Aria- Dammi Pace - Recitativo- Serve Asteria Di Prezzo.wav

Peak level 54.7 %
Track quality 100.0 %
Test CRC 622DD8D2
Copy CRC 622DD8D2
Cannot be verified as accurate (confidence 1) [B8C49608], AccurateRip returned [B466B789]
Copy OK

Track 7

Filename G:\Downloads\Nowy folder\tamerlano\CD 1\07. Aria- Se Non Mi Vuol Amar - Recitativo- Non Ascolto Piu Nulla.wav

Peak level 70.3 %
Track quality 99.9 %
Test CRC 7275D347
Copy CRC 7275D347
Cannot be verified as accurate (confidence 1) [BD21174A], AccurateRip returned [C684D4A0]
Copy OK

Track 8

Filename G:\Downloads\Nowy folder\tamerlano\CD 1\08. Aria- Ciel E Terra Armi Di Sdegno - Recitativo- S'Ho A Soffrir.wav

Peak level 58.5 %
Track quality 100.0 %
Test CRC 550B9759
Copy CRC 550B9759
Cannot be verified as accurate (confidence 1) [03C352EF], AccurateRip returned [34C3BB5D]
Copy OK

Track 9

Filename G:\Downloads\Nowy folder\tamerlano\CD 1\09. Aria- Deh! Lasciatemi Il Nemico - Recitativo- Principessa Infelice.wav

Peak level 62.5 %
Track quality 100.0 %
Test CRC CC41078B
Copy CRC CC41078B
Cannot be verified as accurate (confidence 1) [D10DEF65], AccurateRip returned [19B4D295]
Copy OK

Track 10

Filename G:\Downloads\Nowy folder\tamerlano\CD 1\10. Aria- Nel Mondo E Nell Abisso.wav

Peak level 57.7 %
Track quality 100.0 %
Test CRC 5BCA112A
Copy CRC 5BCA112A
Cannot be verified as accurate (confidence 1) [A5AA3E6B], AccurateRip returned [3732C9BA]
Copy OK

Track 11

Filename G:\Downloads\Nowy folder\tamerlano\CD 1\11. Aria- Dal Crudel Che M'Ha Tradita.wav

Peak level 93.7 %
Track quality 100.0 %
Test CRC A210263D
Copy CRC A210263D
Cannot be verified as accurate (confidence 1) [8093D47E], AccurateRip returned [54350BA0]
Copy OK

Track 12

Filename G:\Downloads\Nowy folder\tamerlano\CD 1\12. Recitativo- Chi Vide Mai - Aria- Benchi Mi Sprezzi.wav

Peak level 59.8 %
Track quality 100.0 %
Test CRC C89447F9
Copy CRC C89447F9
Cannot be verified as accurate (confidence 1) [9FBB7D78], AccurateRip returned [C50CD748]
Copy OK


No tracks could be verified as accurate
You may have a different pressing from the one(s) in the database

No errors occurred

End of status report

foobar2000 1.3.6 / Dynamic Range Meter 1.1.1
log date: 2018-03-04 14:37:25

––––––––––––––––––––––––––––––––––––––––
Analyzed: Handel/Malgloire / Tamerlano
––––––––––––––––––––––––––––––––––––––––

DR Peak RMS Duration Track
––––––––––––––––––––––––––––––––––––––––
DR13 -7.60 dB -24.89 dB 5:08 01-Overture
DR17 -0.05 dB -28.74 dB 4:08 02-Recitativo: Esci ,Esci O Signore
DR16 -5.77 dB -25.81 dB 9:05 03-Aria: Non Si Perda Di Vista - Recitativo: Non Si Perda Vista
DR16 -4.79 dB -25.54 dB 5:32 04-Aria: Vo Dar Pace - Recitativo: Il Tartaro Ama Asteria
DR16 -3.99 dB -27.26 dB 8:20 05-Aria: Bella Asteria - Recitativo: Il Tartaro Ama Asteria
DR15 -5.23 dB -26.34 dB 5:08 06-Aria: Dammi Pace - Recitativo: Serve Asteria Di Prezzo
DR15 -3.06 dB -25.11 dB 9:16 07-Aria: Se Non Mi Vuol Amar - Recitativo: Non Ascolto Piu Nulla
DR16 -4.64 dB -24.37 dB 4:22 08-Aria: Ciel E Terra Armi Di Sdegno - Recitativo: S'Ho A Soffrir
DR15 -4.08 dB -25.07 dB 6:46 09-Aria: Deh! Lasciatemi Il Nemico - Recitativo: Principessa Infelice
DR14 -4.77 dB -22.24 dB 5:36 10-Aria: Nel Mondo E Nell Abisso
DR17 -0.56 dB -23.55 dB 3:57 11-Aria: Dal Crudel Che M'Ha Tradita
DR18 -4.46 dB -26.80 dB 9:19 12-Recitativo: Chi Vide Mai - Aria: Benchi Mi Sprezzi
––––––––––––––––––––––––––––––––––––––––

Number of tracks: 12
Official DR value: DR16

Samplerate: 44100 Hz
Channels: 2
Bits per sample: 16
Bitrate: 600 kbps
Codec: FLAC
================================================================================

Exact Audio Copy V0.99 prebeta 5 from 4. May 2009

EAC extraction logfile from 3. September 2010, 15:21

La Grande Ecurie et La Cjambre du Roy-JC.Malgoire / Handel-Tamerlano Act II

Used drive : HL-DT-STDVD-RAM GSA-H55N Adapter: 0 ID: 0

Read mode : Secure
Utilize accurate stream : Yes
Defeat audio cache : Yes
Make use of C2 pointers : No

Read offset correction : 102
Overread into Lead-In and Lead-Out : No
Fill up missing offset samples with silence : Yes
Delete leading and trailing silent blocks : No
Null samples used in CRC calculations : Yes
Used interface : Native Win32 interface for Win NT & 2000
Gap handling : Appended to previous track

Used output format : User Defined Encoder
Selected bitrate : 768 kBit/s
Quality : High
Add ID3 tag : No
Command line compressor : G:\Program Files\Exact Audio Copy\FLAC\FLAC.EXE
Additional command line options : -6 -V -T "ARTIST=%a" -T "TITLE=%t" -T "ALBUM=%g" -T "DATE=%y" -T "TRACKNUMBER=%n" -T "GENRE=%m" -T "COMMENT=%e" %s -o %d


TOC of the extracted CD

Track | Start | Length | Start sector | End sector
––––––––––––––––––––––––––––-
1 | 0:00.00 | 1:34.35 | 0 | 7084
2 | 1:34.35 | 4:33.50 | 7085 | 27609
3 | 6:08.10 | 11:03.52 | 27610 | 77386
4 | 17:11.62 | 6:04.68 | 77387 | 104754
5 | 23:16.55 | 4:23.67 | 104755 | 124546
6 | 27:40.47 | 6:28.65 | 124547 | 153711
7 | 34:09.37 | 1:32.18 | 153712 | 160629


Track 1

Filename G:\Downloads\Nowy folder\tamerlano\CD 2\01. Recitativo (Termerlano, Andronico).wav

Pre-gap length 0:00:02.00

Peak level 45.7 %
Track quality 99.7 %
Test CRC 06B97A25
Copy CRC 06B97A25
Cannot be verified as accurate (confidence 1) [FD50CB4C], AccurateRip returned [0245DA82]
Copy OK

Track 2

Filename G:\Downloads\Nowy folder\tamerlano\CD 2\02. Aria 'Bella gara che faranno' (Tamerlano).wav

Peak level 66.0 %
Track quality 99.9 %
Test CRC 83CEDD26
Copy CRC 83CEDD26
Cannot be verified as accurate (confidence 1) [674726DE], AccurateRip returned [45D38C5A]
Copy OK

Track 3

Filename G:\Downloads\Nowy folder\tamerlano\CD 2\03. Recitativo, Aria 'Cerco invano', Recitativo (Andronico, etc).wav

Peak level 55.0 %
Track quality 100.0 %
Test CRC 2A435040
Copy CRC 2A435040
Cannot be verified as accurate (confidence 1) [83BABFBC], AccurateRip returned [8D0994A7]
Copy OK

Track 4

Filename G:\Downloads\Nowy folder\tamerlano\CD 2\04. Aria 'Par che mi nasca in seno', Recitativo (Irene; Leone).wav

Peak level 56.4 %
Track quality 99.9 %
Test CRC E8DBA0AE
Copy CRC E8DBA0AE
Cannot be verified as accurate (confidence 1) [7C1DF80D], AccurateRip returned [FD12757E]
Copy OK

Track 5

Filename G:\Downloads\Nowy folder\tamerlano\CD 2\05. Aria 'Amor da guerra e pace' (Leone).wav

Peak level 68.0 %
Track quality 100.0 %
Test CRC 1DEBDBE6
Copy CRC 1DEBDBE6
Cannot be verified as accurate (confidence 1) [A04D8D58], AccurateRip returned [79E0DEBA]
Copy OK

Track 6

Filename G:\Downloads\Nowy folder\tamerlano\CD 2\06. Aria 'A' suoi piedi', Recitativo (Bajazet;Tamerlano).wav

Peak level 43.0 %
Track quality 99.9 %
Test CRC 314AB3F5
Copy CRC 314AB3F5
Cannot be verified as accurate (confidence 1) [23FF3BCE], AccurateRip returned [B7835C9B]
Copy OK

Track 7

Filename G:\Downloads\Nowy folder\tamerlano\CD 2\07. Terzetto 'Voglio stragi' (Tamerlano, Bajazet, Asteria).wav

Peak level 68.5 %
Track quality 100.0 %
Test CRC 3233AA45
Copy CRC 3233AA45
Cannot be verified as accurate (confidence 1) [C52DCB27], AccurateRip returned [F35E5323]
Copy OK


No tracks could be verified as accurate
You may have a different pressing from the one(s) in the database

No errors occurred

End of status report

foobar2000 1.3.6 / Dynamic Range Meter 1.1.1
log date: 2018-03-04 14:42:40

––––––––––––––––––––––––––––––––––––––––
Analyzed: La Grande Ecurie et La Cjambre du Roy-JC.Malgoire / Handel-Tamerlano Act II
––––––––––––––––––––––––––––––––––––––––

DR Peak RMS Duration Track
––––––––––––––––––––––––––––––––––––––––
DR16 -6.79 dB -28.17 dB 1:34 01-Recitativo (Termerlano, Andronico)
DR14 -3.60 dB -26.20 dB 4:34 02-Aria 'Bella gara che faranno' (Tamerlano)
DR18 -5.19 dB -27.60 dB 11:04 03-Recitativo, Aria 'Cerco invano', Recitativo (Andronico, etc)
DR16 -4.97 dB -26.42 dB 6:05 04-Aria 'Par che mi nasca in seno', Recitativo (Irene; Leone)
DR14 -3.35 dB -21.65 dB 4:24 05-Aria 'Amor da guerra e pace' (Leone)
DR16 -7.31 dB -28.24 dB 6:29 06-Aria 'A' suoi piedi', Recitativo (Bajazet;Tamerlano)
DR14 -3.28 dB -23.15 dB 1:32 07-Terzetto 'Voglio stragi' (Tamerlano, Bajazet, Asteria)
––––––––––––––––––––––––––––––––––––––––

Number of tracks: 7
Official DR value: DR15

Samplerate: 44100 Hz
Channels: 2
Bits per sample: 16
Bitrate: 637 kbps
Codec: FLAC
================================================================================

Exact Audio Copy V0.99 prebeta 5 from 4. May 2009

EAC extraction logfile from 3. September 2010, 21:03

Jean-Claude Malgoire / Hдndel: Tamerlano

Used drive : HL-DT-STDVD-RAM GSA-H55N Adapter: 0 ID: 0

Read mode : Secure
Utilize accurate stream : Yes
Defeat audio cache : Yes
Make use of C2 pointers : No

Read offset correction : 102
Overread into Lead-In and Lead-Out : No
Fill up missing offset samples with silence : Yes
Delete leading and trailing silent blocks : No
Null samples used in CRC calculations : Yes
Used interface : Native Win32 interface for Win NT & 2000
Gap handling : Appended to previous track

Used output format : User Defined Encoder
Selected bitrate : 768 kBit/s
Quality : High
Add ID3 tag : No
Command line compressor : G:\Program Files\Exact Audio Copy\FLAC\FLAC.EXE
Additional command line options : -6 -V -T "ARTIST=%a" -T "TITLE=%t" -T "ALBUM=%g" -T "DATE=%y" -T "TRACKNUMBER=%n" -T "GENRE=%m" -T "COMMENT=%e" %s -o %d


TOC of the extracted CD

Track | Start | Length | Start sector | End sector
––––––––––––––––––––––––––––-
1 | 0:00.00 | 2:22.35 | 0 | 10684
2 | 2:22.35 | 10:52.17 | 10685 | 59601
3 | 13:14.52 | 3:21.13 | 59602 | 74689
4 | 16:35.65 | 6:17.72 | 74690 | 103036
5 | 22:53.62 | 3:42.30 | 103037 | 119716
6 | 26:36.17 | 4:04.10 | 119717 | 138026
7 | 30:40.27 | 2:33.15 | 138027 | 149516
8 | 33:13.42 | 5:44.60 | 149517 | 175376
9 | 38:58.27 | 4:12.03 | 175377 | 194279
10 | 43:10.30 | 8:06.40 | 194280 | 230769
11 | 51:16.70 | 3:08.10 | 230770 | 244879
12 | 54:25.05 | 6:52.72 | 244880 | 275851
13 | 61:18.02 | 2:06.55 | 275852 | 285356


Track 1

Filename G:\Downloads\Nowy folder\tamerlano\CD 3\01. III. Akt- Recitativo- 'Figlia, Siam Rei'.wav

Pre-gap length 0:00:02.00

Peak level 52.5 %
Track quality 99.8 %
Test CRC 20A896AF
Copy CRC 20A896AF
Cannot be verified as accurate (confidence 1) [3A3E5074], AccurateRip returned [28228A60]
Copy OK

Track 2

Filename G:\Downloads\Nowy folder\tamerlano\CD 3\02. III. Akt- Aria- 'Cor Di Padre',Recitativo- 'Andronico, Il Mio Amore'.wav

Peak level 58.7 %
Track quality 99.9 %
Test CRC 11F89C37
Copy CRC 11F89C37
Cannot be verified as accurate (confidence 1) [2C0DF4EE], AccurateRip returned [259684C9]
Copy OK

Track 3

Filename G:\Downloads\Nowy folder\tamerlano\CD 3\03. III. Akt- Aria- 'A Despetto',Recitativo- 'Figlia, Con Atto Vil Tutta perdesti'.wav

Peak level 75.9 %
Track quality 100.0 %
Test CRC B90D93AC
Copy CRC B90D93AC
Cannot be verified as accurate (confidence 1) [5E3ECAA8], AccurateRip returned [55D256A5]
Copy OK

Track 4

Filename G:\Downloads\Nowy folder\tamerlano\CD 3\04. III. Akt- Duetto- 'Vivo In Te, Mio Caro Bene'.wav

Peak level 66.4 %
Track quality 100.0 %
Test CRC C6511EBC
Copy CRC C6511EBC
Cannot be verified as accurate (confidence 1) [634AB5CA], AccurateRip returned [4FB4BC90]
Copy OK

Track 5

Filename G:\Downloads\Nowy folder\tamerlano\CD 3\05. III. Akt- Aria- 'Crudel Piщ Non Son io',Recitativo- 'Se Irene Al Trono'.wav

Peak level 61.6 %
Track quality 100.0 %
Test CRC 481D86F1
Copy CRC 481D86F1
Cannot be verified as accurate (confidence 1) [66E2286F], AccurateRip returned [A7675607]
Copy OK

Track 6

Filename G:\Downloads\Nowy folder\tamerlano\CD 3\06. III. Akt- Aria- 'Se Ad un Costante Core'.wav

Peak level 52.5 %
Track quality 100.0 %
Test CRC EDE64B0C
Copy CRC EDE64B0C
Cannot be verified as accurate (confidence 1) [229607A7], AccurateRip returned [DBADC0F1]
Copy OK

Track 7

Filename G:\Downloads\Nowy folder\tamerlano\CD 3\07. III. Akt- Recitativo Accompagnato- 'Padre, Amante',Arioso- 'Folle Sei'.wav

Peak level 55.3 %
Track quality 100.0 %
Test CRC 06295642
Copy CRC 06295642
Cannot be verified as accurate (confidence 1) [38CF117E], AccurateRip returned [CC72EFA5]
Copy OK

Track 8

Filename G:\Downloads\Nowy folder\tamerlano\CD 3\08. III. Akt- Recitativo Accompagnato- 'E Il Soffrirete, D'Onestade, O Numi ,Aria- 'Empio, Per Farti Gue.wav

Peak level 74.2 %
Track quality 100.0 %
Test CRC 760FB0A9
Copy CRC 760FB0A9
Cannot be verified as accurate (confidence 1) [EDCCC15D], AccurateRip returned [91D65ED0]
Copy OK

Track 9

Filename G:\Downloads\Nowy folder\tamerlano\CD 3\09. III. Akt- Duetto- 'Vedrт Ch'Un Dм Si Cangierа',Recitativo- 'Oh, Per me Lieto'.wav

Peak level 50.4 %
Track quality 99.9 %
Test CRC 1634767D
Copy CRC 1634767D
Cannot be verified as accurate (confidence 1) [10E651AB], AccurateRip returned [2ECE1450]
Copy OK

Track 10

Filename G:\Downloads\Nowy folder\tamerlano\CD 3\10. III. Akt- Recitativo Accompagnato- 'Fremi, Minaccia',Arioso- 'Figlia Mia',Recitativo Accompagnato- '.wav

Peak level 79.8 %
Track quality 100.0 %
Test CRC E0ABEBCF
Copy CRC E0ABEBCF
Cannot be verified as accurate (confidence 1) [FA446074], AccurateRip returned [94367F7C]
Copy OK

Track 11

Filename G:\Downloads\Nowy folder\tamerlano\CD 3\11. III. Akt- Recitativo- 'Barabaro! Alfin Sei Sazio Ancor '.wav

Peak level 65.0 %
Track quality 100.0 %
Test CRC A4B75404
Copy CRC A4B75404
Cannot be verified as accurate (confidence 1) [1B55ECF7], AccurateRip returned [A1E3DA6A]
Copy OK

Track 12

Filename G:\Downloads\Nowy folder\tamerlano\CD 3\12. III. Akt- Duetto- 'Coronato Di Gigli e Di Rose',Recitativo- 'Ora, Invitta Regina'.wav

Peak level 55.8 %
Track quality 100.0 %
Test CRC EADD7B9B
Copy CRC EADD7B9B
Cannot be verified as accurate (confidence 1) [E4F162D4], AccurateRip returned [C3F23B8F]
Copy OK

Track 13

Filename G:\Downloads\Nowy folder\tamerlano\CD 3\13. III. Akt- Coro- 'D'Atra Notte Giа Mirasi A Scorno'.wav

Peak level 71.3 %
Track quality 100.0 %
Test CRC 4E3FD50B
Copy CRC 4E3FD50B
Cannot be verified as accurate (confidence 1) [972B225A], AccurateRip returned [5D731AF5]
Copy OK


No tracks could be verified as accurate
You may have a different pressing from the one(s) in the database

No errors occurred

End of status report

foobar2000 1.3.6 / Dynamic Range Meter 1.1.1
log date: 2018-03-04 14:51:06

––––––––––––––––––––––––––––––––––––––––
Analyzed: Jean-Claude Malgoire / Händel: Tamerlano
––––––––––––––––––––––––––––––––––––––––

DR Peak RMS Duration Track
––––––––––––––––––––––––––––––––––––––––
DR16 -5.58 dB -27.46 dB 2:22 01-III. Akt: Recitativo: 'Figlia, Siam Rei'
DR16 -4.63 dB -26.07 dB 10:52 02-III. Akt: Aria: 'Cor Di Padre'/Recitativo: 'Andronico, Il Mio Amore'
DR16 -2.39 dB -26.40 dB 3:21 03-III. Akt: Aria: 'A Despetto'/Recitativo: 'Figlia, Con Atto Vil Tutta perdesti'
DR15 -3.56 dB -24.72 dB 6:18 04-III. Akt: Duetto: 'Vivo In Te, Mio Caro Bene'
DR15 -4.21 dB -25.25 dB 3:42 05-III. Akt: Aria: 'Crudel Piů Non Son io'/Recitativo: 'Se Irene Al Trono'
DR13 -5.59 dB -22.64 dB 4:04 06-III. Akt: Aria: 'Se Ad un Costante Core'
DR14 -5.13 dB -25.64 dB 2:33 07-III. Akt: Recitativo Accompagnato: 'Padre, Amante'/Arioso: 'Folle Sei'
DR15 -2.59 dB -23.17 dB 5:45 08-III. Akt: Recitativo Accompagnato: 'E Il Soffrirete, D'Onestade, O Numi?/Aria: 'Empio, Per Farti Gue
DR15 -5.95 dB -26.84 dB 4:12 09-III. Akt: Duetto: 'Vedrň Ch'Un Dě Si Cangierŕ'/Recitativo: 'Oh, Per me Lieto'
DR19 -1.96 dB -28.06 dB 8:07 10-III. Akt: Recitativo Accompagnato: 'Fremi, Minaccia'/Arioso: 'Figlia Mia'/Recitativo Accompagnato: '
DR15 -3.73 dB -26.75 dB 3:08 11-III. Akt: Recitativo: 'Barabaro! Alfin Sei Sazio Ancor?'
DR16 -5.06 dB -26.05 dB 6:53 12-III. Akt: Duetto: 'Coronato Di Gigli e Di Rose'/Recitativo: 'Ora, Invitta Regina'
DR15 -2.94 dB -21.94 dB 2:07 13-III. Akt: Coro: 'D'Atra Notte Giŕ Mirasi A Scorno'
––––––––––––––––––––––––––––––––––––––––

Number of tracks: 13
Official DR value: DR15

Samplerate: 44100 Hz
Channels: 2
Bits per sample: 16
Bitrate: 672 kbps
Codec: FLAC
================================================================================

Thanks to the original releaser